osu file format v14

[General]
AudioFilename: audio.mp3
AudioLeadIn: 0
PreviewTime: 88195
Countdown: 0
SampleSet: Soft
StackLeniency: 0.4
Mode: 0
LetterboxInBreaks: 0
WidescreenStoryboard: 0

[Editor]
Bookmarks: 11721,111605,117154,211143
DistanceSpacing: 0.5
BeatDivisor: 4
GridSize: 4
TimelineZoom: 2

[Metadata]
Title:Kimi ga Kimi ga -vocanico remix-
TitleUnicode:君が君が -vocanico remix-
Artist:baker
ArtistUnicode:baker
Creator:jonathanlfj
Version:Extra
Source:
Tags:Nyquill pishifat 初音ミク Append Hatsune Miku Vocaloid 很高興認識你。我們 -MOtOLOiD- osu osu! featured artist
BeatmapID:1443510
BeatmapSetID:682595

[Difficulty]
HPDrainRate:7
CircleSize:4
OverallDifficulty:8.5
ApproachRate:9
SliderMultiplier:1.8
SliderTickRate:1

[Events]
//Background and Video events
0,0,"Kimiga_Kimiga.jpg",0,0
//Break Periods
2,111823,116573
//Storyboard Layer 0 (Background)
//Storyboard Layer 1 (Fail)
//Storyboard Layer 2 (Pass)
//Storyboard Layer 3 (Foreground)
//Storyboard Sound Samples

[TimingPoints]
642,346.820809248555,4,2,1,70,1,0
11740,-100,4,2,1,70,0,0
11826,-100,4,2,1,30,0,0
12087,-100,4,2,1,32,0,0
12433,-100,4,2,1,34,0,0
12780,-100,4,2,1,36,0,0
13127,-100,4,2,1,38,0,0
13474,-100,4,2,1,40,0,0
13821,-100,4,2,1,42,0,0
14168,-100,4,2,1,44,0,0
14514,-100,4,2,1,46,0,0
14861,-100,4,2,1,48,0,0
15208,-100,4,2,1,50,0,0
15555,-100,4,2,1,52,0,0
15902,-100,4,2,1,54,0,0
16248,-100,4,2,1,56,0,0
16595,-100,4,2,1,58,0,0
16942,-100,4,2,1,60,0,0
17289,-125,4,2,1,60,0,0
20410,-111.111111111111,4,2,1,60,0,0
20757,-100,4,2,1,65,0,0
21104,-90.9090909090909,4,2,1,65,0,0
21451,-83.3333333333333,4,2,1,70,0,0
22491,-125,4,2,1,70,0,0
22751,-125,4,2,1,5,0,0
22838,-100,4,2,1,65,0,0
33936,-100,4,2,1,70,0,0
44168,-90.9090909090909,4,2,1,70,0,0
45035,-111.111111111111,4,2,1,60,0,0
55786,-90.9090909090909,4,2,1,60,0,0
56133,-100,4,2,1,70,0,0
66191,-90.9090909090909,4,2,1,70,0,0
66537,-83.3333333333333,4,2,1,70,0,0
67231,-100,4,2,1,70,0,0
78329,-83.3333333333333,4,2,1,75,0,0
78503,-100,4,2,1,75,0,0
79023,-83.3333333333333,4,2,1,75,0,0
79543,-133.333333333333,4,2,1,75,0,0
80237,-90.9090909090909,4,2,1,75,0,0
81104,-100,4,2,1,75,0,0
81798,-83.3333333333333,4,2,1,75,0,0
82318,-133.333333333333,4,2,1,75,0,0
83185,-83.3333333333333,4,2,1,75,0,0
83878,-111.111111111111,4,2,1,65,0,0
86653,-111.111111111111,4,2,1,70,0,0
87347,-111.111111111111,4,2,1,75,0,0
88040,-100,4,2,1,80,0,0
88387,-90.9090909090909,4,2,1,80,0,0
88734,-83.3333333333333,4,2,1,80,0,0
89081,-133.333333333333,4,2,1,80,0,0
89341,-133.333333333333,4,2,1,10,0,0
89428,-83.3333333333333,4,2,1,80,0,1
94630,-100,4,2,1,80,0,1
95324,-90.9090909090909,4,2,1,80,0,1
96017,-83.3333333333333,4,2,1,80,0,1
100526,-90.9090909090909,4,2,1,80,0,1
111277,-133.333333333333,4,2,1,80,0,1
111624,-100,4,2,1,70,0,0
117173,-125,4,2,1,60,0,0
121335,-100,4,2,1,65,0,0
121682,-90.9090909090909,4,2,1,65,0,0
122029,-83.3333333333333,4,2,1,65,0,0
122376,-133.333333333333,4,2,1,65,0,0
122722,-111.111111111111,4,2,1,70,0,1
122809,-111.111111111111,4,2,1,70,0,0
133821,-100,4,2,1,70,0,0
142838,-100,4,2,1,75,0,0
143532,-100,4,2,1,80,0,0
143878,-90.9090909090909,4,2,1,80,0,0
144225,-83.3333333333333,4,2,1,80,0,0
144572,-133.333333333333,4,2,1,80,0,0
144832,-133.333333333333,4,2,1,10,0,0
144919,-83.3333333333333,4,2,1,80,0,1
150121,-100,4,2,1,80,0,1
150815,-90.9090909090909,4,2,1,80,0,1
151509,-83.3333333333333,4,2,1,80,0,1
155670,-71.4285714285714,4,2,1,80,0,1
156017,-90.9090909090909,4,2,1,80,0,1
166769,-133.333333333333,4,2,1,80,0,1
167029,-133.333333333333,4,2,1,10,0,1
167115,-90.9090909090909,4,2,1,80,0,0
178214,-100,4,2,1,80,0,0
186537,-105.263157894737,4,2,1,70,0,0
188965,-83.3333333333333,4,2,1,70,0,0
189312,-111.111111111111,4,2,1,60,0,0
200410,-125,4,2,1,50,0,0

[Colours]
Combo1 : 224,86,254
Combo2 : 1,142,248
Combo3 : 56,254,234
Combo4 : 255,51,107

[HitObjects]
256,192,11740,5,4,1:0:0:0:
256,192,11826,12,8,16942,1:0:0:0:
120,280,17289,6,0,P|168:268|280:264,1,144,4|0,1:2|0:0,1:0:0:0:
262,262,17983,1,8,1:0:0:0:
208,176,18156,2,0,P|199:141|196:96,1,72,0|0,1:0|0:0,1:0:0:0:
372,148,18503,2,0,P|364:196|356:224,1,72,0|0,1:0|0:0,1:0:0:0:
300,68,18850,5,0,1:0:0:0:
464,208,19023,2,0,P|473:170|480:124,1,72,0|0,1:0|0:0,1:0:0:0:
229,171,19370,2,8,L|377:147,1,144,8|8,1:0|1:0,1:0:0:0:
371,147,20063,5,4,1:2:0:0:
328,268,20237,1,0,1:0:0:0:
264,112,20410,5,0,1:0:0:0:
224,288,20584,1,0,1:0:0:0:
156,76,20757,5,8,1:0:0:0:
116,308,20931,1,0,1:0:0:0:
44,44,21104,5,8,1:0:0:0:
12,328,21277,1,12,1:0:0:0:
156,76,21451,6,0,P|164:108|168:140,1,53.9999983520508,0|0,1:0|1:0,1:0:0:0:
116,308,21624,2,0,P|119:279|128:248,1,53.9999983520508,4|0,1:2|1:0,1:0:0:0:
276,84,21798,6,0,P|284:116|288:148,1,53.9999983520508,0|0,1:0|1:0,1:0:0:0:
224,288,21971,2,0,P|227:259|236:228,1,53.9999983520508,0|0,1:0|1:0,1:0:0:0:
400,96,22144,6,0,P|408:128|412:160,1,53.9999983520508,0|0,1:0|1:0,1:0:0:0:
328,268,22318,2,0,P|331:239|340:208,1,53.9999983520508,0|0,1:0|1:0,1:0:0:0:
442,226,22491,6,0,B|412:232|412:232|337:214,1,108,8|0,1:0|0:0,1:0:0:0:
287,136,22838,6,0,L|299:44,1,90,6|0,1:2|2:0,0:0:0:0:
188,196,23185,1,8,1:0:0:0:
8,108,23358,2,0,L|188:92,1,180,2|0,2:0|1:0,0:0:0:0:
348,228,23878,2,0,P|356:264|352:328,1,90,8|2,1:0|2:0,0:0:0:0:
156,292,24225,6,0,L|276:276,1,90,2|0,1:2|2:0,0:0:0:0:
245,280,24485,1,0,2:0:0:0:
245,280,24572,1,8,1:0:0:0:
332,204,24746,1,2,2:0:0:0:
240,136,24919,2,0,P|231:90|232:36,1,90,0|0,2:0|1:0,0:0:0:0:
436,88,25266,2,0,L|332:80,1,90,8|2,1:0|2:0,0:0:0:0:
196,240,25613,6,0,L|300:228,1,90,2|0,1:2|2:0,0:0:0:0:
289,234,25873,1,0,2:0:0:0:
293,237,25959,2,0,B|308:280|308:280|304:336,1,90,8|2,1:0|2:0,0:0:0:0:
204,368,26306,1,0,2:0:0:0:
404,272,26480,1,0,1:0:0:0:
224,156,26653,2,0,L|232:56,1,90,8|2,1:0|2:0,0:0:0:0:
312,216,27000,5,2,1:2:0:0:
134,165,27173,1,0,2:0:0:0:
134,165,27260,1,0,2:0:0:0:
134,165,27347,2,0,L|246:153,1,90,8|2,1:0|2:0,0:0:0:0:
68,256,27694,2,0,L|64:356,1,90,0|2,2:0|1:2,0:0:0:0:
184,264,28040,1,8,1:0:0:0:
40,104,28214,1,0,2:0:0:0:
236,16,28387,6,0,L|228:120,1,90,2|0,1:2|2:0,0:0:0:0:
384,252,28734,1,8,1:0:0:0:
480,184,28907,2,0,P|503:108|456:20,1,180,2|0,2:0|1:0,0:0:0:0:
280,208,29427,2,0,P|276:252|284:304,1,90,8|2,1:0|2:0,0:0:0:0:
376,140,29774,5,2,1:2:0:0:
288,68,29948,1,0,2:0:0:0:
288,68,30035,1,0,2:0:0:0:
288,68,30121,2,0,P|224:56|184:60,1,90,8|2,1:0|2:0,0:0:0:0:
112,216,30468,1,0,2:0:0:0:
236,156,30642,1,0,1:0:0:0:
52,44,30815,2,0,L|40:144,1,90,8|2,1:0|2:0,0:0:0:0:
92,360,31162,6,0,L|104:264,1,90,2|0,1:2|2:0,0:0:0:0:
107,243,31422,1,0,2:0:0:0:
112,216,31509,1,8,1:0:0:0:
0,284,31683,1,2,2:0:0:0:
204,352,31855,2,0,L|217:259,1,90,0|0,2:0|1:0,0:0:0:0:
108,96,32202,2,0,L|116:204,1,90,8|2,1:0|2:0,0:0:0:0:
308,120,32549,5,8,1:0:0:0:
208,108,32722,1,0,1:0:0:0:
108,96,32896,1,0,1:0:0:0:
340,120,33069,5,8,1:0:0:0:
227,152,33243,1,0,1:0:0:0:
114,185,33416,1,0,1:0:0:0:
370,121,33589,5,8,1:0:0:0:
335,162,33676,1,0,1:0:0:0:
298,202,33763,1,8,1:0:0:0:
259,240,33850,1,0,1:0:0:0:
222,279,33936,6,0,L|217:331,1,45,6|0,1:2|0:0,0:0:0:0:
326,358,34110,2,0,L|321:313,1,45,2|0,0:0|0:0,0:0:0:0:
114,314,34283,2,0,L|118:358,1,45,8|0,1:0|0:0,0:0:0:0:
222,279,34457,2,0,P|233:215|232:136,1,135,2|0,0:0|0:0,0:0:0:0:
232,145,34803,1,0,1:0:0:0:
361,215,34977,2,0,P|347:160|347:118,1,90,8|2,1:0|0:0,0:0:0:0:
488,30,35324,6,0,L|430:22,1,45,2|0,1:2|0:0,0:0:0:0:
453,155,35498,2,0,L|510:147,1,45,2|0,0:0|0:0,0:0:0:0:
351,98,35671,2,0,L|297:104,1,45,8|0,1:0|0:0,0:0:0:0:
182,29,35844,2,0,B|226:10|226:10|327:18,1,135,2|0,0:0|0:0,0:0:0:0:
312,16,36191,1,0,1:0:0:0:
211,158,36364,1,8,1:0:0:0:
214,139,36451,1,0,0:0:0:0:
217,119,36537,1,2,0:0:0:0:
294,247,36711,6,0,L|304:295,1,45,2|0,1:2|0:0,0:0:0:0:
205,202,36885,2,0,L|211:151,1,45,2|0,0:0|0:0,0:0:0:0:
355,139,37058,2,0,L|301:145,1,45,8|0,1:0|0:0,0:0:0:0:
129,108,37231,2,0,P|188:116|256:74,1,135,2|0,0:0|0:0,0:0:0:0:
251,79,37578,1,0,1:0:0:0:
117,223,37751,2,0,P|106:271|107:319,1,90,8|2,1:0|0:0,0:0:0:0:
23,156,38098,6,0,P|12:134|-3:114,1,45,2|0,1:2|0:0,0:0:0:0:
129,108,38272,2,0,P|152:109|178:106,1,45,2|0,0:0|0:0,0:0:0:0:
117,223,38445,2,0,P|104:242|94:266,1,45,8|0,1:0|0:0,0:0:0:0:
238,193,38618,2,0,P|271:148|270:58,1,135,2|0,0:0|0:0,0:0:0:0:
275,71,38965,1,0,1:0:0:0:
129,108,39139,1,8,1:0:0:0:
151,109,39225,1,0,0:0:0:0:
173,106,39312,1,2,0:0:0:0:
371,26,39485,6,0,L|428:34,1,45,2|0,1:2|0:0,0:0:0:0:
381,129,39659,2,0,L|334:151,1,45,2|0,0:0|0:0,0:0:0:0:
467,193,39832,2,0,L|485:148,1,45,8|0,1:0|0:0,0:0:0:0:
312,162,40006,2,0,B|296:209|296:209|315:292,1,135,2|0,0:0|0:0,0:0:0:0:
315,292,40352,1,0,1:0:0:0:
504,344,40526,2,0,B|462:332|462:332|404:343,1,90,8|2,1:0|0:0,0:0:0:0:
181,348,40873,6,0,L|233:340,1,45,2|0,1:2|0:0,0:0:0:0:
315,292,41046,2,0,L|339:245,1,45,2|0,0:0|0:0,0:0:0:0:
138,260,41220,2,0,L|190:252,1,45,8|0,1:0|0:0,0:0:0:0:
265,191,41393,2,0,B|287:141|287:141|270:47,1,135,2|0,0:0|0:0,0:0:0:0:
272,61,41740,1,0,1:0:0:0:
112,162,41913,1,8,1:0:0:0:
137,159,42000,1,0,0:0:0:0:
162,156,42087,1,2,0:0:0:0:
435,110,42260,6,0,L|390:105,1,45,2|0,1:2|0:0,0:0:0:0:
388,212,42433,2,0,L|343:207,1,45,2|0,0:0|0:0,0:0:0:0:
435,110,42607,5,8,1:0:0:0:
412,224,42780,1,0,0:0:0:0:
326,304,42954,1,2,0:0:0:0:
435,110,43127,5,2,1:2:0:0:
434,237,43300,1,8,1:0:0:0:
326,304,43474,1,2,0:0:0:0:
435,110,43647,6,0,L|446:167,1,45,8|0,1:0|0:0,0:0:0:0:
461,252,43821,2,0,L|408:273,1,45,0|0,1:0|0:0,0:0:0:0:
326,304,43994,1,2,1:2:0:0:
435,110,44168,6,0,L|455:170,1,49.5000015106202,8|0,1:0|0:0,0:0:0:0:
484,264,44341,2,0,L|428:279,1,49.5000015106202,0|0,1:0|0:0,0:0:0:0:
326,304,44515,1,2,1:2:0:0:
435,110,44688,5,8,1:0:0:0:
458,157,44774,1,0,1:0:0:0:
420,195,44861,1,8,1:0:0:0:
372,170,44948,1,8,1:0:0:0:
381,116,45035,1,4,1:2:0:0:
381,116,45381,6,0,P|392:64|392:16,1,80.9999975280763,8|0,1:0|0:0,0:0:0:0:
256,148,45728,2,0,P|272:200|276:236,1,80.9999975280763,0|0,0:0|1:0,0:0:0:0:
115,115,46075,2,0,P|107:55|187:3,1,161.999995056153,8|0,1:0|1:0,0:0:0:0:
167,212,46595,6,0,P|128:222|67:216,1,80.9999975280763,0|8,0:0|1:0,0:0:0:0:
256,148,46942,2,0,P|348:164|420:168,1,161.999995056153,0|0,0:0|1:0,0:0:0:0:
416,167,47462,1,8,1:0:0:0:
276,260,47636,1,0,0:0:0:0:
160,104,47809,6,0,P|144:48|144:12,1,80.9999975280763,0|0,1:0|0:0,0:0:0:0:
384,32,48156,2,0,P|344:76|248:40,1,161.999995056153,8|0,1:0|0:0,0:0:0:0:
476,92,48676,1,0,1:0:0:0:
412,180,48850,2,0,P|408:224|416:272,1,80.9999975280763,8|0,1:0|0:0,0:0:0:0:
312,360,49196,6,0,P|296:296|284:268,1,80.9999975280763,0|0,1:0|0:0,0:0:0:0:
164,160,49543,2,0,B|184:168|204:184|204:184|268:172|288:112,1,161.999995056153,8|0,1:0|0:0,0:0:0:0:
192,52,50063,1,0,1:0:0:0:
84,172,50237,2,0,P|140:160|180:160,1,80.9999975280763,8|0,1:0|0:0,0:0:0:0:
428,248,50584,6,0,B|372:252|372:252|328:280|328:280|272:288,2,161.999995056153,0|8|0,1:0|1:0|2:0,1:0:0:0:
408,352,51451,1,0,1:0:0:0:
284,184,51624,2,0,B|268:148|268:148|272:96,1,80.9999975280763,8|0,1:0|0:0,0:0:0:0:
380,128,51971,1,0,1:0:0:0:
380,128,52318,6,0,P|377:169|380:220,1,80.9999975280763,8|0,1:0|0:0,0:0:0:0:
428,308,52665,1,0,0:0:0:0:
508,236,52838,1,0,1:0:0:0:
378,208,53011,2,0,P|322:204|286:208,1,80.9999975280763,8|0,1:0|0:0,0:0:0:0:
196,282,53358,6,0,P|244:226|220:142,1,161.999995056153,0|8,1:0|1:0,0:0:0:0:
316,4,53878,2,0,P|324:52|348:96,1,80.9999975280763
432,144,54225,1,0,1:0:0:0:
228,48,54399,2,0,P|172:44|124:48,1,80.9999975280763,8|0,1:0|0:0,0:0:0:0:
32,197,54746,5,8,1:0:0:0:
171,308,54919,1,0,1:0:0:0:
171,308,55092,1,0,1:0:0:0:
32,197,55266,5,8,1:0:0:0:
260,140,55439,1,0,1:0:0:0:
260,140,55612,1,0,1:0:0:0:
32,197,55786,6,0,L|104:210,1,49.5000015106202,8|0,1:0|1:0,1:0:0:0:
156,219,55959,2,0,L|217:229,1,49.5000015106202,8|0,1:0|1:0,1:0:0:0:
280,240,56133,5,4,1:2:0:0:
391,177,56306,1,0,0:0:0:0:
391,177,56393,1,0,0:0:0:0:
391,177,56480,1,8,1:0:0:0:
283,102,56653,1,2,0:0:0:0:
406,4,56826,2,0,L|399:103,1,90,0|0,0:0|1:0,0:0:0:0:
497,273,57173,2,0,L|490:171,1,90,8|2,1:0|0:0,0:0:0:0:
294,151,57520,5,2,1:2:0:0:
387,234,57694,1,2,0:0:0:0:
387,234,57780,1,0,0:0:0:0:
387,234,57867,1,8,1:0:0:0:
288,309,58040,2,0,P|228:295|104:300,1,180,2|0,0:0|1:0,0:0:0:0:
4,198,58561,2,0,P|62:188|103:172,1,90,8|2,1:0|0:0,0:0:0:0:
143,65,58907,5,2,1:2:0:0:
21,76,59081,1,0,0:0:0:0:
21,76,59168,1,0,0:0:0:0:
21,76,59254,1,8,1:0:0:0:
91,177,59428,1,2,0:0:0:0:
255,105,59601,2,0,P|255:39|247:-3,1,90,0|0,0:0|1:0,0:0:0:0:
143,65,59948,1,8,1:0:0:0:
253,211,60121,1,2,0:0:0:0:
95,265,60295,6,0,P|88:221|90:176,1,90,2|0,1:2|0:0,0:0:0:0:
90,176,60555,1,0,0:0:0:0:
90,176,60642,1,8,1:0:0:0:
207,314,60815,2,0,B|251:331|251:331|400:311,1,180,2|0,0:0|1:0,0:0:0:0:
382,313,61335,1,8,1:0:0:0:
253,211,61509,1,2,0:0:0:0:
95,265,61682,5,2,1:2:0:0:
87,289,61769,1,0,0:0:0:0:
79,313,61855,1,0,0:0:0:0:
72,177,62029,1,8,1:0:0:0:
64,153,62116,1,0,0:0:0:0:
56,129,62202,1,2,0:0:0:0:
191,194,62376,5,0,0:0:0:0:
183,218,62463,1,0,0:0:0:0:
175,242,62549,1,0,1:0:0:0:
168,106,62723,1,8,1:0:0:0:
160,82,62810,1,0,0:0:0:0:
152,58,62896,1,2,0:0:0:0:
285,127,63069,6,0,L|384:132,1,90,2|0,1:2|0:0,0:0:0:0:
380,136,63329,1,0,0:0:0:0:
384,140,63416,2,0,B|400:96|400:96|390:48,1,90,8|2,1:0|0:0,0:0:0:0:
404,240,63763,2,0,B|449:240|449:240|496:217,1,90,0|0,0:0|1:0,0:0:0:0:
308,315,64110,2,0,B|206:313,1,90,8|2,1:0|0:0,0:0:0:0:
113,241,64457,5,2,1:2:0:0:
218,313,64630,1,0,0:0:0:0:
244,197,64803,5,8,1:0:0:0:
89,337,64977,1,0,0:0:0:0:
54,161,65150,5,8,1:0:0:0:
218,313,65324,1,0,1:0:0:0:
270,89,65497,5,8,1:0:0:0:
113,241,65670,1,2,0:0:0:0:
132,33,65844,6,0,L|139:91,1,45,8|0,1:0|0:0,0:0:0:0:
196,159,66017,2,0,L|203:217,1,45,0|0,1:0|0:0,0:0:0:0:
324,207,66191,6,0,L|317:147,1,49.5000015106202,8|0,1:0|0:0,0:0:0:0:
259,64,66364,2,0,L|252:4,1,49.5000015106202,0|0,1:0|0:0,0:0:0:0:
377,5,66537,6,0,L|384:64,1,53.9999983520508,8|0,1:0|0:0,0:0:0:0:
441,158,66711,2,0,L|448:218,1,53.9999983520508,0|0,1:0|0:0,0:0:0:0:
368,319,66884,5,8,1:0:0:0:
321,291,66971,1,0,1:0:0:0:
267,285,67058,1,8,1:0:0:0:
216,301,67144,1,0,1:0:0:0:
176,333,67231,6,0,P|189:263|169:191,1,135,4|0,1:2|0:0,0:0:0:0:
121,142,67578,2,0,P|68:151|20:150,1,90,8|0,1:0|0:0,0:0:0:0:
242,7,67925,2,0,P|235:64|236:112,1,90,0|0,0:0|1:0,0:0:0:0:
397,207,68272,1,8,1:0:0:0:
478,124,68445,2,0,P|485:72|484:22,1,90,2|0,0:0|1:0,0:0:0:0:
286,183,68792,6,0,P|292:236|309:285,1,90,2|8,0:0|1:0,0:0:0:0:
500,366,69139,2,0,P|405:338|331:371,1,180,2|0,0:0|1:0,0:0:0:0:
195,284,69659,1,8,1:0:0:0:
397,207,69832,1,0,0:0:0:0:
293,93,70006,6,0,L|284:202,1,90,2|0,1:2|0:0,0:0:0:0:
195,284,70352,1,8,1:0:0:0:
9,177,70526,2,0,P|88:143|178:180,1,180,2|0,0:0|0:0,0:0:0:0:
354,50,71046,1,8,1:0:0:0:
423,131,71220,6,0,P|339:156|264:112,1,180,2|0,0:0|0:0,0:0:0:0:
89,17,71740,2,0,P|99:74|98:126,1,90,8|0,1:0|0:0,0:0:0:0:
19,284,72087,1,0,0:0:0:0:
198,153,72260,1,0,1:0:0:0:
4,176,72433,1,8,1:0:0:0:
170,330,72607,1,2,0:0:0:0:
302,129,72780,6,0,L|291:33,1,90,0|0,1:0|0:0,0:0:0:0:
112,222,73127,2,0,B|149:191|149:191|221:185|274:240,1,180,8|0,1:0|0:0,0:0:0:0:
268,234,73647,1,0,1:0:0:0:
167,97,73821,2,0,P|158:46|157:0,1,90,8|0,1:0|0:0,0:0:0:0:
407,127,74168,6,0,P|398:179|407:319,2,180,2|8|0,1:2|1:0|0:0,1:0:0:0:
471,35,75035,1,0,1:0:0:0:
288,134,75208,2,0,P|236:143|186:143,1,90,8|0,1:0|0:0,0:0:0:0:
36,9,75555,6,0,P|87:64|104:92,1,90,2|0,1:2|0:0,0:0:0:0:
48,292,75902,2,0,P|77:257|97:218,1,90,8|0,1:0|0:0,0:0:0:0:
214,54,76248,2,0,P|203:98|198:142,1,90,0|0,0:0|1:0,0:0:0:0:
278,283,76595,2,0,P|335:274|390:278,1,90,8|2,1:0|0:0,0:0:0:0:
454,119,76942,5,8,1:0:0:0:
311,163,77115,1,0,1:0:0:0:
400,285,77289,1,0,1:0:0:0:
454,119,77462,5,8,1:0:0:0:
295,186,77635,1,0,1:0:0:0:
427,299,77809,1,0,1:0:0:0:
454,119,77983,5,8,1:0:0:0:
412,96,78069,1,0,1:0:0:0:
392,52,78156,1,8,1:0:0:0:
364,92,78243,1,0,1:0:0:0:
316,100,78329,5,2,1:2:0:0:
224,24,78503,2,0,P|195:21|164:20,1,45
204,120,78676,2,0,P|178:125|140:136,1,45,2|0,0:0|0:0,0:0:0:0:
268,204,78850,2,0,P|248:216|224:232,1,45,2|0,0:0|0:0,0:0:0:0:
299,355,79023,6,0,B|299:328|299:328|303:302,1,53.9999983520508,10|0,1:0|0:0,0:0:0:0:
128,228,79196,2,0,B|109:246|109:246|88:276,1,53.9999983520508,2|0,1:0|0:0,0:0:0:0:
36,80,79370,2,0,B|60:67|60:67|86:61,1,53.9999983520508,2|0,1:0|0:0,0:0:0:0:
244,112,79543,6,2,B|271:106|294:122|294:122|325:110|325:110|348:125|372:124,1,135.000005149842,2|2,1:0|1:0,1:0:0:0:
476,92,80063,1,0,1:0:0:0:
476,92,80237,2,0,L|469:148,1,49.5000015106202,2|0,0:0|0:0,0:0:0:0:
445,336,80410,6,0,P|438:313|430:272,1,49.5000015106202,8|0,1:0|0:0,0:0:0:0:
339,307,80584,2,0,P|339:279|348:236,1,49.5000015106202,2|0,0:0|0:0,0:0:0:0:
287,73,80757,6,0,P|280:96|272:137,1,49.5000015106202,2|0,0:0|0:0,0:0:0:0:
181,102,80931,2,0,P|181:129|190:173,1,49.5000015106202,2|0,0:0|0:0,0:0:0:0:
239,277,81104,5,2,1:2:0:0:
87,378,81277,2,0,P|114:370|139:356,1,45
103,242,81451,2,0,L|60:233,1,45,2|0,0:0|0:0,0:0:0:0:
156,116,81624,2,0,P|180:144|194:168,1,45,2|0,0:0|0:0,0:0:0:0:
280,81,81798,6,0,B|277:56|277:56|278:27,1,53.9999983520508,10|0,1:0|0:0,0:0:0:0:
55,131,81971,2,0,B|13:96,1,53.9999983520508,2|0,1:0|0:0,0:0:0:0:
62,358,82145,2,0,B|32:362|32:362|1:373,1,53.9999983520508,2|0,1:0|0:0,0:0:0:0:
239,277,82318,6,2,B|275:268|275:268|293:277|307:293|307:293|337:279|371:289,1,135.000005149842,2|2,1:0|1:0,1:0:0:0:
467,318,82838,1,0,1:0:0:0:
340,190,83011,1,0,0:0:0:0:
453,79,83185,6,0,P|447:109|444:148,1,53.9999983520508,8|0,1:0|0:0,0:0:0:0:
359,340,83358,2,0,P|362:313|362:286,1,53.9999983520508,8|0,1:0|0:0,0:0:0:0:
330,42,83532,2,0,P|343:80|347:107,1,53.9999983520508,8|0,1:0|0:0,0:0:0:0:
467,318,83705,2,0,P|471:287|480:258,1,53.9999983520508,8|0,1:0|0:0,0:0:0:0:
340,190,83878,6,0,B|298:184|257:196|257:196|216:208|179:200,2,161.999995056153,4|0|8,1:2|0:0|1:0,0:0:0:0:
414,270,84746,2,0,P|408:325|412:367,1,80.9999975280763,0|0,1:0|0:0,0:0:0:0:
437,111,85092,6,0,P|367:70|257:95,1,161.999995056153,0|0,1:0|1:0,0:0:0:0:
209,156,85613,2,0,L|217:249,1,80.9999975280763,0|0,1:0|0:0,0:0:0:0:
120,84,85959,2,0,L|130:-3,1,80.9999975280763,8|0,1:0|0:0,0:0:0:0:
54,167,86306,1,8,1:0:0:0:
78,269,86480,1,4,1:2:0:0:
101,368,86653,5,0,1:0:0:0:
284,313,86826,1,0,1:0:0:0:
78,269,87000,5,0,1:0:0:0:
294,210,87173,1,0,1:0:0:0:
54,167,87347,5,8,1:0:0:0:
307,106,87520,1,0,1:0:0:0:
33,65,87694,5,8,1:0:0:0:
322,2,87867,1,8,1:0:0:0:
204,204,88040,6,0,L|197:261,1,45,0|0,1:0|1:0,1:0:0:0:
388,136,88214,2,0,L|395:84,1,45,0|0,1:0|1:0,1:0:0:0:
301,275,88387,5,0,1:0:0:0:
301,275,88474,1,0,1:0:0:0:
301,275,88561,2,0,L|295:339,1,49.5000015106202,0|0,1:0|1:0,1:0:0:0:
492,164,88734,5,0,1:0:0:0:
492,164,88821,1,0,1:0:0:0:
492,164,88908,2,0,L|501:88,1,53.9999983520508,0|0,1:0|1:0,1:0:0:0:
392,312,89081,6,0,B|418:322|418:322|501:314,1,101.250003862381,8|0,1:0|0:0,0:0:0:0:
438,236,89428,6,0,P|339:283|236:224,1,215.999993408203,4|8,1:2|1:0,0:0:0:0:
174,107,89948,1,2,0:0:0:0:
307,32,90121,2,0,P|317:107|316:157,1,107.999996704102,0|0,0:0|1:0,0:0:0:0:
142,297,90468,1,8,1:0:0:0:
8,200,90641,2,0,L|118:185,1,107.999996704102,2|0,0:0|1:0,0:0:0:0:
361,249,90988,5,0,0:0:0:0:
265,319,91162,2,0,P|242:242|322:137,1,215.999993408203,8|0,1:0|0:0,0:0:0:0:
361,249,91682,1,0,1:0:0:0:
162,161,91855,2,0,P|93:152|30:157,1,107.999996704102,8|0,1:0|0:0,0:0:0:0:
276,31,92202,6,0,P|332:39|387:39,1,107.999996704102,2|0,1:2|0:0,0:0:0:0:
505,215,92549,2,0,P|405:198|289:241,1,215.999993408203,8|0,1:0|0:0,0:0:0:0:
238,344,93069,1,0,1:0:0:0:
207,157,93243,2,0,P|209:101|221:49,1,107.999996704102,8|2,1:0|0:0,0:0:0:0:
298,234,93589,5,2,1:2:0:0:
91,181,93763,1,0,0:0:0:0:
319,121,93936,1,8,1:0:0:0:
58,81,94110,2,0,P|-7:143|29:270,1,215.999993408203,2|0,0:0|1:0,0:0:0:0:
217,313,94630,5,8,1:0:0:0:
91,181,94803,1,2,0:0:0:0:
221,52,94977,2,0,P|225:102|222:153,1,90,2|0,1:2|0:0,0:0:0:0:
217,313,95324,5,8,1:0:0:0:
373,185,95497,1,2,0:0:0:0:
221,52,95671,2,0,P|217:101|222:167,1,99.0000030212403,2|0,0:0|1:0,0:0:0:0:
217,313,96017,5,8,1:0:0:0:
42,180,96190,1,2,0:0:0:0:
221,52,96364,2,0,P|225:108|221:164,1,107.999996704102,2|0,1:2|0:0,0:0:0:0:
21,305,96711,6,0,P|84:268|122:255,1,107.999996704102,8|0,1:0|0:0,0:0:0:0:
406,246,97058,1,0,0:0:0:0:
217,313,97231,1,0,1:0:0:0:
68,178,97405,2,0,P|53:113|51:63,1,107.999996704102,8|0,1:0|0:0,0:0:0:0:
238,207,97751,6,0,P|219:278|216:322,1,107.999996704102,2|0,1:2|0:0,0:0:0:0:
377,163,98098,2,0,B|418:90|385:1|385:1|366:20|356:47,1,215.999993408203,8|0,1:0|0:0,0:0:0:0:
354,287,98618,1,0,1:0:0:0:
486,179,98792,2,0,P|503:113|508:53,1,107.999996704102,8|0,1:0|0:0,0:0:0:0:
243,23,99139,5,8,1:0:0:0:
377,163,99312,1,0,1:0:0:0:
216,269,99485,1,0,1:0:0:0:
205,23,99659,5,8,1:0:0:0:
392,128,99832,1,0,1:0:0:0:
206,233,100005,1,0,1:0:0:0:
344,33,100179,5,8,1:0:0:0:
397,22,100266,1,0,1:0:0:0:
447,40,100352,1,8,1:0:0:0:
485,77,100439,1,0,1:0:0:0:
494,130,100526,6,0,B|475:183|475:183|499:327,1,198.000006042481,4|0,1:2|2:0,1:0:0:0:
498,322,101046,1,0,0:0:0:0:
276,303,101220,1,8,1:0:0:0:
391,268,101393,2,0,L|381:377,1,99.0000030212403,0|0,1:0|0:0,0:0:0:0:
173,342,101740,6,0,P|168:275|271:198,1,198.000006042481,2|0,1:2|1:0,0:0:0:0:
456,151,102260,2,0,P|413:144|354:122,1,99.0000030212403,0|0,1:0|0:0,0:0:0:0:
91,83,102607,2,0,P|165:67|203:49,1,99.0000030212403,8|0,1:0|0:0,0:0:0:0:
444,31,102954,2,0,P|358:2|300:11,1,148.50000453186,2|0,0:0|0:0,0:0:0:0:
229,42,103300,6,0,B|243:88|243:88|239:144,1,99.0000030212403,0|0,1:0|0:0,0:0:0:0:
92,239,103647,2,0,B|158:231|158:231|225:254|225:254|287:249,1,198.000006042481,2|8,0:0|1:0,0:0:0:0:
143,344,104168,2,0,L|31:355,1,99.0000030212403,0|0,1:0|0:0,0:0:0:0:
295,366,104514,6,0,P|362:330|472:375,1,198.000006042481,2|0,1:2|1:0,1:0:0:0:
428,227,105035,2,0,P|415:156|416:127,1,99.0000030212403,0|0,1:0|0:0,0:0:0:0:
280,8,105381,1,8,1:0:0:0:
209,101,105555,2,0,P|201:180|230:295,1,198.000006042481,2|0,0:0|0:0,0:0:0:0:
325,362,106075,5,0,1:0:0:0:
229,293,106248,1,0,0:0:0:0:
122,343,106422,1,2,0:0:0:0:
325,362,106595,2,0,P|341:298|341:256,1,99.0000030212403,0|8,0:0|1:0,0:0:0:0:
134,227,106942,1,0,1:0:0:0:
244,196,107115,2,0,P|243:245|228:292,1,99.0000030212403,2|0,0:0|1:0,0:0:0:0:
160,114,107462,5,2,0:0:0:0:
355,148,107636,1,0,1:0:0:0:
134,227,107809,1,0,1:0:0:0:
305,48,107983,1,2,0:0:0:0:
67,44,108156,6,0,P|46:110|52:158,1,99.0000030212403,8|0,1:0|0:0,0:0:0:0:
302,295,108503,2,0,P|299:225|277:182,1,99.0000030212403,8|2,1:0|0:0,0:0:0:0:
160,114,108850,5,4,1:2:0:0:
194,264,109023,1,0,1:0:0:0:
248,121,109196,5,0,1:0:0:0:
99,228,109370,1,0,1:0:0:0:
288,199,109543,5,8,1:0:0:0:
62,138,109717,1,0,1:0:0:0:
281,288,109890,5,8,1:0:0:0:
93,48,110063,1,12,1:0:0:0:
32,230,110237,5,0,1:0:0:0:
78,258,110324,1,0,1:0:0:0:
131,262,110410,1,0,1:0:0:0:
180,238,110497,1,0,1:0:0:0:
210,192,110584,1,0,1:0:0:0:
209,137,110670,1,0,1:0:0:0:
235,89,110757,1,0,1:0:0:0:
284,66,110844,1,0,1:0:0:0:
338,70,110931,1,0,1:0:0:0:
382,101,111017,1,0,1:0:0:0:
405,150,111104,1,0,1:0:0:0:
397,204,111191,1,0,1:0:0:0:
365,248,111277,6,0,B|347:256|320:251|320:251|325:202|301:156,1,135.000005149842,8|6,1:0|1:2,1:0:0:0:
103,178,117173,6,0,L|112:249,1,72,4|0,1:2|0:0,0:0:0:0:
112,249,117433,1,0,0:0:0:0:
112,249,117520,1,0,0:0:0:0:
214,199,117694,2,0,L|225:114,1,72,2|8,0:0|1:0,0:0:0:0:
325,83,118040,1,0,1:0:0:0:
404,165,118214,1,2,0:0:0:0:
404,165,118300,1,0,0:0:0:0:
404,165,118387,1,2,1:2:0:0:
339,258,118561,6,0,P|343:303|356:345,1,72,2|0,0:0|1:0,0:0:0:0:
354,333,118821,1,0,0:0:0:0:
358,337,118907,2,0,L|438:342,1,72,0|2,1:0|0:0,0:0:0:0:
240,296,119254,2,0,L|154:308,1,72,8|0,1:0|0:0,0:0:0:0:
83,361,119601,1,8,1:0:0:0:
57,264,119774,1,4,1:2:0:0:
31,166,119948,5,0,1:0:0:0:
103,41,120121,1,0,1:0:0:0:
128,192,120295,5,0,1:0:0:0:
255,72,120468,1,0,1:0:0:0:
191,271,120642,5,8,1:0:0:0:
385,170,120815,1,0,1:0:0:0:
198,369,120988,5,8,1:0:0:0:
452,319,121162,1,8,1:0:0:0:
191,271,121335,5,0,1:0:0:0:
143,285,121422,1,0,1:0:0:0:
110,322,121509,1,0,1:0:0:0:
61,314,121595,1,0,1:0:0:0:
26,278,121682,6,0,P|17:250|15:226,1,49.5000015106202,0|0,1:0|1:0,1:0:0:0:
117,187,121855,2,0,P|120:158|129:126,1,49.5000015106202,0|0,1:0|1:0,1:0:0:0:
295,256,122029,6,0,P|293:282|289:311,1,53.9999983520508,0|0,1:0|1:0,1:0:0:0:
384,156,122202,2,0,P|392:187|396:223,1,53.9999983520508,0|0,1:0|1:0,1:0:0:0:
225,176,122376,6,0,P|221:124|233:61,1,101.250003862381,8|0,1:0|0:0,0:0:0:0:
280,12,122722,6,0,B|325:38|325:38|441:29,2,161.999995056153,4|0|8,1:2|0:0|1:0,0:0:0:0:
396,128,123589,2,0,L|496:120,1,80.9999975280763,0|0,1:0|0:0,0:0:0:0:
360,220,123936,2,0,B|348:260|348:260|372:384,1,161.999995056153,0|0,1:0|1:0,1:0:0:0:
272,184,124457,2,0,B|284:144|284:144|276:100,1,80.9999975280763,0|0,1:0|0:0,0:0:0:0:
188,240,124803,1,8,1:0:0:0:
188,240,125150,5,8,1:0:0:0:
360,220,125324,1,0,1:0:0:0:
176,136,125497,2,0,L|164:48,1,80.9999975280763,0|0,1:0|0:0,0:0:0:0:
308,140,125844,2,0,P|324:228|292:308,1,161.999995056153,0|8,0:0|1:0,0:0:0:0:
204,344,126364,2,0,P|160:328|112:324,1,80.9999975280763,0|0,1:0|0:0,0:0:0:0:
301,294,126711,2,0,P|361:306|464:284,1,161.999995056153,0|0,1:0|1:0,1:0:0:0:
248,208,127231,2,0,P|240:169|240:116,1,80.9999975280763,0|0,1:0|0:0,0:0:0:0:
301,294,127578,1,8,1:0:0:0:
301,294,127925,5,8,1:0:0:0:
248,208,128098,1,0,1:0:0:0:
164,264,128272,2,0,P|144:308|136:360,1,80.9999975280763,4|0,0:0|0:0,0:0:0:0:
301,294,128618,5,0,0:0:0:0:
252,188,128792,1,0,0:0:0:0:
148,240,128965,2,0,P|120:276|104:320,1,80.9999975280763,8|0,1:0|1:0,1:0:0:0:
301,294,129312,5,0,0:0:0:0:
258,169,129485,1,0,1:0:0:0:
132,212,129659,2,0,P|99:250|86:281,1,80.9999975280763,0|0,0:0|1:0,0:0:0:0:
301,294,130006,6,0,P|343:293|393:194,1,161.999995056153,0|8,1:0|1:0,1:0:0:0:
394,198,130699,1,8,1:0:0:0:
354,382,130873,1,0,1:0:0:0:
235,233,131046,6,0,L|314:214,1,80.9999975280763,0|0,1:0|0:0,0:0:0:0:
460,127,131393,2,0,P|439:193|448:296,1,161.999995056153,0|8,0:0|1:0,0:0:0:0:
444,284,131913,1,0,1:0:0:0:
345,234,132087,1,0,0:0:0:0:
268,313,132260,2,0,P|197:332|106:314,1,161.999995056153,0|0,1:0|1:0,1:0:0:0:
42,164,132780,6,0,P|95:195|116:218,1,80.9999975280763,0|0,1:0|0:0,0:0:0:0:
209,129,133127,2,0,P|231:186|237:226,1,80.9999975280763,8|0,1:0|0:0,0:0:0:0:
193,372,133474,1,8,1:0:0:0:
108,208,133647,1,0,1:0:0:0:
276,317,133821,6,0,P|188:343|90:337,2,180,4|0|8,1:0|0:0|1:0,0:0:0:0:
346,234,134688,2,0,P|397:227|451:231,1,90,0|0,1:0|0:0,0:0:0:0:
270,158,135035,2,0,P|258:99|328:3,1,180,0|0,1:0|1:0,1:0:0:0:
452,92,135555,2,0,P|395:106|340:106,1,90,0|0,1:0|0:0,0:0:0:0:
178,32,135902,2,0,P|174:85|159:128,1,90,8|0,1:0|0:0,0:0:0:0:
284,277,136248,2,0,P|278:224|258:174,1,90
51,104,136595,6,0,P|60:157|82:204,1,90,0|0,1:0|0:0,0:0:0:0:
320,73,136942,2,0,P|232:66|162:119,1,180,0|8,0:0|1:0,0:0:0:0:
371,166,137462,2,0,P|420:163|469:169,1,90,0|0,1:0|0:0,0:0:0:0:
265,189,137809,2,0,B|286:241|286:241|265:374,1,180,0|0,1:0|1:0,1:0:0:0:
75,269,138329,2,0,L|175:257,1,90,0|0,1:0|0:0,0:0:0:0:
361,301,138676,1,8,1:0:0:0:
266,363,138850,2,0,B|245:311|245:311|269:179,1,180,0|0,0:0|0:0,1:0:0:0:
457,36,139370,6,0,L|473:227,2,180,0|0|8,1:0|0:0|1:0,0:0:0:0:
357,109,140237,2,0,L|348:208,1,90,0|0,1:0|0:0,0:0:0:0:
270,39,140584,2,0,B|191:68|191:68|94:62,1,180,0|0,1:0|1:0,1:0:0:0:
35,198,141104,2,0,L|127:190,1,90,0|0,1:0|0:0,0:0:0:0:
318,315,141451,2,0,L|215:304,1,90,8|0,1:0|0:0,0:0:0:0:
348,198,141798,2,0,L|448:189,1,90,8|0,1:0|0:0,0:0:0:0:
417,332,142144,5,4,1:2:0:0:
348,198,142318,1,0,1:0:0:0:
493,56,142491,5,0,1:0:0:0:
438,214,142665,1,0,1:0:0:0:
218,135,142838,5,0,1:0:0:0:
407,129,143011,1,0,1:0:0:0:
212,229,143185,5,0,1:0:0:0:
151,15,143358,1,0,1:0:0:0:
296,187,143532,6,0,L|304:247,1,45,0|0,1:0|1:0,1:0:0:0:
214,367,143705,2,0,L|208:309,1,45,0|0,1:0|1:0,1:0:0:0:
132,128,143878,5,0,1:0:0:0:
132,128,143965,1,0,1:0:0:0:
132,128,144052,2,0,L|126:195,1,49.5000015106202,0|0,1:0|1:0,1:0:0:0:
29,368,144225,5,0,1:0:0:0:
29,368,144312,1,0,1:0:0:0:
29,368,144399,2,0,L|35:297,1,53.9999983520508,0|0,1:0|1:0,1:0:0:0:
212,229,144572,6,0,B|236:237|236:237|324:231,1,101.250003862381,8|0,1:0|0:0,1:0:0:0:
351,152,144919,6,0,P|260:102|149:140,1,215.999993408203,4|8,1:2|1:0,0:0:0:0:
417,254,145439,1,2,0:0:0:0:
494,169,145612,2,0,P|504:94|503:44,1,107.999996704102,0|0,0:0|1:0,0:0:0:0:
320,189,145959,1,8,1:0:0:0:
417,254,146132,2,0,P|434:309|439:362,1,107.999996704102,2|0,0:0|1:0,0:0:0:0:
213,234,146479,5,0,0:0:0:0:
320,189,146653,2,0,P|361:105|306:4,1,215.999993408203,8|0,1:0|0:0,0:0:0:0:
251,102,147173,1,0,1:0:0:0:
385,271,147346,2,0,P|387:319|378:383,1,107.999996704102,8|0,1:0|0:0,0:0:0:0:
158,312,147693,6,0,P|214:308|269:320,1,107.999996704102,2|0,1:2|0:0,0:0:0:0:
471,183,148040,2,0,P|384:221|255:209,1,215.999993408203,8|0,1:0|0:0,0:0:0:0:
131,68,148560,1,0,1:0:0:0:
347,84,148734,2,0,P|293:98|236:100,1,107.999996704102,8|2,1:0|0:0,0:0:0:0:
20,27,149080,5,2,1:2:0:0:
241,100,149254,1,0,0:0:0:0:
3,188,149427,1,8,1:0:0:0:
208,4,149601,2,0,B|228:50|228:50|210:222,1,215.999993408203,2|0,0:0|1:0,0:0:0:0:
131,295,150121,5,8,1:0:0:0:
322,209,150294,1,2,0:0:0:0:
131,295,150468,2,0,P|88:308|38:314,1,90,2|0,1:2|0:0,0:0:0:0:
121,168,150815,5,8,1:0:0:0:
331,319,150988,1,2,0:0:0:0:
121,168,151162,2,0,P|84:132|55:86,1,99.0000030212403,2|0,0:0|1:0,0:0:0:0:
243,117,151508,5,8,1:0:0:0:
225,367,151682,1,2,0:0:0:0:
243,117,151855,2,0,P|251:62|271:12,1,107.999996704102,2|0,1:2|0:0,0:0:0:0:
460,220,152202,6,0,P|405:205|347:201,1,107.999996704102,8|0,1:0|0:0,0:0:0:0:
147,293,152549,1,0,0:0:0:0:
391,308,152722,1,0,1:0:0:0:
157,186,152896,2,0,P|139:126|154:20,1,161.999995056153,8|0,1:0|0:0,0:0:0:0:
226,75,153242,6,0,P|265:74|341:51,1,107.999996704102,2|0,1:2|0:0,0:0:0:0:
491,320,153589,2,0,P|416:290|290:346,1,215.999993408203,8|0,1:0|0:0,0:0:0:0:
140,299,154109,1,0,1:0:0:0:
341,192,154283,2,0,P|283:197|229:186,1,107.999996704102,8|0,1:0|0:0,0:0:0:0:
82,30,154630,5,8,1:0:0:0:
293,91,154803,1,0,1:0:0:0:
98,188,154976,1,0,1:0:0:0:
234,14,155150,5,8,1:0:0:0:
183,259,155323,1,0,1:0:0:0:
82,30,155496,1,0,1:0:0:0:
317,184,155670,6,0,P|292:178|251:177,1,62.9999980773926,8|0,1:0|1:0,1:0:0:0:
31,176,155844,2,0,P|59:174|97:164,1,62.9999980773926,8|0,1:0|1:0,1:0:0:0:
162,60,156017,6,0,B|182:258,1,198.000006042481,4|0,1:2|2:0,1:0:0:0:
280,314,156537,1,0,0:0:0:0:
66,264,156711,1,8,1:0:0:0:
289,215,156884,2,0,L|280:314,1,99.0000030212403,0|0,1:0|0:0,0:0:0:0:
66,264,157231,6,0,P|38:173|80:85,1,198.000006042481,2|0,1:2|1:0,0:0:0:0:
218,19,157751,2,0,P|213:62|195:121,1,99.0000030212403,0|0,1:0|0:0,0:0:0:0:
280,314,158098,2,0,P|271:271|247:221,1,99.0000030212403,8|0,1:0|0:0,0:0:0:0:
363,72,158445,2,0,P|364:133|403:211,1,148.50000453186,2|0,0:0|0:0,0:0:0:0:
480,235,158791,6,0,B|354:225,1,99.0000030212403,0|0,1:0|0:0,0:0:0:0:
232,331,159138,2,0,B|280:316|328:336|328:336|375:356|426:342,1,198.000006042481,2|8,0:0|1:0,0:0:0:0:
137,269,159659,2,0,P|125:303|124:368,1,99.0000030212403,0|0,1:0|0:0,0:0:0:0:
243,219,160005,6,0,B|275:150|266:73|266:73|255:95|234:109,1,198.000006042481,2|0,1:2|1:0,1:0:0:0:
117,172,160526,2,0,P|69:173|15:164,1,99.0000030212403,0|0,1:0|0:0,0:0:0:0:
168,19,160872,1,8,1:0:0:0:
234,108,161046,2,0,P|325:130|413:83,1,198.000006042481,2|0,0:0|0:0,0:0:0:0:
343,222,161566,5,0,1:0:0:0:
431,283,161739,1,0,0:0:0:0:
440,178,161913,1,2,0:0:0:0:
335,325,162086,2,0,P|294:318|214:320,1,99.0000030212403,0|8,0:0|1:0,0:0:0:0:
197,171,162433,1,0,1:0:0:0:
52,279,162606,2,0,P|101:275|148:262,1,99.0000030212403,2|0,0:0|1:0,0:0:0:0:
299,214,162953,5,2,0:0:0:0:
90,171,163127,1,0,1:0:0:0:
246,69,163300,1,0,1:0:0:0:
149,262,163474,1,2,0:0:0:0:
43,74,163647,6,0,B|91:66|91:66|142:76,1,99.0000030212403,8|0,1:0|0:0,0:0:0:0:
248,326,163994,2,0,B|264:278|264:278|260:224,1,99.0000030212403,8|2,1:0|0:0,0:0:0:0:
149,262,164341,5,4,1:2:0:0:
352,322,164514,1,0,1:0:0:0:
133,269,164687,5,0,1:0:0:0:
362,187,164861,1,0,1:0:0:0:
132,120,165034,5,8,1:0:0:0:
377,43,165208,1,0,1:0:0:0:
115,126,165381,5,8,1:0:0:0:
385,192,165554,1,12,1:0:0:0:
149,262,165728,5,0,1:0:0:0:
186,223,165815,1,0,1:0:0:0:
238,214,165901,1,0,1:0:0:0:
288,233,165988,1,0,1:0:0:0:
321,275,166075,1,0,1:0:0:0:
370,294,166161,1,0,1:0:0:0:
423,288,166248,1,0,1:0:0:0:
467,256,166335,1,0,1:0:0:0:
488,206,166422,1,0,1:0:0:0:
484,152,166508,1,0,1:0:0:0:
450,109,166595,1,0,1:0:0:0:
399,88,166682,1,0,1:0:0:0:
346,95,166769,6,0,B|336:99|327:106|327:106|325:65|314:28,1,101.250003862381,8|0,1:0|0:0,1:0:0:0:
220,90,167115,6,0,P|209:137|211:203,1,99.0000030212403,6|0,1:2|0:0,0:0:0:0:
336,345,167462,1,8,1:0:0:0:
410,270,167636,2,0,P|470:264|510:268,1,99.0000030212403,2|0,0:0|0:0,0:0:0:0:
336,345,167983,1,0,1:0:0:0:
250,281,168156,1,8,1:0:0:0:
250,281,168243,1,0,0:0:0:0:
250,281,168329,1,2,0:0:0:0:
328,205,168503,5,2,1:2:0:0:
218,141,168676,1,0,0:0:0:0:
338,62,168850,2,0,L|440:58,1,99.0000030212403,8|2,1:0|0:0,0:0:0:0:
139,153,169196,2,0,L|36:147,1,99.0000030212403,0|0,0:0|1:0,0:0:0:0:
382,264,169543,2,0,L|491:256,1,99.0000030212403,8|2,1:0|0:0,0:0:0:0:
265,319,169890,6,0,B|256:271|256:271|262:218,1,99.0000030212403,2|0,1:2|0:0,0:0:0:0:
328,144,170237,1,8,1:0:0:0:
161,197,170410,2,0,B|184:156|184:156|224:124,1,99.0000030212403,2|0,0:0|0:0,0:0:0:0:
328,144,170757,1,0,1:0:0:0:
261,221,170931,1,8,1:0:0:0:
261,221,171017,1,0,0:0:0:0:
261,221,171104,1,2,0:0:0:0:
224,124,171277,5,2,1:2:0:0:
368,244,171451,1,0,0:0:0:0:
196,306,171624,1,8,1:0:0:0:
328,144,171798,2,0,B|378:141|378:141|433:159,1,99.0000030212403,2|0,0:0|0:0,0:0:0:0:
297,315,172144,1,0,1:0:0:0:
114,242,172318,2,0,L|97:83,1,148.50000453186,8|0,1:0|0:0,0:0:0:0:
128,115,172665,6,0,P|175:131|224:131,1,99.0000030212403,2|0,1:2|0:0,0:0:0:0:
411,76,173011,1,8,1:0:0:0:
407,178,173185,2,0,P|335:144|324:27,1,198.000006042481,2|0,0:0|1:0,0:0:0:0:
497,131,173705,1,8,1:0:0:0:
507,162,173792,1,0,0:0:0:0:
506,194,173878,1,2,0:0:0:0:
388,273,174052,6,0,P|395:204|417:160,1,99.0000030212403,2|0,1:2|0:0,0:0:0:0:
212,57,174399,2,0,P|204:124|212:170,1,99.0000030212403,8|2,1:0|0:0,0:0:0:0:
138,351,174746,2,0,P|133:295|117:244,1,99.0000030212403,0|0,0:0|1:0,0:0:0:0:
323,19,175092,2,0,P|335:77|333:125,1,99.0000030212403,8|2,1:0|0:0,0:0:0:0:
143,142,175439,5,2,1:2:0:0:
230,84,175613,1,0,0:0:0:0:
134,40,175786,5,8,1:0:0:0:
152,241,175959,2,0,L|143:142,1,99.0000030212403,2|0,0:0|0:0,0:0:0:0:
230,84,176306,5,0,1:0:0:0:
59,194,176480,2,0,L|143:142,1,99.0000030212403,8|2,1:0|0:0,0:0:0:0:
239,183,176826,5,8,1:0:0:0:
50,95,177000,1,0,1:0:0:0:
50,95,177173,1,0,0:0:0:0:
154,262,177347,5,8,1:0:0:0:
132,22,177520,1,0,1:0:0:0:
132,22,177694,1,0,1:0:0:0:
49,297,177867,5,8,1:0:0:0:
75,343,177953,1,0,1:0:0:0:
123,367,178040,1,8,1:0:0:0:
177,370,178127,1,8,1:0:0:0:
227,346,178214,6,0,B|250:328|260:302|260:302|312:341|382:333,1,180,6|8,1:2|1:0,0:0:0:0:
479,208,178734,2,0,P|481:269|491:314,1,90,2|0,0:0|0:0,0:0:0:0:
352,199,179081,2,0,P|360:138|360:98,1,90,2|8,1:2|1:0,1:0:0:0:
167,271,179428,6,0,L|271:263,1,90,2|0,0:0|1:0,0:0:0:0:
449,118,179774,2,0,L|333:106,1,90,2|8,0:0|1:0,0:0:0:0:
106,141,180121,2,0,B|144:138|168:116|168:116|228:119|268:163,1,180,2|0,0:0|1:0,0:0:0:0:
99,48,180642,1,8,1:0:0:0:
288,8,180815,1,2,0:0:0:0:
180,215,180988,6,0,B|154:277|169:350|169:350|181:331|200:320,1,180,2|8,1:2|1:0,1:0:0:0:
390,321,181509,2,0,P|339:343|289:346,1,90,2|0,0:0|0:0,0:0:0:0:
68,279,181855,2,0,P|43:230|36:175,1,90,2|8,1:2|1:0,1:0:0:0:
354,159,182202,6,0,B|346:204|346:204|319:240,1,90,2|0,0:0|1:0,0:0:0:0:
143,197,182549,2,0,B|138:151|138:151|152:105,1,90,2|8,0:0|1:0,0:0:0:0:
311,83,182896,2,0,P|376:145|472:131,1,180,2|0,0:0|1:0,0:0:0:0:
409,49,183416,1,8,1:0:0:0:
246,162,183589,1,2,0:0:0:0:
457,261,183763,6,0,P|470:210|470:164,1,90,2|0,1:2|0:0,0:0:0:0:
364,308,184110,1,8,1:0:0:0:
276,371,184283,2,0,P|263:327|262:279,1,90,2|0,0:0|0:0,0:0:0:0:
148,299,184630,2,0,P|158:235|173:207,1,90,2|8,1:2|1:0,1:0:0:0:
403,143,184977,5,2,0:0:0:0:
261,283,185150,1,0,1:0:0:0:
235,70,185324,5,2,0:0:0:0:
384,259,185497,1,8,1:0:0:0:
374,21,185670,6,0,P|373:65|384:115,1,90,2|0,0:0|0:0,0:0:0:0:
245,371,186017,2,0,P|257:326|260:271,1,90,2|8,1:2|1:0,1:0:0:0:
211,190,186364,1,2,0:0:0:0:
366,299,186537,6,0,P|415:292|447:182,1,170.999995433807,2|8,1:2|1:0,0:0:0:0:
260,282,187058,2,0,P|210:293|159:284,1,85.4999977169037,2|0,0:0|0:0,0:0:0:0:
285,123,187405,2,0,P|344:127|380:146,1,85.4999977169037,2|8,1:2|1:0,1:0:0:0:
211,190,187751,1,2,0:0:0:0:
241,12,187925,5,8,1:0:0:0:
285,123,188098,1,0,1:0:0:0:
277,243,188272,1,0,1:0:0:0:
160,82,188445,5,8,1:0:0:0:
285,123,188618,1,0,1:0:0:0:
380,214,188792,1,0,1:0:0:0:
165,199,188965,6,0,L|221:163,1,53.9999983520508,8|0,1:0|1:0,1:0:0:0:
285,123,189139,2,8,L|349:114,1,53.9999983520508,8|8,1:0|1:0,1:0:0:0:
429,107,189312,5,4,1:2:0:0:
472,204,189485,1,0,0:0:0:0:
472,204,189572,1,0,0:0:0:0:
472,204,189659,1,2,0:0:0:0:
429,300,189832,2,0,P|381:279|256:292,1,161.999995056153,2|0,0:0|0:0,0:0:0:0:
186,343,190352,1,2,0:0:0:0:
167,338,190439,1,0,0:0:0:0:
148,334,190526,1,0,0:0:0:0:
273,284,190699,5,2,0:0:0:0:
217,199,190873,1,0,0:0:0:0:
217,199,190959,1,0,0:0:0:0:
217,199,191046,1,2,0:0:0:0:
286,124,191220,2,0,P|343:137|446:109,1,161.999995056153,2|0,0:0|0:0,0:0:0:0:
317,28,191740,2,0,P|265:28|220:43,1,80.9999975280763,2|0,0:0|0:0,0:0:0:0:
181,120,192087,5,2,0:0:0:0:
94,68,192260,1,0,0:0:0:0:
94,68,192347,1,0,0:0:0:0:
94,68,192433,1,2,0:0:0:0:
181,120,192607,2,0,L|189:293,1,161.999995056153,2|0,0:0|0:0,0:0:0:0:
103,337,193127,1,2,0:0:0:0:
82,334,193214,1,0,0:0:0:0:
61,332,193300,1,0,0:0:0:0:
188,281,193474,5,2,0:0:0:0:
266,345,193647,1,0,0:0:0:0:
266,345,193734,1,0,0:0:0:0:
266,345,193821,1,2,0:0:0:0:
341,277,193994,2,0,P|352:216|320:108,1,161.999995056153,2|0,0:0|0:0,0:0:0:0:
236,76,194514,2,0,L|154:85,1,80.9999975280763,2|0,0:0|0:0,0:0:0:0:
81,154,194861,5,2,0:0:0:0:
207,174,195035,1,0,0:0:0:0:
207,174,195121,1,0,0:0:0:0:
207,174,195208,1,2,0:0:0:0:
63,255,195381,2,0,L|225:273,1,161.999995056153,2|0,0:0|0:0,0:0:0:0:
303,208,195902,1,2,0:0:0:0:
322,205,195988,1,0,0:0:0:0:
342,203,196075,1,0,0:0:0:0:
207,174,196248,5,2,0:0:0:0:
266,91,196422,1,0,0:0:0:0:
266,91,196509,1,0,0:0:0:0:
266,91,196595,1,2,0:0:0:0:
191,22,196769,2,0,P|251:45|344:20,1,161.999995056153,2|0,0:0|0:0,0:0:0:0:
488,102,197289,2,0,P|430:94|403:97,1,80.9999975280763,2|0,0:0|0:0,0:0:0:0:
344,175,197636,5,2,0:0:0:0:
443,191,197809,1,0,0:0:0:0:
407,96,197983,5,2,0:0:0:0:
420,175,198156,1,0,0:0:0:0:
433,255,198329,1,0,0:0:0:0:
389,102,198503,5,2,0:0:0:0:
404,189,198676,1,0,0:0:0:0:
418,277,198849,1,0,0:0:0:0:
373,108,199023,5,2,0:0:0:0:
390,204,199196,1,2,0:0:0:0:
405,300,199369,1,0,0:0:0:0:
357,114,199543,5,2,0:0:0:0:
376,220,199716,1,0,0:0:0:0:
392,325,199890,1,2,0:0:0:0:
342,120,200063,5,2,0:0:0:0:
342,120,200410,6,0,P|302:124|263:124,1,72,2|0,0:0|0:0,0:0:0:0:
252,120,200670,1,0,0:0:0:0:
235,113,200757,1,2,0:0:0:0:
170,50,200931,2,0,P|188:108|179:206,1,144,2|0,0:0|0:0,0:0:0:0:
127,261,201451,1,2,0:0:0:0:
127,261,201537,1,0,0:0:0:0:
127,261,201624,1,0,0:0:0:0:
200,315,201798,6,0,P|239:307|282:308,1,72,2|0,0:0|0:0,0:0:0:0:
288,311,202058,1,0,0:0:0:0:
305,316,202144,1,2,0:0:0:0:
379,264,202318,2,0,P|403:216|402:122,1,144,2|0,0:0|0:0,0:0:0:0:
492,37,202838,2,0,P|490:73|495:121,1,72,2|0,0:0|0:0,0:0:0:0:
327,68,203185,6,0,P|286:55|241:51,1,72,2|0,0:0|0:0,0:0:0:0:
239,52,203445,1,0,0:0:0:0:
221,55,203532,1,2,0:0:0:0:
144,101,203705,2,0,B|164:136|164:136|153:246,1,144,2|0,0:0|0:0,0:0:0:0:
100,313,204225,1,2,0:0:0:0:
100,313,204312,1,0,0:0:0:0:
100,313,204399,1,0,0:0:0:0:
66,229,204572,6,0,L|74:153,1,72,2|0,0:0|0:0,0:0:0:0:
76,139,204832,1,0,0:0:0:0:
78,121,204919,1,2,0:0:0:0:
163,91,205092,2,0,P|211:119|306:88,1,144,2|0,0:0|0:0,0:0:0:0:
297,9,205613,2,0,P|262:17|231:33,1,72,2|0,0:0|0:0,0:0:0:0:
373,57,205959,6,0,P|411:66|448:64,1,72,2|0,0:0|0:0,0:0:0:0:
461,61,206220,1,0,0:0:0:0:
478,55,206306,1,2,0:0:0:0:
487,145,206480,2,0,P|413:151|337:132,1,144,2|0,0:0|0:0,0:0:0:0:
266,179,207000,1,2,0:0:0:0:
266,179,207087,1,0,0:0:0:0:
266,179,207173,1,0,0:0:0:0:
344,224,207347,6,0,P|354:268|354:302,1,72,2|0,0:0|0:0,0:0:0:0:
353,312,207607,1,0,0:0:0:0:
349,329,207694,1,2,0:0:0:0:
267,368,207867,2,0,P|214:346|116:353,1,144,2|0,0:0|0:0,0:0:0:0:
59,291,208387,2,0,P|51:248|53:213,1,72,2|0,0:0|0:0,0:0:0:0:
103,145,208734,5,2,0:0:0:0:
193,152,208907,1,0,0:0:0:0:
231,234,209081,5,2,0:0:0:0:
305,192,209254,1,0,0:0:0:0:
231,149,209428,1,0,0:0:0:0:
234,249,209602,5,2,0:0:0:0:
316,181,209775,1,0,0:0:0:0:
216,144,209949,1,0,0:0:0:0:
243,264,210122,5,2,0:0:0:0:
324,166,210295,1,2,0:0:0:0:
199,144,210468,1,0,0:0:0:0:
256,278,210642,5,2,0:0:0:0:
330,148,210815,1,0,0:0:0:0:
181,148,210988,1,2,0:0:0:0:
256,192,211162,5,2,0:0:0:0:
