osu file format v14

[General]
AudioFilename: audio.mp3
AudioLeadIn: 0
PreviewTime: 1720
Countdown: 0
SampleSet: Soft
StackLeniency: 0.7
Mode: 0
LetterboxInBreaks: 0
WidescreenStoryboard: 0

[Editor]
DistanceSpacing: 0.5
BeatDivisor: 4
GridSize: 4
TimelineZoom: 2.1

[Metadata]
Title:For a Dead Girl+
TitleUnicode:For a Dead Girl+
Artist:baker
ArtistUnicode:baker
Creator:handsome
Version:pishi's Hard
Source:
Tags:delis pishifat motoloid presents choremix compilation featured artist dnb dubstep drum bass electronic vocaloid megurine luka yuyoyuppe ゆよゆっぺ 巡音ルカ
BeatmapID:1442765
BeatmapSetID:682287

[Difficulty]
HPDrainRate:5
CircleSize:4
OverallDifficulty:6
ApproachRate:7
SliderMultiplier:1
SliderTickRate:1

[Events]
//Background and Video events
0,0,"baker.jpg",0,0
//Break Periods
2,139067,151682
//Storyboard Layer 0 (Background)
//Storyboard Layer 1 (Fail)
//Storyboard Layer 2 (Pass)
//Storyboard Layer 3 (Foreground)
//Storyboard Sound Samples

[TimingPoints]
1725,428.571428571429,4,2,1,30,1,0
15439,-83.3333333333333,4,2,1,40,0,0
29153,-66.6666666666667,4,2,1,50,0,0
30010,-76.9230769230769,4,2,1,50,0,0
32582,-66.6666666666667,4,2,1,50,0,0
33439,-76.9230769230769,4,2,1,50,0,0
36010,-66.6666666666667,4,2,1,50,0,0
36867,-76.9230769230769,4,2,1,50,0,0
39439,-66.6666666666667,4,2,1,50,0,0
40296,-76.9230769230769,4,2,1,50,0,0
42010,-66.6666666666667,4,2,1,50,0,0
42867,-71.4285714285714,4,2,1,60,0,0
53153,-100,4,2,1,60,0,0
56582,-66.6666666666667,4,2,1,60,0,1
57439,-66.6666666666667,4,2,1,40,0,0
58296,-66.6666666666667,4,2,1,60,0,1
59153,-66.6666666666667,4,2,1,40,0,0
60010,-66.6666666666667,4,2,1,60,0,1
60867,-66.6666666666667,4,2,1,40,0,0
61725,-80,4,2,1,60,0,0
62582,-80,4,2,1,40,0,0
63439,-66.6666666666667,4,2,1,60,0,1
64296,-66.6666666666667,4,2,1,40,0,0
65153,-66.6666666666667,4,2,1,60,0,1
66010,-66.6666666666667,4,2,1,40,0,0
66867,-66.6666666666667,4,2,1,60,0,1
67725,-83.3333333333333,4,2,1,40,0,0
68046,-66.6666666666667,4,2,1,40,0,0
68582,-66.6666666666667,4,2,1,60,0,0
69439,-66.6666666666667,4,2,1,40,0,0
70296,-66.6666666666667,4,2,1,70,0,1
71153,-83.3333333333333,4,2,1,60,0,1
72010,-66.6666666666667,4,2,1,70,0,1
72867,-66.6666666666667,4,2,1,60,0,1
73082,-83.3333333333333,4,2,1,60,0,1
73725,-66.6666666666667,4,2,1,70,0,1
74582,-83.3333333333333,4,2,1,60,0,1
75439,-76.9230769230769,4,2,1,70,0,1
76296,-76.9230769230769,4,2,1,60,0,1
77153,-66.6666666666667,4,2,1,70,0,1
77903,-83.3333333333333,4,2,1,70,0,1
78010,-83.3333333333333,4,2,1,60,0,1
78867,-66.6666666666667,4,2,1,70,0,1
79724,-66.6666666666667,4,2,1,60,0,1
80153,-83.3333333333333,4,2,1,60,0,1
80582,-66.6666666666667,4,2,1,70,0,1
80903,-83.3333333333333,4,2,1,70,0,1
81438,-83.3333333333333,4,2,1,60,0,1
82296,-83.3333333333333,4,2,1,70,0,1
82725,-83.3333333333333,4,2,1,40,0,0
84653,-76.9230769230769,4,2,1,40,0,0
87439,-66.6666666666667,4,2,1,40,0,0
88082,-76.9230769230769,4,2,1,40,0,0
90867,-66.6666666666667,4,2,1,40,0,0
91725,-76.9230769230769,4,2,1,40,0,0
94296,-66.6666666666667,4,2,1,40,0,0
95153,-76.9230769230769,4,2,1,40,0,0
97725,-66.6666666666667,4,2,1,50,0,0
98475,-76.9230769230769,4,2,1,50,0,0
101153,-66.6666666666667,4,2,1,50,0,0
101903,-76.9230769230769,4,2,1,50,0,0
104475,-66.6666666666667,4,2,1,50,0,0
104796,-76.9230769230769,4,2,1,50,0,0
108010,-66.6666666666667,4,2,1,50,0,0
108225,-76.9230769230769,4,2,1,50,0,0
111439,-66.6666666666667,4,2,1,60,0,1
112296,-66.6666666666667,4,2,1,40,0,0
113153,-66.6666666666667,4,2,1,60,0,1
114010,-66.6666666666667,4,2,1,40,0,0
114867,-66.6666666666667,4,2,1,60,0,1
115725,-66.6666666666667,4,2,1,40,0,0
116582,-80,4,2,1,60,0,0
117439,-80,4,2,1,40,0,0
118296,-66.6666666666667,4,2,1,60,0,1
119153,-66.6666666666667,4,2,1,40,0,0
120010,-66.6666666666667,4,2,1,60,0,1
120867,-66.6666666666667,4,2,1,40,0,0
121725,-66.6666666666667,4,2,1,60,0,1
122582,-83.3333333333333,4,2,1,40,0,0
123226,-66.6666666666667,4,2,1,40,0,0
123439,-66.6666666666667,4,2,1,60,0,0
124296,-66.6666666666667,4,2,1,50,0,0
125153,-64.5161290322581,4,2,1,80,0,1
138867,-80,4,2,1,50,0,0
150867,-100,4,2,1,50,0,0
151725,-71.4285714285714,4,2,1,50,0,0
152582,410.958904109589,4,2,1,60,1,0
152582,-71.4285714285714,4,2,1,60,0,0
154225,394.736842105263,4,2,1,60,1,0
154225,-71.4285714285714,4,2,1,60,0,0
155803,384.615384615385,4,2,1,60,1,0
155803,-71.4285714285714,4,2,1,60,0,0
157341,372.670807453416,4,2,1,60,1,0
157341,-71.4285714285714,4,2,1,60,0,0
158831,361.44578313253,4,2,1,60,1,0
158831,-71.4285714285714,4,2,1,60,0,0
160276,350.877192982456,4,2,1,60,1,0
160276,-71.4285714285714,4,2,1,60,0,0
161679,342.857142857143,4,2,1,60,1,0
161679,-71.4285714285714,4,2,1,60,0,0
164421,-66.6666666666667,4,2,1,70,0,0
186364,-64.5161290322581,4,2,1,80,0,1
206936,-64.5161290322581,4,2,1,60,0,1
208307,-71.4285714285714,4,2,1,60,0,0
219279,-83.3333333333333,4,2,1,40,0,0
229907,-83.3333333333333,4,2,2,35,0,0
230164,-83.3333333333333,4,2,1,30,0,0
230421,-83.3333333333333,4,2,2,25,0,0
230679,-83.3333333333333,4,2,1,20,0,0
230936,-83.3333333333333,4,2,2,15,0,0
231621,-125,4,2,1,10,0,0
232307,-125,4,2,2,5,0,0

[Colours]
Combo1 : 196,179,162
Combo2 : 130,202,255
Combo3 : 18,124,255
Combo4 : 255,151,153
Combo5 : 247,53,72
Combo6 : 255,222,147
Combo7 : 255,199,66

[HitObjects]
194,28,1725,6,0,B|264:119|244:127,1,74.9999977648259,4|2,1:0|0:0,0:0:0:0:
244,103,2582,1,0,1:0:0:0:
419,131,3439,6,0,B|327:201|319:181,1,74.9999977648259,2|2,1:2|0:0,0:0:0:0:
344,181,4296,1,0,1:0:0:0:
316,356,5153,86,0,B|245:264|265:256,1,74.9999977648259,2|2,1:2|0:0,0:0:0:0:
266,282,6010,1,0,1:0:0:0:
90,253,6867,6,0,B|181:182|189:202,1,74.9999977648259,2|2,1:2|0:0,0:0:0:0:
165,203,7724,1,0,1:0:0:0:
194,28,8582,86,0,B|264:119|244:127,2,74.9999977648259,2|2|0,1:2|0:0|0:0,0:0:0:0:
114,0,9439,1,0,1:0:0:0:
165,203,10296,6,0,B|116:228|82:260,1,74.9999977648259,2|2,1:2|0:0,0:0:0:0:
90,253,11153,1,0,1:0:0:0:
316,356,12010,86,0,B|245:264|265:256,2,74.9999977648259,2|2|0,1:2|0:0|0:0,0:0:0:0:
398,384,12867,1,0,1:0:0:0:
344,181,13725,6,0,B|392:155|426:123,1,74.9999977648259,2|2,1:2|0:0,0:0:0:0:
255,192,14582,1,8,1:0:0:0:
64,352,15439,38,0,B|45:323|42:286|73:285|72:255|42:255|30:223|46:178,1,180.000004291534,4|2,3:1|3:0,1:1:0:0:
78,99,16296,2,0,B|153:81|124:130|221:105,1,120.000002861023,8|0,1:0|0:0,0:0:0:0:
195,111,17153,2,0,B|172:185|144:135|118:231,1,120.000002861023,2|0,1:2|0:0,0:0:0:0:
5,60,18010,1,8,1:0:0:0:
79,98,18225,2,0,B|131:154|74:154|145:225,1,120.000002861023,0|0,3:0|0:0,0:0:0:0:
87,282,18867,6,0,B|71:302|35:267|83:209|158:215|197:272,1,180.000004291534,0|2,3:0|0:3,1:1:0:0:
269,293,19725,2,0,B|332:288|379:252,1,120.000002861023,8|0,1:0|0:0,0:0:0:0:
379,252,20582,2,0,B|358:218|361:164,1,90.0000021457672,2|2,1:2|0:0,0:0:0:0:
367,148,21010,2,0,B|285:137,1,60.0000014305115,0|0,0:0|0:0,0:0:0:0:
350,61,21439,1,8,1:0:0:0:
274,18,21653,2,0,B|223:39|141:38,1,120.000002861023,0|0,3:0|0:0,0:0:0:0:
72,96,22296,86,0,B|34:27|116:19|159:76|76:78|163:134,1,180.000004291534,4|2,3:1|3:0,1:1:0:0:
164,214,23153,2,0,B|109:187|42:196,1,120.000002861023,8|0,1:0|0:0,0:0:0:0:
238,122,24010,2,0,B|214:179|163:213,1,120.000002861023,2|0,1:2|0:0,0:0:0:0:
288,348,24867,1,8,1:0:0:0:
206,325,25082,2,0,B|167:275|163:214,1,120.000002861023,0|0,3:0|0:0,0:0:0:0:
258,243,25725,6,0,B|304:243|341:226|312:173|367:183|316:220|338:250|374:276,1,180.000004291534,0|2,3:0|0:3,1:1:0:0:
421,210,26582,1,8,1:0:0:0:
246,104,27010,2,0,B|246:139|256:163,1,60.0000014305115,0|0,0:0|0:0,0:0:0:0:
256,163,28939,1,0,0:0:0:0:
342,152,29153,22,0,B|286:165|233:105|286:77|234:13|184:24,1,224.999993294478,4|2,3:1|0:3,1:1:0:0:
108,71,30010,2,0,B|96:7,2,64.9999988377094,8|0|0,1:0|0:0|0:0,0:0:0:0:
45,132,30653,1,0,0:0:0:0:
126,158,30867,6,0,B|53:150|15:211,1,129.999997675419,2|0,1:2|3:0,0:0:0:0:
232,379,31725,1,8,1:0:0:0:
212,298,31939,2,0,B|173:236|101:244,1,129.999997675419,0|0,3:0|0:0,0:0:0:0:
129,329,32582,86,0,B|168:300|173:255|140:234|163:196|197:220|225:191|225:136,1,224.999993294478,0|2,3:0|0:3,1:1:0:0:
201,54,33439,1,8,1:0:0:0:
285,71,33653,2,0,B|353:86|333:28|428:51,1,129.999997675419,0|0,0:0|0:0,0:0:0:0:
475,107,34296,6,0,B|453:156|462:213,1,97.4999982565642,2|0,1:0|0:0,0:0:0:0:
463,219,34725,2,0,B|472:298,1,64.9999988377094,0|0,3:0|0:0,0:0:0:0:
384,262,35153,1,8,1:0:0:0:
325,323,35367,1,0,3:0:0:0:
256,115,35796,1,0,0:0:0:0:
204,191,36010,86,0,B|241:215|271:196|275:94|134:128|114:188,1,224.999993294478,4|2,3:1|0:3,1:1:0:0:
29,174,36867,2,0,B|42:257,2,64.9999988377094,8|0|0,1:0|0:0|0:0,0:0:0:0:
16,90,37510,1,0,0:0:0:0:
93,54,37725,6,0,B|164:50|210:-3,1,129.999997675419,2|0,1:2|3:0,0:0:0:0:
188,198,38582,1,8,1:0:0:0:
257,147,38796,2,0,B|299:90|288:20,1,129.999997675419,0|0,3:0|0:0,0:0:0:0:
203,67,39439,86,0,B|249:48|311:102|263:138|326:188|379:166,1,224.999993294478,0|2,3:0|0:3,1:1:0:0:
453,124,40296,1,8,1:0:0:0:
502,193,40510,2,0,B|470:255|485:335,1,129.999997675419,0|0,0:0|0:0,0:0:0:0:
406,364,41153,6,0,B|389:316|348:268,1,97.4999982565642,2|0,1:0|0:0,0:0:0:0:
346,270,41582,2,0,B|270:265,1,64.9999988377094,0|0,3:0|0:0,0:0:0:0:
163,253,42010,85,8,1:0:0:0:
226,198,42225,1,0,3:0:0:0:
123,178,42439,2,0,B|106:154|101:131|112:98,1,74.9999977648259,8|0,1:0|0:0,0:0:0:0:
118,93,42760,1,0,3:0:0:0:
134,82,42867,54,0,B|169:117|223:119|223:119|278:88,1,139.99999666214,4|0,3:1|0:0,0:0:0:0:
333,49,43510,1,2,3:0:0:0:
440,98,43725,1,8,0:0:0:0:
362,128,43939,2,0,B|353:220,2,69.99999833107,2|0|2,3:1|0:0|0:3,1:1:0:0:
440,98,44582,5,2,1:2:0:0:
468,172,44796,2,0,B|465:228|430:283,1,104.999997496605,0|0,3:0|3:0,0:0:0:0:
362,316,45332,1,0,3:0:0:0:
343,308,45439,2,0,B|260:291|295:361|192:331,1,139.99999666214,8|0,0:0|0:0,0:0:0:0:
138,287,46082,1,2,0:3:0:0:
132,307,46189,1,2,0:3:0:0:
126,322,46296,86,0,B|119:266|119:266|94:233|27:223,1,139.99999666214,0|0,3:0|0:0,0:0:0:0:
16,150,46939,1,0,3:0:0:0:
104,99,47153,2,0,B|138:101|191:77,1,69.99999833107,8|2,0:0|0:1,0:0:0:0:
220,13,47582,1,0,0:0:0:0:
296,54,47796,1,2,0:3:0:0:
249,127,48010,6,0,B|246:184|277:244,1,104.999997496605,2|0,1:2|0:0,0:0:0:0:
281,243,48439,2,0,B|376:257,1,69.99999833107,0|0,3:0|0:0,0:0:0:0:
363,265,48760,1,0,0:0:0:0:
375,277,48867,1,8,0:0:0:0:
414,360,49082,2,0,B|406:291|457:212,1,139.99999666214,2|2,3:1|0:3,0:0:0:0:
512,142,49725,86,0,B|460:154|424:127|424:127|403:58,1,139.99999666214,0|0,3:0|0:0,0:0:0:0:
339,34,50367,1,0,3:0:0:0:
317,140,50582,1,8,0:0:0:0:
245,95,50796,2,0,B|159:86,2,69.99999833107,2|0|2,3:1|0:0|0:3,1:1:0:0:
317,140,51439,5,2,1:2:0:0:
240,182,51653,2,0,B|215:234|221:315,1,104.999997496605,0|0,3:0|3:0,0:0:0:0:
210,380,52189,1,0,3:0:0:0:
195,370,52296,2,0,B|170:331|235:285|316:347,1,139.99999666214,8|0,0:0|0:0,0:0:0:0:
366,372,52939,1,2,0:3:0:0:
383,367,53046,1,2,0:3:0:0:
401,364,53153,6,0,B|410:326|419:277,1,75,2|2,1:2|0:2,0:0:0:0:
256,192,55725,53,8,0:0:0:0:
312,60,56582,86,0,B|232:47,1,74.9999977648259,6|0,3:1|0:0,1:1:0:0:
221,56,56903,2,0,B|164:57|113:99,1,112.499996647239,2|2,0:1|3:1,1:1:0:0:
30,84,57439,1,8,0:0:0:0:
30,84,57867,1,0,0:0:0:0:
43,276,58296,6,0,B|36:217|64:166,1,112.499996647239,6|2,3:1|0:1,1:1:0:0:
79,177,58725,2,0,B|153:186,1,74.9999977648259,0|2,3:0|0:1,1:1:0:0:
227,139,59153,1,8,0:0:0:0:
193,338,59582,1,0,0:0:0:0:
267,361,59796,1,2,0:3:0:0:
284,367,59903,1,2,0:3:0:0:
297,372,60010,86,0,B|391:359,1,74.9999977648259,6|0,3:1|0:0,1:1:0:0:
384,371,60332,2,0,B|447:368|496:319,1,112.499996647239,2|2,0:1|3:1,1:1:0:0:
512,247,60867,1,8,0:0:0:0:
512,247,61296,1,0,0:0:0:0:
446,79,61725,6,0,B|434:203,1,124.999998137355,6|0,3:1|3:0,1:1:0:0:
353,173,62367,1,2,0:1:0:0:
308,248,62582,2,0,B|323:352,2,93.7499986030162,8|0|0,0:0|3:0|3:0,0:0:0:0:
294,237,63332,1,0,0:0:0:0:
282,227,63439,86,0,B|187:216,1,74.9999977648259,6|0,3:1|0:0,0:0:0:0:
194,229,63760,2,0,B|130:228|81:173,1,112.499996647239,2|2,0:1|3:1,1:1:0:0:
56,107,64296,1,8,0:0:0:0:
56,107,64725,1,0,0:0:0:0:
31,357,65153,6,0,B|22:277,1,74.9999977648259,6|0,3:1|0:0,1:1:0:0:
12,271,65475,1,2,0:1:0:0:
0,258,65582,2,0,B|7:181,1,74.9999977648259,0|2,3:0|0:1,1:1:0:0:
56,107,66010,1,8,0:0:0:0:
232,17,66439,1,0,0:0:0:0:
283,77,66653,1,2,0:3:0:0:
295,89,66760,1,2,0:3:0:0:
307,101,66867,86,0,B|373:147|463:136,1,149.999995529652,6|2,3:1|0:1,0:0:0:0:
502,204,67510,1,2,3:1:0:0:
496,308,67725,2,0,B|492:381,1,60.0000014305115,8|0,0:0|0:0,0:0:0:0:
285,203,68367,1,0,0:0:0:0:
328,282,68582,6,0,B|289:287|256:314,1,74.9999977648259,6|0,3:1|0:0,1:1:0:0:
206,242,69010,2,0,B|167:237|134:210,1,74.9999977648259,0|2,3:0|0:1,1:1:0:0:
60,258,69439,1,8,0:0:0:0:
9,189,69653,2,0,B|-8:155|2:96,1,74.9999977648259,0|0,3:0|0:0,0:0:0:0:
41,90,69975,2,0,B|35:49,2,37.4999988824129,0|8|0,3:0|0:0|3:0,0:0:0:0:
86,110,70296,86,0,B|164:119,1,74.9999977648259,6|0,3:1|0:0,1:1:0:0:
174,129,70617,2,0,B|241:118|292:67,1,112.499996647239,2|2,0:1|3:1,1:1:0:0:
329,18,71153,2,0,B|396:25,1,60.0000014305115,8|0,0:0|0:0,0:0:0:0:
389,24,71582,2,0,B|456:31,1,60.0000014305115,0|2,1:0|0:3,0:0:0:0:
409,112,72010,6,0,B|403:175|446:228,1,112.499996647239,6|2,3:1|0:1,1:1:0:0:
449,230,72439,2,0,B|441:317,1,74.9999977648259,0|2,3:0|0:1,1:1:0:0:
366,373,72867,1,8,0:0:0:0:
296,343,73082,2,0,B|231:349,1,60.0000014305115,0|0,3:0|1:0,0:0:0:0:
168,379,73510,1,2,0:3:0:0:
155,367,73617,1,2,0:3:0:0:
144,355,73725,86,0,B|153:280,1,74.9999977648259,6|0,3:1|0:0,1:1:0:0:
143,266,74046,2,0,B|77:266|8:223,1,112.499996647239,2|2,0:1|3:1,1:1:0:0:
109,177,74582,2,0,B|101:111,1,60.0000014305115,8|0,0:0|0:0,0:0:0:0:
103,118,75010,2,0,B|95:52,1,60.0000014305115,0|2,1:0|0:3,0:0:0:0:
180,79,75439,6,0,B|325:104,1,129.999997675419,6|0,3:1|3:0,1:1:0:0:
392,86,76082,1,2,0:1:0:0:
366,168,76296,2,0,B|476:154,2,97.4999982565642,8|0|2,0:0|3:0|0:3,0:0:0:0:
352,179,77046,1,2,0:3:0:0:
339,192,77153,86,0,B|311:240|323:306,2,112.499996647239,6|2|2,3:1|0:1|3:1,1:1:0:0:
274,131,78010,1,8,0:0:0:0:
200,119,78225,2,0,B|125:109,1,60.0000014305115,0|0,0:0|1:0,0:0:0:0:
140,111,78653,1,2,0:3:0:0:
57,135,78867,6,0,B|25:176|50:230,1,74.9999977648259,6|2,3:1|0:1,1:1:0:0:
87,276,79296,2,0,B|165:267,1,74.9999977648259,2|2,3:1|0:1,1:1:0:0:
238,320,79725,1,8,0:0:0:0:
296,273,79939,1,0,3:0:0:0:
365,302,80153,2,0,B|445:310,1,60.0000014305115,0|2,1:0|0:3,0:0:0:0:
440,301,80475,1,2,0:3:0:0:
457,293,80582,86,0,B|510:227|476:132,1,149.999995529652,6|0,3:1|0:0,1:1:0:0:
429,85,81225,1,2,3:1:0:0:
360,158,81439,1,8,0:0:0:0:
307,106,81653,2,0,B|299:34,1,60.0000014305115,2|0,0:1|1:0,0:0:0:0:
301,46,82082,1,2,0:1:0:0:
221,89,82296,54,0,B|177:98|177:98|123:64,1,90.0000021457673,2|0,1:2|0:0,0:0:0:0:
66,344,83796,1,0,0:0:0:0:
66,344,84010,5,4,1:0:0:0:
342,254,84653,1,0,3:0:0:0:
296,326,84867,2,0,B|364:337,2,64.9999988377094,8|0|0,1:0|0:0|0:0,0:0:0:0:
227,274,85510,1,0,0:0:0:0:
192,352,85725,6,0,B|185:291|150:223,1,129.999997675419,2|0,1:2|3:0,0:0:0:0:
383,124,86582,1,8,1:0:0:0:
326,181,86796,2,0,B|269:156|193:152,1,129.999997675419,0|0,3:0|0:0,0:0:0:0:
115,165,87439,86,0,B|171:178|224:118|171:90|223:26|273:37,1,224.999993294478,0|2,3:0|0:3,1:1:0:0:
351,2,88296,1,8,1:0:0:0:
402,67,88510,2,0,B|472:55,2,64.9999988377094,0|0|0,0:0|0:0|0:0,0:0:0:0:
327,108,89153,6,0,B|398:104|456:150,1,129.999997675419,2|0,1:0|3:0,0:0:0:0:
458,367,90010,1,8,1:0:0:0:
413,291,90225,1,0,3:0:0:0:
413,291,90653,1,0,0:0:0:0:
324,285,90868,86,0,B|285:256|280:211|313:190|290:152|256:176|228:147|228:92,1,224.999993294478,4|2,3:1|0:3,1:1:0:0:
182,15,91725,2,0,B|246:6,2,64.9999988377094,8|0|0,1:0|0:0|0:0,0:0:0:0:
98,25,92367,1,0,0:0:0:0:
15,36,92582,6,0,B|-24:88|-4:176,1,129.999997675419,2|0,1:2|3:0,0:0:0:0:
262,204,93439,1,8,1:0:0:0:
187,162,93653,2,0,B|122:154|56:215,1,129.999997675419,0|0,3:0|0:0,0:0:0:0:
30,285,94296,86,0,B|-7:309|-37:290|-41:188|100:222|120:282,1,224.999993294478,0|2,3:0|0:3,1:1:0:0:
158,355,95153,1,8,1:0:0:0:
235,314,95367,2,0,B|317:304,1,64.9999988377094,0|0,0:0|0:0,0:0:0:0:
370,356,95796,2,0,B|434:363,1,64.9999988377094,0|2,0:0|1:0,0:0:0:0:
256,16,96867,5,8,1:0:0:0:
256,220,97296,1,8,1:0:0:0:
458,70,97725,38,0,B|422:-6|331:7|302:69|328:97|376:122|406:89,1,224.999993294478,4|2,3:1|3:0,1:1:0:0:
445,158,98582,1,8,1:0:0:0:
395,225,98796,2,0,B|405:304,2,64.9999988377094,0|0|0,0:0|0:0|0:0,0:0:0:0:
315,269,99439,6,0,B|251:268|187:246,1,129.999997675419,2|0,1:2|0:0,0:0:0:0:
139,58,100296,1,8,1:0:0:0:
162,138,100510,2,0,B|130:193|78:236,1,129.999997675419,0|0,3:0|0:0,0:0:0:0:
59,138,101153,86,0,B|107:127|159:191|106:219|159:279|215:266,1,224.999993294478,0|2,3:0|0:3,1:1:0:0:
285,217,102010,1,8,1:0:0:0:
439,368,102439,2,0,B|431:295,1,64.9999988377094,0|0,0:0|0:0,0:0:0:0:
466,225,102867,6,0,B|502:177|504:122,1,97.4999982565642,2|2,1:2|0:0,0:0:0:0:
505,121,103296,2,0,B|513:48,1,64.9999988377094,0|0,3:0|0:0,0:0:0:0:
426,63,103725,1,8,1:0:0:0:
415,146,103939,2,0,B|360:190|293:178,1,129.999997675419,0|0,3:0|0:0,0:0:0:0:
313,100,104582,86,0,B|262:81|225:97|236:138|192:146|184:108|140:97|99:124,1,224.999993294478,4|2,3:1|3:0,1:1:0:0:
96,36,105439,2,0,B|22:54|-7:130,1,129.999997675419,8|0,1:0|0:0,0:0:0:0:
19,197,106082,1,0,0:0:0:0:
74,264,106296,6,0,B|133:229|205:243,1,129.999997675419,2|0,1:2|3:0,0:0:0:0:
313,99,107153,1,8,1:0:0:0:
393,121,107367,2,0,B|452:154|474:218,1,129.999997675419,0|0,3:0|0:0,0:0:0:0:
439,299,108010,86,0,B|476:323|506:304|510:202|369:236|349:296,1,224.999993294478,0|2,3:0|0:3,1:1:0:0:
273,343,108867,2,0,B|262:265,1,64.9999988377094,8|0,1:0|0:0,0:0:0:0:
176,298,109296,2,0,B|187:220,1,64.9999988377094,0|0,0:0|0:0,0:0:0:0:
89,267,109725,6,0,B|103:380,2,97.4999982565642,6|2|0,1:2|0:0|0:0,0:0:0:0:
36,197,110582,1,8,0:0:0:0:
105,144,110796,1,8,0:0:0:0:
58,73,111010,1,8,0:0:0:0:
127,23,111225,1,2,0:3:0:0:
178,93,111439,54,0,B|254:85,1,74.9999977648259,6|0,3:1|0:0,1:1:0:0:
267,75,111760,2,0,B|329:77|372:132,1,112.499996647239,2|2,0:1|3:1,1:1:0:0:
449,100,112296,1,8,0:0:0:0:
449,100,112725,1,0,0:0:0:0:
491,309,113153,6,0,B|412:301,1,74.9999977648259,6|0,3:1|0:0,1:1:0:0:
405,289,113475,1,2,0:1:0:0:
394,277,113582,2,0,B|309:284,1,74.9999977648259,0|2,3:0|0:1,1:1:0:0:
268,350,114010,1,8,0:0:0:0:
254,155,114439,1,0,0:0:0:0:
186,120,114653,1,2,0:3:0:0:
171,113,114760,1,2,0:3:0:0:
157,106,114867,86,0,B|62:94,1,74.9999977648259,6|0,3:1|0:0,1:1:0:0:
69,86,115189,2,0,B|30:132|50:207,1,112.499996647239,2|2,0:1|3:1,1:1:0:0:
94,267,115725,1,8,0:0:0:0:
94,267,116153,1,0,0:0:0:0:
287,340,116582,6,0,B|149:323,1,124.999998137355,6|0,3:1|3:0,1:1:0:0:
207,247,117225,1,2,0:1:0:0:
142,194,117439,2,0,B|40:183,2,93.7499986030162,8|0|0,0:0|3:0|3:0,0:0:0:0:
155,184,118189,1,0,0:0:0:0:
166,174,118296,86,0,B|153:77,1,74.9999977648259,6|0,3:1|0:0,0:0:0:0:
143,90,118617,2,0,B|188:51|266:64,1,112.499996647239,2|2,0:1|3:1,1:1:0:0:
321,13,119153,1,8,0:0:0:0:
321,13,119582,1,0,0:0:0:0:
472,186,120010,6,0,B|462:277,1,74.9999977648259,6|0,3:1|0:0,1:1:0:0:
473,271,120332,1,2,0:1:0:0:
483,284,120439,2,0,B|494:369,1,74.9999977648259,0|2,3:0|0:1,1:1:0:0:
414,384,120867,1,8,0:0:0:0:
235,314,121296,1,0,0:0:0:0:
168,350,121510,1,2,0:3:0:0:
154,358,121618,1,2,0:3:0:0:
140,365,121725,86,0,B|58:369|-9:314,1,149.999995529652,6|0,3:1|0:0,0:0:0:0:
43,246,122367,1,2,3:1:0:0:
7,164,122582,2,0,B|67:160,1,60.0000014305115,8|0,0:0|0:0,0:0:0:0:
217,1,123225,1,0,0:0:0:0:
269,68,123439,6,0,B|296:92|340:81,1,74.9999977648259,6|0,3:1|0:0,1:1:0:0:
418,119,123867,2,0,B|445:94|489:105,1,74.9999977648259,2|0,3:1|0:0,1:1:0:0:
502,114,124189,1,0,3:0:0:0:
512,123,124296,2,0,B|529:208,1,74.9999977648259,8|0,0:0|3:0,0:0:0:0:
457,247,124725,2,0,B|449:301,3,37.4999988824129,8|8|8|8,0:0|0:0|0:0|0:0,0:0:0:0:
450,283,125153,86,0,B|389:275|341:313,1,116.25000346452,6|2,3:1|0:1,1:1:0:0:
330,325,125582,2,0,B|296:296|258:302,1,77.5000023096801,8|2,0:0|1:0,1:1:0:0:
176,356,126010,2,0,B|183:313|159:282,1,77.5000023096801,2|0,3:2|1:0,1:1:0:0:
70,236,126439,2,0,B|111:221|125:185,1,77.5000023096801,8|2,0:0|1:3,1:1:0:0:
161,81,126867,6,0,B|221:63|271:101,1,116.25000346452,2|2,3:1|0:1,1:1:0:0:
287,110,127296,2,0,B|260:52|287:15,1,77.5000023096801,8|2,0:0|1:0,1:1:0:0:
372,98,127725,2,0,B|435:103|454:145,1,77.5000023096801,2|0,3:2|1:0,1:1:0:0:
340,176,128153,2,0,B|303:228|257:223,1,77.5000023096801,8|2,0:0|1:3,1:1:0:0:
263,217,128475,1,2,0:3:0:0:
247,214,128582,86,0,B|229:283|287:351,1,116.25000346452,2|2,3:1|0:1,1:1:0:0:
277,340,129010,2,0,B|231:342|200:392,1,77.5000023096801,8|2,0:0|1:0,1:1:0:0:
131,345,129439,2,0,B|129:299|78:268,1,77.5000023096801,2|0,3:2|1:0,1:1:0:0:
113,197,129867,2,0,B|159:195|189:144,1,77.5000023096801,8|2,0:0|1:3,1:1:0:0:
147,57,130296,6,0,B|230:39|204:116|295:96,1,155.00000461936,2|8,3:1|0:0,0:0:0:0:
344,33,130939,1,2,1:0:0:0:
357,42,131046,1,0,0:0:0:0:
369,52,131153,2,0,B|378:154,1,77.5000023096801,2|0,3:2|1:0,1:1:0:0:
309,184,131582,2,0,B|300:286,1,77.5000023096801,8|2,0:0|1:3,1:1:0:0:
344,359,132010,86,0,B|445:391|482:285,1,155.00000461936,2|8,3:1|0:0,1:1:0:0:
430,235,132653,2,0,B|403:201|420:141,1,77.5000023096801,2|2,1:0|3:2,1:1:0:0:
389,63,133082,2,0,B|373:103|312:118,1,77.5000023096801,0|8,1:0|0:0,1:1:0:0:
254,84,133510,1,2,1:3:0:0:
184,176,133725,5,2,3:1:0:0:
112,128,133939,2,0,B|88:93|103:49,2,77.5000023096801,2|8|2,1:0|0:0|1:0,1:1:0:0:
184,176,134582,2,0,B|99:133|52:214,1,155.00000461936,2|8,3:2|0:0,1:1:0:0:
10,318,135225,1,2,1:3:0:0:
25,310,135332,1,2,0:3:0:0:
39,304,135439,86,0,B|121:298|81:373|198:350,1,155.00000461936,2|8,3:1|0:0,1:1:0:0:
246,301,136082,2,0,B|276:271|337:293,1,77.5000023096801,2|2,1:0|3:2,1:1:0:0:
355,211,136510,2,0,B|395:221|407:285,1,77.5000023096801,2|8,1:0|0:0,1:1:0:0:
378,352,136939,1,2,1:3:0:0:
481,380,137153,6,0,B|467:292|521:237,2,155.00000461936,2|8|2,3:1|0:0|3:1,0:0:0:0:
377,352,138225,1,0,3:0:0:0:
362,362,138332,2,0,L|266:348,1,77.5000005912781,8|0,0:0|3:3,0:0:0:0:
274,340,138653,1,8,0:0:0:0:
262,328,138760,1,0,3:0:0:0:
251,317,138867,53,4,3:1:0:0:
143,53,152582,54,0,B|107:95|131:177,1,104.999997496605,4|0,3:1|0:0,0:0:0:0:
137,163,152992,2,0,B|229:153,1,69.99999833107,8|0,0:0|1:0,0:0:0:0:
275,100,153403,2,0,B|344:107,2,69.99999833107,0|0|8,3:0|1:0|0:0,0:0:0:0:
227,26,154020,1,0,1:0:0:0:
143,53,154225,6,0,B|107:95|131:177,1,104.999997496605,0|0,3:1|0:0,0:0:0:0:
137,163,154619,2,0,B|229:153,1,69.99999833107,8|0,0:0|1:0,0:0:0:0:
275,100,155014,2,0,B|344:107,2,69.99999833107,0|0|8,3:0|1:0|0:0,0:0:0:0:
227,26,155606,1,0,1:0:0:0:
143,53,155803,86,0,B|107:95|131:177,1,104.999997496605,0|0,3:1|0:0,0:0:0:0:
137,163,156187,2,0,B|229:153,1,69.99999833107,8|0,0:0|1:0,0:0:0:0:
275,100,156572,2,0,B|344:107,2,69.99999833107,0|0|8,3:0|1:0|0:0,0:0:0:0:
227,26,157149,1,0,1:0:0:0:
143,53,157341,6,0,B|107:95|131:177,1,104.999997496605,0|0,3:0|0:0,0:0:0:0:
137,163,157713,2,0,B|229:153,1,69.99999833107,8|2,0:0|1:3,0:0:0:0:
223,162,157993,1,2,0:3:0:0:
238,171,158086,2,0,B|334:187,1,69.99999833107,0|0,3:0|3:0,0:0:0:0:
376,132,158459,1,8,3:2:0:0:
427,200,158645,1,0,3:0:0:0:
359,254,158831,86,0,B|327:277|281:266,1,69.99999833107,0|0,3:0|3:0,0:0:0:0:
208,295,159192,2,0,B|218:329|254:346,1,69.99999833107,8|0,3:2|3:0,0:0:0:0:
330,382,159553,1,0,3:0:0:0:
398,331,159734,1,0,3:0:0:0:
482,351,159915,2,0,B|470:261,1,69.99999833107,8|0,3:2|3:0,0:0:0:0:
359,254,160276,6,0,B|327:277|281:266,1,69.99999833107,0|0,3:0|3:0,0:0:0:0:
208,295,160626,2,0,B|218:329|254:346,1,69.99999833107,8|0,3:2|3:0,0:0:0:0:
330,382,160977,1,0,3:0:0:0:
398,331,161153,1,0,3:0:0:0:
482,351,161328,2,0,B|470:261,1,69.99999833107,8|0,3:2|3:0,0:0:0:0:
433,182,161679,86,0,B|441:120,3,34.999999165535,8|0|0|0,3:2|3:0|3:0|3:0,3:3:0:0:
396,164,162021,2,0,B|404:102,3,34.999999165535,8|0|0|0,3:2|3:0|3:0|3:0,3:3:0:0:
355,149,162364,2,0,B|363:87,3,34.999999165535,8|0|0|0,3:2|3:0|3:0|3:0,3:3:0:0:
318,131,162706,2,0,B|326:69,3,34.999999165535,8|0|0|0,3:2|3:0|3:0|3:0,3:3:0:0:
325,78,163050,5,0,3:0:0:0:
287,362,163393,1,8,0:0:0:0:
311,174,163907,37,0,3:0:0:0:
301,257,164079,1,8,0:0:0:0:
51,33,164421,86,0,B|82:63|139:50,1,74.9999977648259,4|0,3:1|1:0,0:0:0:0:
207,34,164764,2,0,B|182:-13|120:49|180:116,1,149.999995529652,8|2,0:0|1:0,1:1:0:0:
131,184,165279,1,0,3:0:0:0:
42,159,165450,2,0,B|55:250,1,74.9999977648259,8|2,0:0|1:3,0:0:0:0:
39,329,165793,6,0,B|102:312|151:355,1,112.499996647239,0|0,3:0|0:0,0:0:0:0:
156,363,166136,1,8,0:0:0:0:
231,314,166307,2,0,B|314:329|374:261,1,149.999995529652,0|0,1:0|3:0,0:0:0:0:
447,315,166821,2,0,B|458:234,1,74.9999977648259,8|2,0:0|1:3,0:0:0:0:
466,228,167079,1,2,0:3:0:0:
475,216,167164,86,0,B|474:171|429:127,1,74.9999977648259,0|0,3:1|1:0,0:0:0:0:
496,61,167507,2,0,B|414:54|454:130|361:115,1,149.999995529652,8|2,0:0|1:0,1:1:0:0:
294,70,168021,1,0,3:0:0:0:
216,119,168193,2,0,B|206:43,1,74.9999977648259,8|2,0:0|1:3,0:0:0:0:
128,115,168536,6,0,B|214:131|240:241,2,149.999995529652,0|8|0,3:0|0:0|3:0,0:0:0:0:
88,40,169393,1,0,3:0:0:0:
11,82,169564,2,0,B|-20:116|-7:176,1,74.9999977648259,8|2,0:0|1:3,0:0:0:0:
1,164,169821,1,2,0:3:0:0:
14,178,169907,86,0,B|25:269,1,74.9999977648259,0|0,3:1|1:0,0:0:0:0:
5,342,170250,2,0,B|-42:317|20:255|87:315,1,149.999995529652,8|2,0:0|1:0,1:1:0:0:
151,375,170764,1,0,3:0:0:0:
217,319,170936,2,0,B|227:236,1,74.9999977648259,8|2,0:0|1:3,0:0:0:0:
173,177,171279,6,0,B|136:127|145:55,1,112.499996647239,0|0,3:0|0:0,0:0:0:0:
154,58,171621,2,0,B|243:74|320:2,1,149.999995529652,8|2,0:0|1:0,1:1:0:0:
366,76,172136,1,0,3:0:0:0:
444,30,172307,2,0,B|453:110,1,74.9999977648259,8|2,0:0|1:3,0:0:0:0:
463,119,172564,1,2,0:3:0:0:
473,134,172650,86,0,B|478:176|447:226,1,74.9999977648259,0|0,3:1|1:0,0:0:0:0:
498,285,172993,2,0,B|410:299|451:219|368:230,1,149.999995529652,8|2,0:0|1:0,1:1:0:0:
294,264,173507,1,0,3:0:0:0:
320,350,173679,2,0,B|223:338,1,74.9999977648259,8|2,0:0|1:3,0:0:0:0:
161,356,174021,6,0,B|136:315|139:273,1,74.9999977648259,0|0,3:0|1:0,0:0:0:0:
24,281,174364,2,0,B|91:234|101:142,1,149.999995529652,8|0,0:0|3:0,0:0:0:0:
71,79,174879,1,0,3:0:0:0:
132,22,175050,2,0,B|180:27|212:92,1,74.9999977648259,8|2,0:0|1:3,0:0:0:0:
201,79,175307,1,2,0:3:0:0:
208,97,175393,86,0,B|249:101|303:64,1,74.9999977648259,4|0,3:1|1:0,0:0:0:0:
349,25,175736,2,0,B|390:21|444:58,1,74.9999977648259,8|0,0:0|1:0,0:0:0:0:
479,106,176079,1,2,1:0:0:0:
395,125,176250,1,0,3:0:0:0:
451,188,176421,2,0,B|444:278,1,74.9999977648259,8|2,0:0|1:3,0:0:0:0:
395,356,176764,6,0,B|384:291|314:248,1,112.499996647239,0|0,3:0|0:0,0:0:0:0:
321,253,177107,1,8,0:0:0:0:
246,298,177279,2,0,B|157:304|97:225,1,149.999995529652,0|0,1:0|3:0,0:0:0:0:
31,288,177793,2,0,B|20:203,1,74.9999977648259,8|2,0:0|1:3,0:0:0:0:
31,197,178050,1,2,0:3:0:0:
41,181,178136,86,0,B|54:82,1,74.9999977648259,0|0,3:1|1:0,0:0:0:0:
109,40,178479,2,0,B|175:28|149:60|200:74|200:34|263:85,1,149.999995529652,8|2,0:0|1:0,1:1:0:0:
309,140,178993,1,0,3:0:0:0:
386,92,179164,2,0,B|398:181,1,74.9999977648259,8|2,0:0|1:3,0:0:0:0:
486,228,179507,6,0,B|420:229|381:290,1,112.499996647239,0|0,3:0|0:0,0:0:0:0:
381,296,179850,1,8,0:0:0:0:
309,342,180021,2,0,B|266:335|243:307,1,74.9999977648259,0|0,1:0|3:0,0:0:0:0:
205,234,180364,1,0,3:0:0:0:
126,277,180536,2,0,B|119:202,1,74.9999977648259,8|2,0:0|1:3,0:0:0:0:
108,187,180793,1,2,0:3:0:0:
96,171,180879,86,0,B|97:120|146:85,1,74.9999977648259,0|0,3:1|1:0,0:0:0:0:
87,28,181221,2,0,B|167:17|126:97|214:83,1,149.999995529652,8|2,0:0|1:0,1:1:0:0:
287,124,181736,1,0,3:0:0:0:
373,104,181907,2,0,B|360:190,1,74.9999977648259,8|2,0:0|1:3,0:0:0:0:
325,257,182250,6,0,B|386:261|430:312,1,112.499996647239,0|0,3:0|0:0,0:0:0:0:
436,316,182593,2,0,B|424:241,2,74.9999977648259,8|0|2,0:0|1:0|1:0,1:1:0:0:
512,266,183107,1,0,3:0:0:0:
490,182,183279,2,0,B|498:103,1,74.9999977648259,8|2,0:0|1:3,0:0:0:0:
455,31,183621,85,0,3:0:0:0:
455,31,183793,1,0,3:0:0:0:
391,89,183964,2,0,B|347:86|308:44,1,74.9999977648259,8|0,3:2|3:0,0:0:0:0:
216,69,184307,5,0,3:0:0:0:
216,69,184479,1,0,3:0:0:0:
287,134,184650,2,0,B|243:137|204:179,1,74.9999977648259,8|0,3:2|3:0,0:0:0:0:
151,245,184993,86,0,B|159:296,3,37.4999988824129,0|0|0|0,3:0|3:0|3:0|3:0,0:0:0:0:
116,252,185336,2,0,B|124:303,3,37.4999988824129,0|0|0|0,3:0|3:0|3:0|3:0,0:0:0:0:
83,258,185679,2,0,B|91:309,3,37.4999988824129,0|0|0|0,3:0|3:0|3:0|3:0,0:0:0:0:
47,264,186021,1,8,3:2:0:0:
361,355,186364,22,0,B|406:312|391:239,1,116.25000346452,6|2,3:1|0:1,1:1:0:0:
382,235,186707,2,0,B|410:203|457:204,1,77.5000023096801,8|2,0:0|1:0,1:1:0:0:
464,117,187050,2,0,B|422:108|399:67,1,77.5000023096801,2|0,1:0|3:0,1:1:0:0:
319,104,187393,2,0,B|332:144|307:184,1,77.5000023096801,8|2,0:0|1:3,0:0:0:0:
222,228,187736,6,0,B|171:196|107:210,1,116.25000346452,2|2,3:1|0:1,1:1:0:0:
94,219,188079,2,0,B|67:187|76:128,1,77.5000023096801,8|2,0:0|1:0,1:1:0:0:
25,44,188421,2,0,B|65:36|111:74,1,77.5000023096801,2|0,1:0|3:0,1:1:0:0:
177,96,188764,2,0,B|216:81|230:42,1,77.5000023096801,8|2,0:0|1:3,0:0:0:0:
244,32,189021,1,2,0:3:0:0:
259,23,189107,86,0,B|248:84|287:159,1,116.25000346452,2|2,3:1|0:1,1:1:0:0:
288,151,189450,1,8,0:0:0:0:
374,194,189621,2,0,B|375:281|316:341,1,155.00000461936,2|0,1:0|3:0,1:1:0:0:
237,296,190136,2,0,B|203:271|161:278,1,77.5000023096801,8|2,0:0|1:3,0:0:0:0:
62,208,190479,6,0,B|146:226|120:149|203:167,1,155.00000461936,2|8,3:1|0:0,1:1:0:0:
167,85,190993,1,2,1:0:0:0:
231,23,191164,1,2,3:1:0:0:
307,68,191336,1,0,3:0:0:0:
288,152,191507,2,0,B|365:162,1,77.5000023096801,8|2,0:0|1:3,0:0:0:0:
443,192,191850,86,0,B|379:192|323:266,1,116.25000346452,6|2,3:1|0:1,1:1:0:0:
332,260,192193,2,0,B|299:291|238:279,1,77.5000023096801,8|2,0:0|1:0,1:1:0:0:
196,339,192536,2,0,B|152:326|132:267,1,77.5000023096801,2|0,1:0|3:0,1:1:0:0:
59,261,192879,2,0,B|48:217|89:170,1,77.5000023096801,8|2,0:0|1:3,0:0:0:0:
41,104,193221,6,0,B|106:94|148:135,1,116.25000346452,2|2,3:1|0:1,1:1:0:0:
163,145,193564,2,0,B|208:150|243:118,1,77.5000023096801,8|2,0:0|1:0,1:1:0:0:
337,88,193907,2,0,B|309:124|320:170,1,77.5000023096801,2|0,1:0|3:0,1:1:0:0:
301,264,194250,2,0,B|282:222|237:208,1,77.5000023096801,8|2,0:0|1:3,0:0:0:0:
228,218,194507,1,2,0:3:0:0:
210,225,194593,86,0,B|166:285|206:361,1,116.25000346452,2|2,3:1|0:1,1:1:0:0:
204,351,194936,1,8,0:0:0:0:
285,384,195107,2,0,B|346:334|434:352,1,155.00000461936,2|2,1:0|3:1,1:1:0:0:
452,263,195621,2,0,B|405:259|361:210,1,77.5000023096801,8|2,0:0|1:0,1:1:0:0:
325,142,195964,6,0,B|410:159|471:109,2,155.00000461936,2|8|2,3:1|0:0|3:1,1:1:0:0:
258,88,196821,1,0,3:0:0:0:
334,54,196993,1,8,0:0:0:0:
78,63,197336,86,0,B|33:106|48:179,1,116.25000346452,6|2,3:1|0:1,1:1:0:0:
55,187,197679,2,0,B|83:216|137:211,1,77.5000023096801,8|2,0:0|1:0,1:1:0:0:
129,320,198021,2,0,B|168:310|190:260,1,77.5000023096801,2|0,1:0|3:0,1:1:0:0:
283,324,198364,2,0,B|294:285|262:240,1,77.5000023096801,8|2,0:0|1:3,0:0:0:0:
240,148,198708,6,0,B|291:180|355:166,1,116.25000346452,2|2,3:1|0:1,1:1:0:0:
370,159,199051,2,0,B|343:127|352:68,1,77.5000023096801,8|2,0:0|1:0,1:1:0:0:
432,103,199393,2,0,B|464:75|523:85,1,77.5000023096801,2|0,1:0|3:0,1:1:0:0:
490,169,199736,2,0,B|517:201|508:260,1,77.5000023096801,8|2,0:0|1:3,0:0:0:0:
497,257,199993,1,2,0:3:0:0:
484,271,200079,86,0,B|423:260|348:299,1,116.25000346452,2|2,3:1|0:1,1:1:0:0:
356,299,200422,1,8,0:0:0:0:
290,240,200593,1,2,1:0:0:0:
234,306,200764,2,0,B|187:296|148:244,1,77.5000023096801,2|0,1:0|3:0,1:1:0:0:
162,179,201107,2,0,B|115:188|96:217,1,77.5000023096801,8|2,0:0|1:3,0:0:0:0:
71,306,201451,6,0,B|88:223|11:249|29:166,1,155.00000461936,2|8,3:1|0:0,1:1:0:0:
97,111,201965,1,2,1:0:0:0:
58,38,202136,1,2,3:1:0:0:
138,21,202308,1,0,3:0:0:0:
220,5,202479,2,0,B|297:15,1,77.5000023096801,8|2,0:0|1:3,0:0:0:0:
383,34,202822,86,0,B|284:26|223:122,1,155.00000461936,6|8,3:1|0:0,1:1:0:0:
273,173,203336,2,0,B|319:181|341:215,1,77.5000023096801,2|0,1:0|1:0,1:1:0:0:
339,297,203679,2,0,B|309:332|268:334,1,77.5000023096801,2|8,3:1|0:0,1:1:0:0:
196,302,204021,1,2,1:0:0:0:
133,358,204193,5,2,3:1:0:0:
64,314,204364,1,2,1:0:0:0:
123,252,204536,2,0,B|148:224|143:179,1,77.5000023096801,8|2,0:0|1:0,1:1:0:0:
41,120,204879,2,0,B|31:156|59:192,1,77.5000023096801,0|0,1:0|3:0,1:1:0:0:
124,96,205221,2,0,B|206:85,1,77.5000023096801,8|2,0:0|1:3,0:0:0:0:
219,92,205479,1,2,0:3:0:0:
237,99,205565,86,0,B|281:159|241:235,1,116.25000346452,2|2,3:1|0:1,1:1:0:0:
241,225,205908,1,8,0:0:0:0:
196,302,206079,2,0,B|257:252|345:270,1,155.00000461936,2|2,1:0|3:1,1:1:0:0:
417,329,206593,2,0,B|430:240,1,77.5000023096801,8|2,0:0|1:0,1:1:0:0:
341,269,206936,5,0,3:0:0:0:
256,40,207279,1,8,0:0:0:0:
256,320,207793,21,0,3:0:0:0:
185,249,207964,2,0,B|126:253,2,38.750000295639,8|8|8,0:0|0:0|0:0,0:0:0:0:
219,164,208307,86,0,B|243:117|300:112|300:112|359:133,1,139.99999666214,4|0,3:1|0:0,0:0:0:0:
418,150,208821,1,2,3:0:0:0:
371,242,208993,1,8,0:0:0:0:
433,309,209164,2,0,B|502:315,2,69.99999833107,2|0|2,3:1|0:0|0:3,1:1:0:0:
351,326,209679,5,2,1:2:0:0:
265,340,209850,2,0,B|237:296|234:240,1,104.999997496605,0|0,3:0|3:0,0:0:0:0:
235,142,210279,1,0,3:0:0:0:
216,150,210364,2,0,B|133:167|168:97|65:127,1,139.99999666214,8|0,0:0|0:0,0:0:0:0:
81,208,210879,1,2,0:3:0:0:
98,215,210964,1,2,0:3:0:0:
115,220,211050,86,0,B|59:227|59:227|26:252|16:319,1,139.99999666214,0|0,3:0|0:0,0:0:0:0:
69,368,211564,1,0,3:0:0:0:
165,319,211736,2,0,B|199:317|252:341,1,69.99999833107,8|2,0:0|0:1,0:0:0:0:
309,379,212079,1,0,0:0:0:0:
354,311,212250,1,2,0:3:0:0:
283,264,212421,6,0,B|280:207|311:147,1,104.999997496605,2|0,1:2|0:0,0:0:0:0:
314,147,212764,2,0,B|219:133,1,69.99999833107,0|0,3:0|0:0,0:0:0:0:
233,124,213021,1,0,0:0:0:0:
221,112,213107,1,8,0:0:0:0:
188,32,213279,2,0,B|196:101|145:180,1,139.99999666214,2|2,3:1|0:3,0:0:0:0:
71,204,213793,86,0,B|123:192|159:219|159:219|180:288,1,139.99999666214,0|0,3:0|0:0,0:0:0:0:
192,352,214307,1,0,3:0:0:0:
258,269,214479,1,8,0:0:0:0:
319,331,214650,2,0,B|405:340,2,69.99999833107,2|0|2,3:1|0:0|0:3,1:1:0:0:
257,269,215164,5,2,1:2:0:0:
341,247,215336,2,0,B|366:195|360:114,1,104.999997496605,0|0,3:0|3:0,0:0:0:0:
370,51,215764,1,0,3:0:0:0:
385,61,215850,2,0,B|410:100|345:146|264:84,1,139.99999666214,8|0,0:0|0:0,0:0:0:0:
227,46,216364,1,2,0:3:0:0:
209,50,216450,1,2,0:3:0:0:
192,54,216536,86,0,B|156:92|152:142|152:142|186:204,1,139.99999666214,0|0,3:0|0:0,0:0:0:0:
92,206,217050,1,0,3:0:0:0:
147,269,217221,2,0,B|224:261|284:329,1,139.99999666214,8|0,0:0|0:0,0:0:0:0:
323,384,217736,1,2,0:3:0:0:
359,306,217907,6,0,B|361:244|310:191,1,104.999997496605,2|0,1:2|0:0,0:0:0:0:
308,196,218250,2,0,L|294:106,1,69.9999978637696,2|0,3:1|0:0,1:1:0:0:
258,9,218593,1,8,0:0:0:0:
219,100,218764,2,0,B|296:103|356:52,1,139.99999666214,2|2,3:1|0:3,1:1:0:0:
448,32,219279,22,0,B|467:61|470:98|439:99|440:129|470:129|482:161|466:206,1,180.000004291534,4|2,3:1|3:0,1:1:0:0:
434,285,219964,2,0,B|359:303|388:254|291:279,1,120.000002861023,8|0,1:0|0:0,0:0:0:0:
317,273,220650,2,0,B|340:199|368:249|394:153,1,120.000002861023,2|0,1:2|0:0,0:0:0:0:
507,324,221336,1,8,1:0:0:0:
433,286,221507,2,0,B|381:230|438:230|367:159,1,120.000002861023,0|0,3:0|0:0,0:0:0:0:
425,102,222021,6,0,B|441:82|477:117|429:175|354:169|315:112,1,180.000004291534,4|2,3:1|3:0,1:1:0:0:
243,91,222707,2,0,B|180:96|133:132,1,120.000002861023,8|0,1:0|0:0,0:0:0:0:
133,132,223393,2,0,B|154:166|151:220,1,90.0000021457672,2|2,1:2|0:0,0:0:0:0:
145,236,223736,2,0,B|227:247,1,60.0000014305115,0|0,0:0|0:0,0:0:0:0:
162,323,224079,1,8,1:0:0:0:
238,366,224250,2,0,B|289:345|371:346,1,120.000002861023,0|0,3:0|0:0,0:0:0:0:
440,288,224764,86,0,B|478:357|396:365|353:308|436:306|349:250,1,180.000004291534,4|2,3:1|3:0,1:1:0:0:
348,170,225450,2,0,B|403:197|470:188,1,120.000002861023,8|0,1:0|0:0,0:0:0:0:
274,262,226136,2,0,B|298:205|349:171,1,120.000002861023,2|0,1:2|0:0,0:0:0:0:
224,36,226821,1,8,1:0:0:0:
306,59,226993,2,0,B|345:109|349:170,1,120.000002861023,0|0,3:0|0:0,0:0:0:0:
254,141,227507,6,0,B|208:141|171:158|200:211|145:201|196:164|174:134|138:108,1,180.000004291534,4|2,3:1|3:0,1:1:0:0:
91,174,228193,1,8,1:0:0:0:
266,280,228536,2,0,B|266:245|256:221,1,60.0000014305115,0|0,0:0|0:0,0:0:0:0:
256,221,228879,69,4,1:1:0:0:
256,192,229050,12,0,232993,0:0:0:0:
