osu file format v14

[General]
AudioFilename: audio.mp3
AudioLeadIn: 0
PreviewTime: 1720
Countdown: 0
SampleSet: Soft
StackLeniency: 0.7
Mode: 0
LetterboxInBreaks: 0
WidescreenStoryboard: 0

[Editor]
DistanceSpacing: 0.8
BeatDivisor: 3
GridSize: 8
TimelineZoom: 1.9

[Metadata]
Title:For a Dead Girl+
TitleUnicode:For a Dead Girl+
Artist:baker
ArtistUnicode:baker
Creator:handsome
Version:Master
Source:
Tags:delis pishifat motoloid presents choremix compilation featured artist dnb dubstep drum bass electronic vocaloid megurine luka yuyoyuppe ゆよゆっぺ 巡音ルカ
BeatmapID:1442763
BeatmapSetID:682287

[Difficulty]
HPDrainRate:6
CircleSize:4
OverallDifficulty:9
ApproachRate:9.4
SliderMultiplier:2.8
SliderTickRate:1

[Events]
//Background and Video events
0,0,"baker.jpg",0,0
//Break Periods
//Storyboard Layer 0 (Background)
//Storyboard Layer 1 (Fail)
//Storyboard Layer 2 (Pass)
//Storyboard Layer 3 (Foreground)
//Storyboard Sound Samples

[TimingPoints]
1725,428.571428571429,4,2,1,30,1,0
15439,-200,4,2,1,40,0,0
15653,-83.3333333333333,4,2,1,40,0,0
18867,-200,4,2,1,40,0,0
19082,-83.3333333333333,4,2,1,40,0,0
22296,-200,4,2,1,40,0,0
22510,-83.3333333333333,4,2,1,40,0,0
25725,-200,4,2,1,40,0,0
25939,-83.3333333333333,4,2,1,40,0,0
29153,-200,4,2,1,50,0,0
29367,-71.4285714285714,4,2,1,50,0,0
30010,-142.857142857143,4,2,1,50,0,0
32582,-200,4,2,1,50,0,0
32796,-71.4285714285714,4,2,1,50,0,0
33439,-142.857142857143,4,2,1,50,0,0
36010,-200,4,2,1,50,0,0
36224,-71.4285714285714,4,2,1,50,0,0
36867,-142.857142857143,4,2,1,50,0,0
39439,-200,4,2,1,50,0,0
39653,-71.4285714285714,4,2,1,50,0,0
40296,-142.857142857143,4,2,1,50,0,0
42867,-200,4,2,1,60,0,0
43082,-71.4285714285714,4,2,1,60,0,0
44582,-200,4,2,1,60,0,0
44796,-71.4285714285714,4,2,1,60,0,0
46296,-200,4,2,1,60,0,0
46510,-71.4285714285714,4,2,1,60,0,0
49725,-200,4,2,1,60,0,0
49939,-71.4285714285714,4,2,1,60,0,0
51439,-200,4,2,1,60,0,0
51653,-71.4285714285714,4,2,1,60,0,0
53153,-200,4,2,1,60,0,0
53367,-71.4285714285714,4,2,1,60,0,0
55832,-71.4285714285714,4,2,1,5,0,0
56153,-71.4285714285714,4,2,1,60,0,0
56582,-62.5,4,2,1,60,0,1
57439,-200,4,2,1,40,0,0
58296,-62.5,4,2,1,60,0,1
59153,-200,4,2,1,40,0,0
60010,-62.5,4,2,1,60,0,1
60867,-200,4,2,1,40,0,0
61725,-62.5,4,2,1,60,0,1
62582,-200,4,2,1,40,0,0
63439,-62.5,4,2,1,60,0,1
64296,-200,4,2,1,40,0,0
65153,-62.5,4,2,1,60,0,1
66010,-200,4,2,1,40,0,0
66867,-62.5,4,2,1,60,0,1
67725,-200,4,2,1,40,0,0
68582,-62.5,4,2,1,60,0,1
69439,-62.5,4,2,1,40,0,0
70296,-62.5,4,2,1,70,0,1
71153,-100,4,2,1,60,0,1
72010,-62.5,4,2,1,70,0,1
72867,-100,4,2,1,60,0,1
73724,-62.5,4,2,1,70,0,1
74581,-100,4,2,1,60,0,1
75439,-62.5,4,2,1,70,0,1
76296,-100,4,2,1,60,0,1
77153,-62.5,4,2,1,70,0,1
78010,-100,4,2,1,60,0,1
78867,-62.5,4,2,1,70,0,1
79724,-100,4,2,1,60,0,1
80581,-62.5,4,2,1,70,0,1
81438,-100,4,2,1,60,0,1
82296,-62.5,4,2,1,70,0,1
82725,-62.5,4,2,1,40,0,0
84010,-200,4,2,1,40,0,0
84867,-142.857142857143,4,2,1,40,0,0
87439,-200,4,2,1,40,0,0
87653,-71.4285714285714,4,2,1,40,0,0
88296,-142.857142857143,4,2,1,40,0,0
90867,-200,4,2,1,40,0,0
91081,-71.4285714285714,4,2,1,40,0,0
91724,-142.857142857143,4,2,1,40,0,0
94296,-200,4,2,1,40,0,0
94510,-71.4285714285714,4,2,1,40,0,0
95153,-142.857142857143,4,2,1,40,0,0
96867,-71.4285714285715,4,2,1,40,0,0
96975,-71.4285714285715,4,2,1,5,0,0
97296,-71.4285714285715,4,2,1,40,0,0
97403,-71.4285714285715,4,2,1,5,0,0
97725,-200,4,2,1,50,0,0
97939,-71.4285714285714,4,2,1,50,0,0
98582,-142.857142857143,4,2,1,50,0,0
101153,-200,4,2,1,50,0,0
101367,-71.4285714285714,4,2,1,50,0,0
102010,-142.857142857143,4,2,1,50,0,0
104582,-200,4,2,1,50,0,0
104796,-71.4285714285714,4,2,1,50,0,0
105439,-142.857142857143,4,2,1,50,0,0
108010,-200,4,2,1,50,0,0
108224,-71.4285714285714,4,2,1,50,0,0
108867,-142.857142857143,4,2,1,50,0,0
110582,-71.4285714285715,4,2,1,50,0,0
111225,-100,4,2,1,50,0,0
111439,-62.5,4,2,1,60,0,1
112296,-200,4,2,1,40,0,0
113153,-62.5,4,2,1,60,0,1
114010,-200,4,2,1,40,0,0
114867,-62.5,4,2,1,60,0,1
115725,-200,4,2,1,40,0,0
116582,-62.5,4,2,1,60,0,1
117439,-200,4,2,1,40,0,0
118296,-62.5,4,2,1,60,0,1
119153,-200,4,2,1,40,0,0
120010,-62.5,4,2,1,60,0,1
120867,-200,4,2,1,40,0,0
121725,-62.5,4,2,1,60,0,1
122582,-200,4,2,1,40,0,0
123439,-62.5,4,2,1,60,0,1
124296,-71.4285714285714,4,2,1,50,0,0
124725,-125,4,2,1,50,0,0
125153,-55.5555555555556,4,2,1,80,0,1
138867,-71.4285714285714,4,2,1,50,0,0
139082,-142.857142857143,4,2,1,50,0,0
139296,-71.4285714285714,4,2,1,50,0,0
139510,-142.857142857143,4,2,1,50,0,0
140153,-71.4285714285714,4,2,1,50,0,0
140796,-142.857142857143,4,2,1,50,0,0
141010,-71.4285714285714,4,2,1,50,0,0
141224,-142.857142857143,4,2,1,50,0,0
141867,-71.4285714285714,4,2,1,50,0,0
142510,-142.857142857143,4,2,1,50,0,0
142724,-71.4285714285714,4,2,1,50,0,0
142938,-142.857142857143,4,2,1,50,0,0
143581,-71.4285714285714,4,2,1,50,0,0
144225,-142.857142857143,4,2,1,50,0,0
144439,-71.4285714285714,4,2,1,50,0,0
144653,-142.857142857143,4,2,1,50,0,0
145296,-71.4285714285714,4,2,1,50,0,0
145939,-142.857142857143,4,2,1,50,0,0
146153,-71.4285714285714,4,2,1,50,0,0
146367,-142.857142857143,4,2,1,50,0,0
147010,-71.4285714285714,4,2,1,50,0,0
147653,-142.857142857143,4,2,1,50,0,0
147867,-71.4285714285714,4,2,1,50,0,0
148081,-142.857142857143,4,2,1,50,0,0
148724,-71.4285714285714,4,2,1,50,0,0
149367,-142.857142857143,4,2,1,50,0,0
149581,-71.4285714285714,4,2,1,50,0,0
149795,-142.857142857143,4,2,1,50,0,0
150438,-71.4285714285714,4,2,1,50,0,0
150867,-142.857142857143,4,2,1,50,0,0
151617,-71.4285714285715,4,2,1,50,0,0
152582,410.958904109589,4,2,1,60,1,0
154225,394.736842105263,4,2,1,60,1,0
155803,384.615384615385,4,2,1,60,1,0
157341,372.670807453416,4,2,1,60,1,0
158831,361.44578313253,4,2,1,60,1,0
160276,350.877192982456,4,2,1,60,1,0
161679,342.857142857143,4,2,1,60,1,0
163050,-200,4,2,1,60,0,0
163907,-100,4,2,1,60,0,0
164421,-71.4285714285714,4,2,1,70,0,0
165107,-200,4,2,1,70,0,0
165450,-71.4285714285714,4,2,1,70,0,0
166479,-200,4,2,1,70,0,0
166821,-71.4285714285714,4,2,1,70,0,0
167850,-200,4,2,1,70,0,0
168193,-71.4285714285714,4,2,1,70,0,0
170593,-200,4,2,1,70,0,0
170936,-71.4285714285714,4,2,1,70,0,0
171964,-200,4,2,1,70,0,0
172307,-71.4285714285714,4,2,1,70,0,0
173336,-200,4,2,1,70,0,0
173679,-71.4285714285714,4,2,1,70,0,0
176079,-200,4,2,1,70,0,0
176421,-71.4285714285714,4,2,1,70,0,0
177450,-200,4,2,1,70,0,0
177793,-71.4285714285714,4,2,1,70,0,0
178821,-200,4,2,1,70,0,0
179164,-71.4285714285714,4,2,1,70,0,0
181564,-200,4,2,1,70,0,0
181907,-71.4285714285714,4,2,1,70,0,0
182936,-200,4,2,1,70,0,0
183279,-71.4285714285714,4,2,1,70,0,0
186364,-62.5,4,2,1,80,0,1
187393,-200,4,2,1,80,0,1
187736,-62.5,4,2,1,80,0,1
188764,-200,4,2,1,80,0,1
189107,-62.5,4,2,1,80,0,1
190136,-200,4,2,1,80,0,1
190479,-62.5,4,2,1,80,0,1
191507,-200,4,2,1,80,0,1
191850,-62.5,4,2,1,80,0,1
192879,-200,4,2,1,80,0,1
193221,-62.5,4,2,1,80,0,1
194250,-200,4,2,1,80,0,1
194593,-62.5,4,2,1,80,0,1
196993,-200,4,2,1,80,0,1
197336,-62.5,4,2,1,80,0,1
198364,-200,4,2,1,80,0,1
198707,-62.5,4,2,1,80,0,1
199736,-200,4,2,1,80,0,1
200079,-62.5,4,2,1,80,0,1
201107,-200,4,2,1,80,0,1
201450,-62.5,4,2,1,80,0,1
202479,-200,4,2,1,80,0,1
202821,-62.5,4,2,1,80,0,1
205221,-200,4,2,1,80,0,1
205564,-62.5,4,2,1,80,0,1
206936,-200,4,2,1,60,0,0
207793,-50,4,2,1,60,0,0
207964,-100,4,2,1,60,0,0
208307,-200,4,2,1,60,0,0
208479,-71.4285714285714,4,2,1,60,0,0
209679,-200,4,2,1,60,0,0
209850,-71.4285714285714,4,2,1,60,0,0
211050,-200,4,2,1,60,0,0
211221,-71.4285714285714,4,2,1,60,0,0
213793,-200,4,2,1,60,0,0
213964,-71.4285714285714,4,2,1,60,0,0
215164,-200,4,2,1,60,0,0
215336,-71.4285714285714,4,2,1,60,0,0
216536,-200,4,2,1,60,0,0
216707,-71.4285714285714,4,2,1,60,0,0
217907,-200,4,2,1,60,0,0
218078,-71.4285714285714,4,2,1,60,0,0
219279,-200,4,2,1,40,0,0
219450,-83.3333333333333,4,2,1,40,0,0
222021,-200,4,2,1,40,0,0
222193,-83.3333333333333,4,2,1,40,0,0
224764,-200,4,2,1,40,0,0
224935,-83.3333333333333,4,2,1,40,0,0
227507,-200,4,2,1,40,0,0
227678,-83.3333333333333,4,2,1,40,0,0
229907,-83.3333333333333,4,2,1,35,0,0
230164,-83.3333333333333,4,2,1,30,0,0
230421,-83.3333333333333,4,2,1,25,0,0
230679,-83.3333333333333,4,2,1,20,0,0
230936,-83.3333333333333,4,2,1,15,0,0
231621,-125,4,2,1,10,0,0
232307,-125,4,2,2,5,0,0

[Colours]
Combo1 : 196,179,162
Combo2 : 130,202,255
Combo3 : 18,124,255
Combo4 : 255,151,153
Combo5 : 247,53,72
Combo6 : 255,222,147
Combo7 : 255,199,66

[HitObjects]
29,333,1725,5,4,1:0:0:0:
39,259,2046,5,2,0:0:0:0:
85,200,2367,85,0,0:0:0:0:
156,175,2582,1,0,1:0:0:0:
229,189,2796,1,0,0:0:0:0:
277,245,3010,1,0,0:0:0:0:
349,264,3225,1,0,0:0:0:0:
277,245,3439,5,2,1:2:0:0:
349,264,3760,85,2,0:0:0:0:
419,237,4082,5,0,0:0:0:0:
460,175,4296,1,0,1:0:0:0:
457,100,4510,1,0,0:0:0:0:
412,41,4725,1,0,0:0:0:0:
342,19,4939,1,0,0:0:0:0:
412,41,5153,85,2,1:2:0:0:
342,19,5475,5,2,0:0:0:0:
271,42,5796,85,0,0:0:0:0:
227,102,6010,1,0,1:0:0:0:
224,176,6225,1,0,0:0:0:0:
247,247,6439,1,0,0:0:0:0:
217,314,6653,1,0,0:0:0:0:
247,247,6867,5,2,1:2:0:0:
217,314,7189,85,2,0:0:0:0:
149,343,7510,5,0,0:0:0:0:
79,319,7725,1,0,1:0:0:0:
44,253,7939,1,0,0:0:0:0:
62,182,8153,1,0,0:0:0:0:
120,138,8367,1,0,0:0:0:0:
62,182,8582,85,2,1:2:0:0:
120,138,8903,5,2,0:0:0:0:
195,139,9225,85,0,0:0:0:0:
262,174,9439,1,0,1:0:0:0:
306,234,9653,1,0,0:0:0:0:
320,306,9867,1,0,0:0:0:0:
384,340,10082,1,0,0:0:0:0:
320,306,10296,5,2,1:2:0:0:
384,340,10617,85,2,0:0:0:0:
452,312,10939,5,0,0:0:0:0:
472,241,11153,1,0,1:0:0:0:
430,181,11367,1,0,0:0:0:0:
357,176,11582,1,0,0:0:0:0:
299,221,11796,1,0,0:0:0:0:
357,176,12010,85,2,1:2:0:0:
299,221,12332,5,2,0:0:0:0:
225,217,12653,85,0,0:0:0:0:
172,165,12867,1,0,1:0:0:0:
162,92,13082,1,0,0:0:0:0:
101,51,13296,1,0,0:0:0:0:
31,70,13510,1,0,0:0:0:0:
101,51,13725,5,2,1:2:0:0:
31,70,14046,85,2,0:0:0:0:
0,136,14367,5,0,0:0:0:0:
26,204,14582,1,8,1:0:0:0:
101,258,14796,1,0,0:0:0:0:
209,245,15010,1,0,0:0:0:0:
279,140,15225,1,0,0:0:0:0:
422,106,15439,38,0,B|402:99|408:73,1,35,4|0,3:1|0:0,0:0:0:0:
416,63,15653,2,0,B|274:32|347:169|145:111,1,251.999992309571,2|0,0:1|0:0,1:1:0:0:
98,120,16082,2,0,B|86:91|104:57|133:55,1,83.9999974365235,2|0,3:0|0:0,1:1:0:0:
279,140,16296,5,8,1:0:0:0:
176,243,16510,1,0,0:0:0:0:
176,243,16617,1,0,0:0:0:0:
176,243,16725,1,0,0:0:0:0:
35,205,16939,1,0,0:0:0:0:
279,140,17153,85,2,1:2:0:0:
176,243,17475,5,2,0:0:0:0:
35,205,17796,85,0,0:0:0:0:
279,140,18010,5,8,1:0:0:0:
176,243,18225,1,0,3:0:0:0:
176,243,18332,1,0,0:0:0:0:
176,243,18439,1,0,0:0:0:0:
35,205,18653,1,0,0:0:0:0:
284,60,18867,86,0,B|291:80|312:74,1,35,0|0,3:0|0:0,0:0:0:0:
325,63,19082,2,0,B|304:14|358:-26|437:-24|449:118|329:155,1,251.999992309571,2|0,0:1|0:0,1:1:0:0:
310,203,19510,2,0,B|280:194|265:159|283:135,1,83.9999974365235,2|0,0:3|0:0,1:1:0:0:
461,139,19725,5,8,1:0:0:0:
484,223,19939,1,0,0:0:0:0:
484,223,20046,1,0,0:0:0:0:
484,223,20153,1,0,0:0:0:0:
507,307,20367,1,0,0:0:0:0:
461,139,20582,85,2,1:2:0:0:
484,223,20903,5,2,0:0:0:0:
507,307,21225,85,0,0:0:0:0:
461,139,21439,5,8,1:0:0:0:
484,223,21653,1,0,3:0:0:0:
484,223,21760,1,0,0:0:0:0:
484,223,21867,1,0,0:0:0:0:
507,307,22082,1,0,0:0:0:0:
369,230,22296,86,0,B|361:210|381:201,1,35,4|0,3:1|0:0,0:0:0:0:
396,204,22510,2,0,B|258:202|193:70,1,251.999992309571,2|0,0:1|0:0,1:1:0:0:
242,0,22939,2,0,B|273:4|292:37|278:63,1,83.9999974365235,2|0,3:0|0:0,1:1:0:0:
24,204,23153,5,8,1:0:0:0:
43,102,23367,1,0,0:0:0:0:
43,102,23475,1,0,0:0:0:0:
43,102,23582,1,0,0:0:0:0:
62,0,23796,1,0,0:0:0:0:
24,204,24010,85,2,1:2:0:0:
43,102,24332,5,2,0:0:0:0:
62,0,24653,85,0,0:0:0:0:
24,204,24867,5,8,1:0:0:0:
43,102,25082,1,0,3:0:0:0:
43,102,25189,1,0,0:0:0:0:
43,102,25296,1,0,0:0:0:0:
62,0,25510,1,0,0:0:0:0:
163,262,25725,86,0,B|168:240|147:234,1,35,0|0,3:0|0:0,0:0:0:0:
132,240,25939,2,0,B|194:113|332:111,1,251.999992309571,2|0,0:1|0:0,1:1:0:0:
389,51,26367,2,0,B|378:21|341:10|319:30,1,83.9999974365235,2|0,0:3|0:0,1:1:0:0:
271,298,26582,21,8,1:0:0:0:
260,224,26796,1,0,0:0:0:0:
260,224,26903,1,0,0:0:0:0:
260,224,27010,1,0,0:0:0:0:
271,298,27225,1,0,0:0:0:0:
42,101,28939,1,0,0:0:0:0:
241,63,29153,6,0,B|221:71|212:51,1,35,4|0,3:1|0:0,0:0:0:0:
221,40,29367,2,0,B|246:118|192:201|78:229|21:169,1,293.999991027832,2|0,0:1|0:0,1:1:0:0:
42,101,29796,2,0,B|57:67|102:58|125:83,1,97.9999970092774,2|0,0:3|0:0,1:1:0:0:
247,151,30010,6,0,B|215:240|284:338,1,195.999994018555,8|0,1:0|0:0,0:0:0:0:
315,114,30653,1,0,0:0:0:0:
387,356,30867,86,0,B|477:277|465:142,1,195.999994018555,2|0,1:2|3:0,0:0:0:0:
424,21,31510,1,0,0:0:0:0:
247,198,31725,5,8,1:0:0:0:
317,164,31939,2,0,B|335:111|301:47,1,97.9999970092774,0|0,3:0|0:0,0:0:0:0:
158,19,32367,1,0,0:0:0:0:
89,339,32582,86,0,B|91:317|113:319,1,35,0|0,3:0|0:0,0:0:0:0:
126,326,32796,2,0,B|17:191|92:42,1,293.999991027832,2|0,0:1|0:0,1:1:0:0:
158,19,33225,2,0,B|194:28|211:69|190:97,1,97.9999970092774,2|0,0:3|0:0,1:1:0:0:
91,157,33439,5,8,1:0:0:0:
140,223,33653,2,0,B|193:241|257:207,1,97.9999970092774
279,284,34082,85,0,0:0:0:0:
318,95,34296,2,0,B|412:84|490:175,2,195.999994018555,2|0|8,1:0|3:0|1:0,0:0:0:0:
382,198,35367,6,0,B|421:227|426:282,1,97.9999970092774,0|0,3:0|0:0,0:0:0:0:
385,351,35796,1,0,0:0:0:0:
65,351,36010,86,0,B|86:348|84:326,1,35,4|0,3:1|0:0,0:0:0:0:
74,318,36225,2,0,B|209:209|358:284,1,293.999991027832,2|0,0:1|0:0,1:1:0:0:
385,351,36653,2,0,B|372:386|328:398|305:377,1,97.9999970092774,2|0,0:3|0:0,1:1:0:0:
278,222,36867,6,0,B|294:106|379:64,1,195.999994018555,8|0,1:0|0:0,0:0:0:0:
368,199,37510,1,0,0:0:0:0:
139,342,37725,86,0,B|54:299|38:180,1,195.999994018555,2|0,1:2|3:0,0:0:0:0:
110,20,38367,1,0,0:0:0:0:
300,102,38582,5,8,1:0:0:0:
233,142,38796,2,0,B|225:190|261:233,1,97.9999970092774,0|0,3:0|0:0,0:0:0:0:
157,356,39225,1,0,0:0:0:0:
492,221,39439,86,0,B|478:237|494:252,1,35,0|0,3:0|0:0,0:0:0:0:
508,262,39653,2,0,B|319:242|428:346|218:317,1,293.999991027832,2|0,0:1|0:0,1:1:0:0:
157,356,40082,2,0,B|121:343|109:299|132:274,1,97.9999970092774,2|0,0:3|0:0,1:1:0:0:
251,215,40296,5,8,1:0:0:0:
171,209,40510,2,0,B|135:175|137:119,1,97.9999970092774
43,59,40939,85,0,0:0:0:0:
331,27,41153,2,0,B|381:106|334:217,2,195.999994018555,2|0|8,1:0|3:0|1:0,0:0:0:0:
251,212,42225,1,0,3:0:0:0:
498,53,42439,5,8,1:0:0:0:
132,45,42760,37,0,3:0:0:0:
132,45,42867,2,0,B|147:60|132:76,1,35,4|0,3:1|0:0,0:0:0:0:
119,79,43082,2,0,B|36:74|-8:137|-31:198|27:260|97:261|102:188,1,293.999991027832,2|0,0:1|0:0,1:1:0:0:
151,163,43510,2,0,B|168:129|212:122|235:148,1,97.9999970092774,2|0,3:0|0:0,1:1:0:0:
415,245,43725,6,0,B|477:240|449:260|511:250,1,97.9999970092774,8|0,0:0|0:0,0:0:0:0:
233,146,43939,2,0,B|246:105|301:100|359:162|336:223|292:286|209:281,1,293.999991027832,2|0,3:1|0:0,1:1:0:0:
182,208,44367,2,0,B|145:215|111:184|118:150,1,97.9999970092774,2|0,0:3|0:0,1:1:0:0:
170,71,44582,85,2,1:2:0:0:
170,71,44796,2,0,B|198:32|254:26,1,97.9999970092774,0|0,3:0|0:0,0:0:0:0:
390,86,45010,1,0,0:0:0:0:
392,55,45117,2,0,B|436:72|455:125,1,97.9999970092774,0|0,3:0|0:0,0:0:0:0:
370,271,45332,5,0,3:0:0:0:
370,271,45439,2,0,B|379:333|359:305|364:367,1,97.9999970092774,8|0,0:0|0:0,0:0:0:0:
456,126,45653,2,0,B|284:126|391:238|177:235,1,293.999991027832,2|0,0:1|0:0,1:1:0:0:
0,242,46082,85,2,0:3:0:0:
0,242,46189,1,2,0:3:0:0:
83,223,46296,2,0,B|98:238|83:254,1,35,0|0,3:0|0:0,0:0:0:0:
74,265,46510,2,0,B|245:197|209:-6,1,293.999991027832,2|0,0:1|0:0,1:1:0:0:
131,22,46939,2,0,B|102:37|100:82|129:106,1,97.9999970092774,0|0,3:0|0:0,1:1:0:0:
399,87,47153,6,0,B|461:77|433:97|495:92,1,97.9999970092774,8|0,0:0|0:0,0:0:0:0:
128,105,47367,2,0,B|311:112|343:316,1,293.999991027832,2|0,0:1|0:0,0:0:0:0:
146,293,47796,2,0,B|200:301|234:343,1,97.9999970092774,2|0,0:3|0:0,0:0:0:0:
46,369,48010,85,2,1:2:0:0:
5,309,48117,1,0,0:0:0:0:
14,238,48225,1,0,0:0:0:0:
69,191,48332,1,0,0:0:0:0:
141,192,48439,1,0,3:0:0:0:
297,103,48653,5,0,0:0:0:0:
297,103,48760,1,0,0:0:0:0:
297,103,48867,2,0,B|287:40|307:68|302:6,1,97.9999970092774,8|0,0:0|0:0,0:0:0:0:
141,192,49082,2,0,B|272:62|443:178,1,293.999991027832,2|0,3:1|0:0,0:0:0:0:
501,246,49510,85,2,0:3:0:0:
501,246,49617,1,2,0:3:0:0:
417,235,49725,2,0,B|402:251|417:266,1,35,0|0,3:0|0:0,0:0:0:0:
428,276,49939,2,0,B|391:346|285:366|224:298|231:210|311:202|345:263,1,293.999991027832,2|0,0:1|0:0,1:1:0:0:
364,175,50367,2,0,B|365:137|331:108|298:120,1,97.9999970092774,0|0,3:0|0:0,1:1:0:0:
98,196,50582,6,0,B|35:205|63:185|1:190,1,97.9999970092774,8|0,0:0|0:0,0:0:0:0:
300,119,50796,2,0,B|326:145|387:145|394:57|333:-10|227:9|190:79,1,293.999991027832,2|0,3:1|0:0,1:1:0:0:
124,115,51225,2,0,B|90:99|81:54|106:31,1,97.9999970092774,2|0,0:3|0:0,1:1:0:0:
185,187,51439,85,2,1:2:0:0:
185,187,51653,2,0,B|221:219|277:211,1,97.9999970092774,0|0,3:0|0:0,0:0:0:0:
366,303,51867,1,0,0:0:0:0:
346,331,51975,2,0,B|392:315|413:263,1,97.9999970092774,0|0,3:0|0:0,0:0:0:0:
337,127,52189,5,0,3:0:0:0:
337,127,52296,2,0,B|327:64|347:92|342:30,1,97.9999970092774,8|0,0:0|0:0,0:0:0:0:
413,264,52510,2,0,B|251:221|172:388,1,293.999991027832,2|0,0:1|0:0,1:1:0:0:
192,231,52939,5,2,0:3:0:0:
192,231,53046,1,2,0:3:0:0:
114,215,53153,2,0,B|67:188|54:129,1,105,2|2,1:2|0:2,0:0:0:0:
124,226,55725,54,0,B|129:288|109:260|119:323,1,97.9999970092774,8|0,0:0|0:0,0:0:0:0:
64,177,56153,1,0,0:0:0:0:
317,165,56582,86,0,B|374:155|437:184,1,112,6|0,3:1|0:0,1:1:0:0:
486,122,56796,1,0,0:0:0:0:
264,99,56903,2,0,B|126:93|208:194|20:173,1,224,2|0,0:1|0:0,1:1:0:0:
0,112,57225,2,0,B|15:72|63:59|93:90,1,112,2|0,3:1|0:0,1:1:0:0:
186,227,57439,54,0,B|187:307|264:374,1,140,8|0,0:0|0:0,0:0:0:0:
502,242,58296,54,0,B|406:317|291:294,1,224,6|0,3:1|0:0,1:1:0:0:
280,182,58617,1,2,0:1:0:0:
241,352,58725,2,0,B|251:295|222:232,1,112,0|0,3:0|0:0,1:1:0:0:
129,184,58939,2,0,B|100:211|113:259|153:274,1,112,2|0,0:1|0:0,1:1:0:0:
268,102,59153,38,0,B|313:156|393:157,1,140,8|0,0:0|0:0,0:0:0:0:
472,72,59796,37,2,0:3:0:0:
472,72,59903,1,2,0:3:0:0:
512,140,60010,2,0,B|487:192|497:249,1,112,6|0,3:1|0:0,1:1:0:0:
402,305,60225,1,0,0:0:0:0:
391,157,60332,2,0,B|287:93|176:130,1,224,2|0,0:1|0:0,1:1:0:0:
117,69,60653,2,0,B|132:29|180:16|207:44,1,112,2|0,3:1|0:0,1:1:0:0:
136,209,60867,54,0,B|57:208|12:153,1,140,8|0,0:0|0:0,0:0:0:0:
177,132,61725,54,0,B|178:105|226:83|279:108|299:176|223:255,1,224,6|0,3:1|0:0,1:1:0:0:
156,290,62046,1,2,0:1:0:0:
12,153,62153,2,0,B|67:137|105:93,1,112,0|0,3:0|0:0,1:1:0:0:
136,16,62367,2,0,B|103:-12|55:-1|44:37,1,112,2|0,0:1|0:0,1:1:0:0:
122,192,62582,38,0,B|122:264|172:306,2,105,8|0|0,0:0|3:0|3:0,0:0:0:0:
262,173,63439,37,6,3:1:0:0:
336,137,63546,1,0,0:0:0:0:
418,150,63653,1,0,0:0:0:0:
478,206,63760,2,0,B|365:172|316:61,1,224,2|0,0:1|0:0,1:1:0:0:
413,58,64082,2,0,B|454:48|492:80|483:119,1,112,2|0,3:1|0:0,1:1:0:0:
353,243,64296,54,0,B|283:252|240:318,1,140,8|0,0:0|0:0,0:0:0:0:
263,195,65153,54,0,B|399:175|328:284|513:244,1,224,6|0,3:1|0:0,1:1:0:0:
455,341,65475,1,2,0:1:0:0:
240,317,65582,2,0,B|184:332|146:376,1,112,0|0,3:0|0:0,1:1:0:0:
132,174,65796,2,0,B|122:215|154:253|193:244,1,112,2|0,0:1|0:0,1:1:0:0:
339,186,66010,38,0,B|381:129|364:53,1,140,8|0,0:0|0:0,0:0:0:0:
246,0,66653,37,2,0:3:0:0:
246,0,66760,1,2,0:3:0:0:
205,68,66867,2,0,B|296:142|301:263,1,224,6|0,3:1|0:0,0:0:0:0:
213,273,67189,1,0,0:0:0:0:
329,376,67296,2,0,B|373:338|388:282,1,112,2|0,0:1|0:0,0:0:0:0:
197,187,67510,2,0,B|156:177|118:209|127:248,1,112,2|0,3:1|0:0,0:0:0:0:
388,185,67725,53,8,0:0:0:0:
253,298,68582,54,0,B|207:265|197:178|231:130|287:120|342:179,1,224,6|0,3:1|0:0,1:1:0:0:
279,62,68903,1,2,0:1:0:0:
421,208,69010,2,0,B|363:204|313:235,1,112,0|0,3:0|0:0,1:1:0:0:
263,381,69225,2,0,B|304:391|342:359|333:320,1,112,2|0,0:1|0:0,1:1:0:0:
113,216,69439,86,0,B|38:209|72:234|-2:222,1,112,8|0,0:0|0:0,0:0:0:0:
332,319,69653,2,0,B|335:201|430:124,1,224,0|0,3:0|0:0,0:0:0:0:
452,35,69975,5,0,3:0:0:0:
373,58,70082,1,8,0:0:0:0:
452,41,70189,85,0,3:0:0:0:
371,50,70296,2,0,B|312:47|266:11,1,112,6|0,3:1|0:0,1:1:0:0:
189,40,70510,1,0,0:0:0:0:
329,139,70617,2,0,B|211:142|134:237,1,224,2|0,0:1|0:0,1:1:0:0:
221,262,70939,2,0,B|230:301|192:333|151:323,1,112,2|0,3:1|0:0,1:1:0:0:
66,186,71153,70,0,B|91:120|55:51,1,140,8|0,0:0|0:0,0:0:0:0:
159,23,71475,1,2,0:0:0:0:
145,49,71582,2,0,B|174:27|211:37,1,70,0|0,1:0|0:0,0:0:0:0:
405,171,71796,38,0,B|429:179|453:170,2,35,2|0|0,0:3|0:0|0:0,0:0:0:0:
334,219,72010,2,0,B|296:260|216:242|202:129|283:79,1,224,6|0,3:1|0:0,1:1:0:0:
295,24,72332,1,2,0:1:0:0:
475,102,72439,2,0,B|478:161|514:207,1,112,0|0,3:0|0:0,1:1:0:0:
335,136,72653,2,0,B|324:97|361:64|402:72,1,112,2|0,0:1|0:0,1:1:0:0:
449,254,72867,69,8,0:0:0:0:
353,383,73082,1,0,3:0:0:0:
353,383,73189,1,2,0:0:0:0:
353,383,73296,2,0,B|363:346|341:317,1,70,0|0,1:0|0:0,0:0:0:0:
276,265,73510,5,2,0:3:0:0:
276,265,73617,1,2,0:3:0:0:
345,235,73725,2,0,B|348:176|384:130,1,112,6|0,3:1|0:0,1:1:0:0:
469,127,73939,1,0,0:0:0:0:
371,0,74046,2,0,B|253:3|176:98,1,224,2|0,0:1|0:0,1:1:0:0:
200,183,74367,2,0,B|241:191|278:158|267:119,1,112,2|0,3:1|0:0,1:1:0:0:
22,65,74582,70,0,B|89:87|119:158,1,140,8|0,0:0|0:0,0:0:0:0:
13,216,74903,1,2,0:0:0:0:
39,202,75010,2,0,B|17:231|27:268,1,70,0|0,1:0|0:0,0:0:0:0:
219,360,75225,38,0,B|227:336|218:312,2,35,2|0|0,0:3|0:0|0:0,0:0:0:0:
88,325,75439,2,0,B|224:345|153:236|338:276,1,224,6|0,3:1|0:0,1:1:0:0:
275,187,75760,1,2,0:1:0:0:
483,336,75867,2,0,B|480:277|444:231,1,112,0|0,3:0|0:0,1:1:0:0:
312,350,76082,2,0,B|353:358|390:325|379:286,1,112,2|0,0:1|0:0,1:1:0:0:
270,110,76296,70,0,B|300:181|367:203,1,140,8|0,0:0|0:0,0:0:0:0:
421,132,76617,2,0,B|469:130|497:196|445:231,1,140,0|0,3:0|0:0,0:0:0:0:
382,64,76939,5,2,0:3:0:0:
382,64,77046,1,2,0:3:0:0:
303,36,77153,2,0,B|258:70|199:73,1,112,6|0,3:1|0:0,1:1:0:0:
124,25,77367,1,0,0:0:0:0:
122,196,77475,2,0,B|63:162|105:89|207:86|266:171,1,224,2|0,0:1|0:0,1:1:0:0:
322,118,77796,2,0,B|358:134|360:184|327:210,1,112,2|0,3:1|0:0,1:1:0:0:
56,256,78010,70,0,B|125:220|191:245,1,140,8|0,0:0|0:0,0:0:0:0:
255,316,78332,1,2,0:0:0:0:
281,330,78439,2,0,B|259:301|269:264,1,70,0|0,1:0|0:0,0:0:0:0:
199,73,78653,38,0,B|207:49|198:25,2,35,2|0|0,0:3|0:0|0:0,0:0:0:0:
50,88,78867,2,0,B|168:86|248:179,1,224,6|2,3:1|0:1,1:1:0:0:
130,189,79189,1,0,0:0:0:0:
280,251,79296,2,0,B|283:192|317:147,1,112,2|0,3:1|0:0,1:1:0:0:
200,334,79510,2,0,B|163:317|161:267|194:241,1,112,2|0,0:1|0:0,1:1:0:0:
386,209,79725,69,8,0:0:0:0:
410,20,79939,1,0,3:0:0:0:
410,20,80046,1,2,0:0:0:0:
410,20,80153,2,0,B|373:10|344:32,1,70,0|0,1:0|0:0,0:0:0:0:
281,82,80367,5,2,0:3:0:0:
281,82,80475,1,2,0:3:0:0:
184,69,80582,2,0,B|218:113|221:172,1,112,6|0,3:1|0:0,1:1:0:0:
130,173,80796,1,0,0:0:0:0:
259,259,80903,2,0,B|123:279|194:170|9:210,1,224,2|0,0:1|0:0,1:1:0:0:
1,265,81225,2,0,B|6:305|53:321|87:297,1,112,2|0,3:1|0:0,1:1:0:0:
305,185,81439,69,8,0:0:0:0:
227,348,81653,2,0,B|271:283|341:274,1,140,2|0,0:1|1:0,0:0:0:0:
499,333,82082,85,2,0:1:0:0:
493,152,82296,2,0,B|417:223|395:300|431:426|458:474|490:338|467:259|378:183,1,448,2|0,1:2|0:0,0:0:0:0:
177,156,84010,2,0,B|211:131|250:138|209:197|112:158,1,140,4|0,1:0|0:0,0:0:0:0:
75,111,84653,1,0,3:0:0:0:
181,338,84867,22,0,B|81:299|47:153,1,195.999994018555,8|0,1:0|0:0,0:0:0:0:
259,331,85510,1,0,0:0:0:0:
280,97,85725,86,0,B|349:177|311:322,1,195.999994018555,2|0,1:2|3:0,0:0:0:0:
181,338,86367,1,0,0:0:0:0:
108,35,86582,5,8,1:0:0:0:
41,78,86796,2,0,B|30:132|73:191,1,97.9999970092774,0|0,3:0|0:0,0:0:0:0:
210,135,87225,1,0,0:0:0:0:
20,299,87439,86,0,B|23:278|45:280,1,35,0|0,3:0|0:0,0:0:0:0:
59,290,87653,2,0,B|8:323|-45:269|-37:206|76:146|150:196,1,293.999991027832,2|0,0:1|0:0,1:1:0:0:
210,135,88082,2,0,B|245:148|257:192|236:215,1,97.9999970092774,2|0,0:3|0:0,1:1:0:0:
230,384,88296,5,8,1:0:0:0:
154,364,88510,2,0,B|143:310|186:251,1,97.9999970092774,0|0,0:0|0:0,0:0:0:0:
87,154,88939,85,0,0:0:0:0:
337,136,89153,2,0,B|406:216|368:361,2,195.999994018555,2|0|8,1:0|3:0|1:0,0:0:0:0:
430,74,90225,6,0,B|398:28|326:18,1,97.9999970092774,0|0,3:0|0:0,0:0:0:0:
244,71,90653,1,0,0:0:0:0:
512,249,90867,86,0,B|491:246|493:224,1,35,4|0,3:1|0:0,0:0:0:0:
499,212,91082,2,0,B|301:239|410:135|221:155,1,293.999991027832,2|0,0:1|0:0,1:1:0:0:
244,71,91510,2,0,B|221:50|177:62|164:97,1,97.9999970092774,2|0,0:3|0:0,1:1:0:0:
171,334,91725,6,0,B|270:299|310:154,1,195.999994018555,8|0,1:0|0:0,0:0:0:0:
259,384,92367,1,0,0:0:0:0:
101,213,92582,86,0,B|161:126|108:-14,1,195.999994018555,2|0,1:2|3:0,0:0:0:0:
298,17,93225,1,0,0:0:0:0:
177,240,93439,5,8,1:0:0:0:
242,192,93653,2,0,B|274:238|346:248,1,97.9999970092774,0|0,3:0|0:0,0:0:0:0:
442,289,94082,1,0,0:0:0:0:
410,63,94296,86,0,B|413:84|435:82,1,35,0|0,3:0|0:0,0:0:0:0:
453,77,94510,2,0,B|320:188|365:349,1,293.999991027832,2|0,0:1|0:0,1:1:0:0:
442,289,94939,2,0,B|471:297|485:341|462:370,1,97.9999970092774,2|0,0:3|0:0,1:1:0:0:
221,384,95153,5,8,1:0:0:0:
282,333,95367,2,0,B|250:287|178:277,1,97.9999970092774,0|0,0:0|0:0,0:0:0:0:
140,356,95796,69,0,0:0:0:0:
365,248,96010,1,2,1:0:0:0:
365,248,96867,86,0,B|380:188|355:212|375:152,1,97.9999970092774,8|0,1:0|0:0,0:0:0:0:
140,356,97296,2,0,B|125:295|149:320|129:259,1,97.9999970092774,8|0,1:0|0:0,0:0:0:0:
466,262,97725,86,0,B|469:283|491:281,1,35,4|0,3:1|0:0,0:0:0:0:
499,272,97939,2,0,B|301:245|410:349|221:329,1,293.999991027832,2|0,0:1|0:0,1:1:0:0:
140,356,98367,2,0,B|111:348|97:304|120:275,1,97.9999970092774,2|0,3:0|0:0,1:1:0:0:
204,114,98582,6,0,B|177:115|157:138,1,48.9999985046387,8|0,1:0|0:0,0:0:0:0:
123,197,98796,1,0,0:0:0:0:
50,210,98903,1,0,0:0:0:0:
0,155,99010,2,0,B|1:128|24:108,1,48.9999985046387,0|0,0:0|0:0,0:0:0:0:
33,38,99225,2,0,B|56:24|85:33,1,48.9999985046387,0|0,0:0|0:0,0:0:0:0:
153,21,99439,86,0,B|176:68|230:92,1,97.9999970092774,2|0,1:2|0:0,0:0:0:0:
293,71,99760,1,2,0:0:0:0:
347,120,99867,2,0,B|385:85|444:83,1,97.9999970092774,0|0,0:0|0:0,0:0:0:0:
497,124,100189,1,0,0:0:0:0:
449,180,100296,6,0,B|450:207|473:227,1,48.9999985046387,8|0,1:0|0:0,0:0:0:0:
499,290,100510,1,0,3:0:0:0:
476,359,100617,1,0,0:0:0:0:
405,380,100725,2,0,B|378:379|358:356,1,48.9999985046387,0|0,0:0|0:0,0:0:0:0:
307,310,100939,2,0,B|280:311|260:334,1,48.9999985046387,0|0,0:0|0:0,0:0:0:0:
132,331,101153,86,0,B|129:310|107:312,1,35,0|0,3:0|0:0,0:0:0:0:
99,317,101367,2,0,B|124:381|1:397|-33:320|-5:205|90:195,1,293.999991027832,2|0,0:1|0:0,1:1:0:0:
147,234,101796,2,0,B|155:263|199:277|228:254,1,97.9999970092774,2|0,0:3|0:0,1:1:0:0:
401,165,102010,6,0,B|400:138|377:118,1,48.9999985046387,8|0,1:0|0:0,0:0:0:0:
308,111,102225,1,0,0:0:0:0:
320,38,102332,1,0,0:0:0:0:
256,2,102439,2,0,B|229:3|209:26,1,48.9999985046387,0|0,0:0|0:0,0:0:0:0:
140,10,102653,2,0,B|121:29|123:60,1,48.9999985046387,0|0,0:0|0:0,0:0:0:0:
72,107,102867,86,0,B|112:139|123:197,1,97.9999970092774,2|0,1:2|0:0,0:0:0:0:
71,243,103189,1,2,0:0:0:0:
20,296,103296,2,0,B|52:336|110:347,1,97.9999970092774,0|0,3:0|0:0,0:0:0:0:
166,381,103617,1,0,0:0:0:0:
216,326,103725,6,0,B|243:325|263:302,1,48.9999985046387,8|0,1:0|0:0,0:0:0:0:
261,232,103939,1,0,3:0:0:0:
319,188,104046,1,0,0:0:0:0:
389,210,104153,2,0,B|408:226|409:253,1,48.9999985046387,0|0,0:0|0:0,0:0:0:0:
367,313,104367,2,0,B|364:337|381:358,1,48.9999985046387,0|0,0:0|0:0,0:0:0:0:
477,102,104582,86,0,B|456:105|458:127,1,35,4|0,3:1|0:0,0:0:0:0:
467,139,104796,2,0,B|327:241|181:158,1,293.999991027832,2|0,0:1|0:0,1:1:0:0:
270,107,105225,2,0,B|264:77|221:59|191:80,1,97.9999970092774,2|0,3:0|0:0,1:1:0:0:
14,338,105439,6,0,B|11:314|28:293,1,48.9999985046387,8|0,1:0|0:0,0:0:0:0:
101,283,105653,1,0,0:0:0:0:
151,230,105760,1,0,0:0:0:0:
116,165,105867,2,0,B|119:141|102:120,1,48.9999985046387,0|0,0:0|0:0,0:0:0:0:
39,79,106082,2,0,B|36:55|53:34,1,48.9999985046387,0|0,0:0|0:0,0:0:0:0:
126,33,106296,86,0,B|176:38|225:5,1,97.9999970092774,2|0,1:2|0:0,0:0:0:0:
290,26,106617,1,2,0:0:0:0:
300,99,106725,2,0,B|350:93|399:126,1,97.9999970092774,0|0,3:0|0:0,0:0:0:0:
358,187,107046,1,0,0:0:0:0:
413,235,107153,6,0,B|416:259|399:280,1,48.9999985046387,8|0,1:0|0:0,0:0:0:0:
330,306,107367,1,0,3:0:0:0:
278,254,107475,1,0,0:0:0:0:
205,266,107582,2,0,B|184:278|177:304,1,48.9999985046387,0|0,0:0|0:0,0:0:0:0:
105,322,107796,2,0,B|98:345|112:368,1,48.9999985046387,0|0,0:0|0:0,0:0:0:0:
113,97,108010,86,0,B|134:94|132:72,1,35,0|0,3:0|0:0,0:0:0:0:
122,65,108225,2,0,B|111:39|132:4|225:-26|255:38|267:158|210:220,1,293.999991027832,2|0,0:1|0:0,1:1:0:0:
141,252,108653,2,0,B|116:234|119:188|151:169,1,97.9999970092774,2|0,0:3|0:0,1:1:0:0:
427,216,108867,5,8,1:0:0:0:
368,154,109296,2,0,B|362:103|395:54,1,97.9999970092774,0|0,0:0|0:0,0:0:0:0:
368,276,109725,86,0,B|317:270|268:303,1,97.9999970092774,6|0,1:2|0:0,0:0:0:0:
224,353,110046,1,2,0:0:0:0:
155,325,110153,2,0,B|125:283|130:224,1,97.9999970092774,0|0,0:0|0:0,0:0:0:0:
175,173,110475,1,0,0:0:0:0:
96,55,110582,86,0,B|36:40|60:65|0:45,1,97.9999970092774,8|0,0:0|0:0,0:0:0:0:
259,156,110796,2,0,B|319:141|295:166|355:146,1,97.9999970092774,8|0,0:0|0:0,0:0:0:0:
109,328,111010,2,0,B|49:313|73:338|13:318,1,97.9999970092774,8|0,0:0|0:0,0:0:0:0:
60,189,111225,86,0,B|52:165|61:141,2,35,2|0|0,0:3|0:0|0:0,0:0:0:0:
189,282,111439,2,0,B|199:225|170:162,1,112,6|0,3:1|0:0,1:1:0:0:
124,103,111653,1,0,0:0:0:0:
301,110,111760,2,0,B|183:116|99:29,1,224,2|0,0:1|0:0,1:1:0:0:
19,180,112082,2,0,B|-10:153|3:105|43:90,1,112,2|0,3:1|0:0,1:1:0:0:
276,233,112296,54,0,B|321:179|401:178,1,140,8|0,0:0|0:0,0:0:0:0:
303,102,113153,54,0,B|441:96|359:197|547:176,1,224,6|0,3:1|0:0,1:1:0:0:
442,256,113475,1,2,0:1:0:0:
276,233,113582,2,0,B|218:241|167:288,1,112,0|0,3:0|0:0,1:1:0:0:
386,319,113796,2,0,B|415:292|402:244|362:229,1,112,2|0,0:1|0:0,1:1:0:0:
187,174,114010,38,0,B|178:104|232:45,1,140,8|0,0:0|0:0,0:0:0:0:
7,22,114653,37,2,0:3:0:0:
7,22,114760,1,2,0:3:0:0:
85,20,114867,2,0,B|33:45|0:105,1,112,6|0,3:1|0:0,1:1:0:0:
42,204,115082,1,0,0:0:0:0:
187,174,115189,2,0,B|215:211|292:164|265:97|182:49|130:89,1,224,2|0,0:1|0:0,1:1:0:0:
104,150,115510,2,0,B|75:177|88:225|128:240,1,112,2|0,3:1|0:0,1:1:0:0:
337,137,115725,54,0,B|406:128|465:182,1,140,8|0,0:0|0:0,0:0:0:0:
308,279,116582,54,0,B|230:190|247:70,1,224,6|0,3:1|0:0,1:1:0:0:
157,153,116903,1,2,0:1:0:0:
337,137,117010,2,0,B|388:162|422:222,1,112,0|0,3:0|0:0,1:1:0:0:
298,363,117225,2,0,B|263:381|221:353|220:311,1,112,2|0,0:1|0:0,1:1:0:0:
395,296,117439,38,0,B|467:296|509:246,2,105,8|0|0,0:0|3:0|3:0,0:0:0:0:
105,358,118296,37,6,3:1:0:0:
143,284,118403,1,0,0:0:0:0:
142,201,118510,1,0,0:0:0:0:
101,128,118617,2,0,B|131:53|261:39|274:93|273:171|191:154,1,224,2|0,0:1|0:0,1:1:0:0:
254,228,118939,2,0,B|221:250|177:226|171:184,1,112,2|0,3:1|0:0,1:1:0:0:
333,88,119153,54,0,B|402:96|461:42,1,140,8|0,0:0|0:0,0:0:0:0:
302,263,120010,54,0,B|276:211|216:177,1,112,6|0,3:1|0:0,1:1:0:0:
138,188,120225,1,0,0:0:0:0:
262,42,120332,1,2,0:1:0:0:
88,87,120439,2,0,B|139:114|207:106,1,112,0|0,3:0|0:0,1:1:0:0:
334,95,120653,2,0,B|360:124|342:171|300:181,1,112,2|0,0:1|0:0,1:1:0:0:
222,335,120867,38,0,B|152:325|109:258,1,140,8|0,0:0|0:0,0:0:0:0:
194,33,121510,37,2,0:3:0:0:
194,33,121617,1,2,0:3:0:0:
121,80,121725,2,0,B|121:137|160:194,1,112,6|0,3:1|0:0,0:0:0:0:
239,179,121939,1,0,0:0:0:0:
222,335,122046,2,0,B|84:341|166:240|-22:261,1,224,0|0,0:0|0:0,0:0:0:0:
11,337,122367,2,0,B|9:376|52:401|91:383,1,112,2|0,3:1|0:0,0:0:0:0:
195,251,122582,53,8,0:0:0:0:
479,132,123439,54,0,B|390:54|270:71,1,224,6|0,3:1|0:0,1:1:0:0:
195,119,123760,1,2,0:1:0:0:
338,157,123867,2,0,B|200:151|282:252|94:231,1,224,2|0,3:1|0:0,1:1:0:0:
63,183,124189,85,0,3:0:0:0:
289,280,124296,2,0,B|352:289|324:269|386:274,1,97.9999970092774,8|0,0:0|0:0,0:0:0:0:
81,358,124510,2,0,B|51:320|61:265,1,97.9999970092774,0|0,3:0|0:0,0:0:0:0:
176,43,124725,5,8,0:0:0:0:
176,31,124832,1,8,0:0:0:0:
170,37,124939,1,8,0:0:0:0:
180,37,125046,1,8,0:0:0:0:
53,146,125153,86,0,B|111:112|181:128,1,125.999996154785,6|0,3:1|0:0,1:1:0:0:
259,48,125367,1,0,1:0:0:0:
214,193,125475,1,2,0:1:0:0:
318,109,125582,2,0,B|284:167|300:237,1,125.999996154785,8|0,0:0|0:0,1:1:0:0:
153,306,125796,2,0,B|103:304|91:229|134:208,1,125.999996154785,2|0,1:0|0:0,1:1:0:0:
457,347,126010,6,0,B|363:240|229:274,1,251.999992309571,2|0,3:2|1:0,1:1:0:0:
262,361,126332,1,2,0:0:0:0:
387,175,126439,2,0,B|470:186|433:160|519:175,1,125.999996154785,8|0,0:0|0:0,1:1:0:0:
191,100,126653,86,0,B|160:82|113:95,2,62.9999980773926,2|0|0,1:3|0:0|0:0,1:0:0:0:
274,5,126867,2,0,B|308:63|292:133,1,125.999996154785,2|0,3:1|0:0,1:1:0:0:
463,258,127082,1,0,1:0:0:0:
503,73,127189,1,2,0:1:0:0:
349,190,127296,2,0,B|415:196|472:152,1,125.999996154785,8|0,0:0|0:0,0:0:0:0:
442,15,127510,2,0,B|393:2|360:70|395:103,1,125.999996154785,2|0,1:0|0:0,1:1:0:0:
376,276,127725,6,0,B|345:324|268:343|207:315|189:199|270:164|343:222,1,251.999992309571,2|0,3:2|1:0,1:1:0:0:
259,115,128046,1,2,0:0:0:0:
124,192,128153,2,0,B|40:180|77:206|-8:192,1,125.999996154785,8|0,0:0|0:0,1:1:0:0:
216,356,128367,85,2,1:3:0:0:
216,356,128475,1,2,0:3:0:0:
260,282,128582,2,0,B|249:215|193:171,1,125.999996154785,2|0,3:1|0:0,1:1:0:0:
157,43,128796,1,0,1:0:0:0:
302,129,128903,1,2,0:1:0:0:
97,103,129010,2,0,B|159:77|226:102,1,125.999996154785,8|0,0:0|0:0,1:1:0:0:
386,105,129225,2,0,B|406:59|343:15|306:44,1,125.999996154785,2|0,1:0|0:0,1:1:0:0:
93,283,129439,6,0,B|227:288|147:190|330:210,1,251.999992309571,2|0,3:2|1:0,1:1:0:0:
398,257,129760,1,2,0:0:0:0:
205,124,129867,2,0,B|193:40|219:77|205:-8,1,125.999996154785,8|0,0:0|0:0,1:1:0:0:
16,323,130082,86,0,B|-2:292|11:245,2,62.9999980773926,2|0|0,1:3|0:0|0:0,1:0:0:0:
188,384,130296,2,0,B|222:326|206:256,1,125.999996154785,2|0,3:1|0:0,1:1:0:0:
111,117,130510,1,0,1:0:0:0:
125,292,130617,1,2,0:1:0:0:
14,181,130725,2,0,B|72:215|142:199,1,125.999996154785,8|0,0:0|0:0,0:0:0:0:
292,244,130939,2,0,B|315:199|257:150|217:176,1,125.999996154785,2|0,1:0|0:0,1:1:0:0:
0,91,131153,6,0,B|94:-16|228:18,1,251.999992309571,2|0,3:2|1:0,1:1:0:0:
195,98,131475,1,2,0:0:0:0:
384,205,131582,2,0,B|467:216|430:190|516:205,1,125.999996154785,8|0,0:0|0:0,1:1:0:0:
228,343,131796,85,2,1:3:0:0:
228,343,131903,1,2,0:3:0:0:
173,273,132010,2,0,B|115:239|45:255,1,125.999996154785,2|0,3:1|0:0,1:1:0:0:
0,155,132225,1,0,1:0:0:0:
127,103,132332,1,2,0:1:0:0:
18,181,132439,2,0,B|15:113|62:59,1,125.999996154785,8|0,0:0|0:0,1:1:0:0:
160,25,132653,2,0,B|209:15|240:84|204:115,1,125.999996154785,2|0,1:0|0:0,1:1:0:0:
132,283,132867,6,0,B|171:146|307:120,1,251.999992309571,2|0,3:2|1:0,1:1:0:0:
284,217,133189,1,2,0:0:0:0:
493,184,133296,2,0,B|410:195|447:169|361:184,1,125.999996154785,8|0,0:0|0:0,1:1:0:0:
365,61,133510,86,0,B|347:30|360:-17,2,62.9999980773926,2|0|0,1:3|0:0|0:0,1:0:0:0:
510,44,133725,2,0,B|450:75|426:143,1,125.999996154785,2|0,3:1|0:0,1:1:0:0:
384,290,133939,1,2,1:0:0:0:
347,141,134046,1,0,0:0:0:0:
350,269,134153,2,0,B|416:269|469:220,1,125.999996154785,8|0,0:0|0:0,0:0:0:0:
281,81,134367,2,0,B|231:90|228:165|273:180,1,125.999996154785,2|0,1:0|0:0,1:1:0:0:
321,359,134582,6,0,B|374:315|362:268|272:211|212:262|183:339,1,251.999992309571,2|0,3:2|1:0,1:1:0:0:
242,384,134903,1,2,0:0:0:0:
4,365,135010,2,0,B|87:376|50:350|136:365,1,125.999996154785,8|0,0:0|0:0,1:1:0:0:
151,202,135225,85,2,1:3:0:0:
151,202,135332,1,2,0:3:0:0:
121,283,135439,2,0,B|121:216|72:163,1,125.999996154785,2|0,3:1|0:0,1:1:0:0:
70,31,135653,1,0,1:0:0:0:
198,46,135760,1,2,0:1:0:0:
35,48,135867,2,0,B|100:58|145:114,1,125.999996154785,8|0,0:0|0:0,1:1:0:0:
315,127,136082,2,0,B|355:97|324:28|277:34,1,125.999996154785,2|0,1:0|0:0,1:1:0:0:
0,175,136296,6,0,B|117:93|238:159,1,251.999992309571,2|2,3:2|1:0,1:1:0:0:
181,233,136617,1,2,0:0:0:0:
268,364,136725,2,0,B|257:281|283:318|268:232,1,125.999996154785,8|0,0:0|0:0,1:1:0:0:
359,275,136939,86,0,B|390:293|437:280,2,62.9999980773926,2|0|0,1:3|0:0|0:0,0:0:0:0:
489,228,137153,2,0,B|489:162|441:109,1,125.999996154785,2|0,3:1|0:0,1:1:0:0:
328,111,137367,1,0,1:0:0:0:
434,19,137475,1,0,0:0:0:0:
358,81,137582,2,0,B|293:91|232:52,1,125.999996154785,8|0,0:0|0:0,0:0:0:0:
56,135,137796,2,0,B|16:165|47:234|94:228,1,125.999996154785,0|0,1:0|0:0,1:1:0:0:
389,197,138010,5,2,3:1:0:0:
142,157,138225,1,0,3:0:0:0:
169,123,138332,2,0,B|158:187|197:248,1,125.999996154785,8|2,0:0|0:1,0:0:0:0:
185,341,138546,69,0,3:0:0:0:
265,301,138653,1,8,0:0:0:0:
181,329,138760,85,0,3:0:0:0:
268,312,138867,2,4,B|277:255|333:230,1,97.9999970092774,4|4,3:1|0:0,0:0:0:0:
407,218,139082,6,0,B|444:221|469:253,1,48.9999985046387,2|0,1:0|0:0,1:1:0:0:
258,168,139296,86,0,B|304:134|361:155,1,97.9999970092774,8|0,0:0|0:0,0:0:0:0:
437,141,139510,5,0,1:0:0:0:
437,141,139617,2,0,B|434:104|402:79,1,48.9999985046387,2|0,0:1|3:0,1:1:0:0:
476,37,139832,1,0,0:0:0:0:
476,37,139939,2,0,B|424:77|343:56,1,97.9999970092774,2|8,1:0|0:0,1:1:0:0:
163,211,140367,86,0,B|126:208|101:176,2,48.9999985046387,2|0|0,1:3|0:0|0:0,1:1:0:0:
226,150,140582,2,0,B|217:93|161:68,1,97.9999970092774,0|0,3:1|0:0,0:0:0:0:
84,65,140796,6,0,B|62:34|70:-4,1,48.9999985046387,2|0,1:0|0:0,1:1:0:0:
67,242,141010,86,0,B|100:195|79:138,1,97.9999970092774,8|0,0:0|0:0,0:0:0:0:
303,190,141225,5,0,1:0:0:0:
303,190,141332,2,0,B|300:227|268:251,1,48.9999985046387,2|0,0:1|3:0,1:1:0:0:
178,237,141546,1,0,0:0:0:0:
178,237,141653,2,0,B|230:277|311:256,1,97.9999970092774,2|8,1:0|0:0,1:1:0:0:
420,330,142082,86,0,B|423:367|455:391,2,48.9999985046387,2|0|0,1:3|0:0|0:0,1:1:0:0:
512,235,142296,2,0,B|465:268|408:247,1,97.9999970092774,0|0,3:1|0:0,0:0:0:0:
354,189,142510,6,0,B|316:192|292:224,1,48.9999985046387,2|0,1:0|0:0,1:1:0:0:
474,155,142725,86,0,B|417:145|392:90,1,97.9999970092774,8|0,0:0|0:0,0:0:0:0:
239,122,142939,5,0,1:0:0:0:
239,122,143046,2,0,B|267:97|307:102,1,48.9999985046387,2|0,0:1|3:0,1:1:0:0:
286,16,143260,1,0,0:0:0:0:
286,16,143367,2,0,B|326:68|305:149,1,97.9999970092774,2|8,1:0|0:0,1:1:0:0:
133,91,143796,86,0,B|104:66|64:71,2,48.9999985046387,2|0|0,1:3|0:0|0:0,1:1:0:0:
166,173,144010,2,0,B|117:204|117:265,1,97.9999970092774,0|0,3:1|0:0,0:0:0:0:
94,334,144225,6,0,B|97:371|129:395,1,48.9999985046387,2|0,1:0|0:0,1:1:0:0:
0,196,144439,86,0,B|-12:252|31:295,1,97.9999970092774,8|0,0:0|0:0,0:0:0:0:
286,270,144653,5,0,1:0:0:0:
286,270,144760,2,0,B|257:245|217:250,1,48.9999985046387,2|0,0:1|3:0,1:1:0:0:
235,343,144975,1,0,0:0:0:0:
235,343,145082,2,0,B|195:291|216:210,1,97.9999970092774,2|8,1:0|0:0,1:1:0:0:
512,304,145510,85,2,1:3:0:0:
512,304,145617,1,2,0:3:0:0:
440,353,145725,2,0,B|383:365|340:321,1,97.9999970092774,0|0,3:1|0:0,0:0:0:0:
368,248,145939,6,0,B|343:219|348:179,1,48.9999985046387,2|0,1:0|0:0,1:1:0:0:
278,147,146153,86,0,B|221:134|178:178,1,97.9999970092774,8|0,0:0|0:0,0:0:0:0:
206,252,146367,5,0,1:0:0:0:
206,252,146475,2,0,B|181:280|186:320,1,48.9999985046387,2|0,0:1|3:0,1:1:0:0:
116,353,146689,1,0,0:0:0:0:
116,353,146796,2,0,B|59:365|16:321,1,97.9999970092774,2|8,1:0|0:0,1:1:0:0:
92,163,147225,86,0,B|116:191|111:231,2,48.9999985046387,2|0|0,1:3|0:0|0:0,1:1:0:0:
68,61,147439,2,0,B|106:18|167:27,1,97.9999970092774,0|0,3:1|0:0,0:0:0:0:
277,92,147653,6,0,B|248:67|208:72,1,48.9999985046387,2|0,1:0|0:0,1:1:0:0:
64,168,147867,86,0,B|102:125|163:134,1,97.9999970092774,8|0,0:0|0:0,0:0:0:0:
273,199,148082,5,0,1:0:0:0:
273,199,148189,2,0,B|244:174|204:179,1,48.9999985046387,2|0,0:1|3:0,1:1:0:0:
60,275,148403,1,0,0:0:0:0:
60,275,148510,2,0,B|98:232|159:241,1,97.9999970092774,2|8,1:0|0:0,1:1:0:0:
369,341,148939,86,0,B|340:365|300:360,2,48.9999985046387,2|0|0,1:3|0:0|0:0,1:1:0:0:
485,367,149153,2,0,B|442:328|451:267,1,97.9999970092774,0|0,3:1|0:0,0:0:0:0:
509,210,149367,6,0,B|480:185|440:190,1,48.9999985046387,2|0,1:0|0:0,1:1:0:0:
379,227,149582,86,0,B|336:188|345:127,1,97.9999970092774,8|0,0:0|0:0,0:0:0:0:
403,70,149796,5,0,1:0:0:0:
403,70,149903,2,0,B|374:45|334:50,1,48.9999985046387,2|0,0:1|3:0,1:1:0:0:
273,87,150117,1,0,0:0:0:0:
273,87,150225,2,0,B|230:48|239:-12,1,97.9999970092774,2|8,1:0|0:0,1:1:0:0:
117,219,150653,86,0,B|88:243|48:238,2,48.9999985046387,2|0|0,1:3|0:0|0:0,1:1:0:0:
260,196,150867,2,0,B|221:153|160:162,1,97.9999970092774,2|0,1:2|1:0,0:0:0:0:
95,133,151189,1,2,0:0:0:0:
156,84,151296,5,8,0:0:0:0:
337,153,151510,1,0,1:0:0:0:
337,153,151617,2,0,B|365:128|405:133,2,48.9999985046387,2|0|0,0:3|0:0|0:0,1:1:0:0:
321,259,151832,54,0,B|346:316|320:294|341:353,1,97.9999970092774,8|0,0:0|0:0,0:0:0:0:
158,190,152046,1,8,0:0:0:0:
158,190,152153,2,0,B|132:247|158:225|137:284,1,97.9999970092774,8|0,0:0|0:0,0:0:0:0:
241,25,152367,2,0,B|266:82|240:60|261:119,1,97.9999970092774,8|0,0:0|0:0,0:0:0:0:
0,194,152582,86,0,B|84:178|137:86,1,140,4|0,3:1|1:0,0:0:0:0:
170,180,152890,1,0,0:0:0:0:
171,52,152992,2,0,B|231:46|283:111,1,70,8|0,0:0|0:0,0:0:0:0:
373,180,153198,1,0,1:0:0:0:
373,180,153301,1,0,0:0:0:0:
364,95,153403,6,0,B|280:111|227:203,1,140,0|0,3:0|1:0,0:0:0:0:
219,249,153712,1,0,0:0:0:0:
318,292,153814,2,0,B|358:284|343:301|387:292,1,70,8|0,0:0|0:0,0:0:0:0:
150,354,154020,2,0,B|156:294|91:242,1,70,0|0,1:0|0:0,0:0:0:0:
0,194,154225,86,0,B|84:178|137:86,1,140,0|0,3:1|1:0,0:0:0:0:
170,180,154521,1,0,0:0:0:0:
171,52,154619,2,0,B|231:46|283:111,1,70,8|0,0:0|0:0,0:0:0:0:
373,180,154817,1,0,1:0:0:0:
373,180,154915,1,0,0:0:0:0:
364,95,155014,6,0,B|280:111|227:203,1,140,0|0,3:0|1:0,0:0:0:0:
219,249,155310,1,0,0:0:0:0:
318,292,155409,2,0,B|358:284|343:301|387:292,1,70,8|0,0:0|0:0,0:0:0:0:
150,354,155606,2,0,B|156:294|91:242,1,70,0|0,1:0|0:0,0:0:0:0:
0,194,155803,86,0,B|84:178|137:86,1,140,0|0,3:1|1:0,0:0:0:0:
170,180,156091,1,0,0:0:0:0:
171,52,156187,2,0,B|231:46|283:111,1,70,8|0,0:0|0:0,0:0:0:0:
373,180,156379,1,0,1:0:0:0:
373,180,156476,1,0,0:0:0:0:
364,95,156572,6,0,B|280:111|227:203,1,140,0|0,3:0|1:0,0:0:0:0:
219,249,156860,1,0,0:0:0:0:
318,292,156956,2,0,B|358:284|343:301|387:292,1,70,8|0,0:0|0:0,0:0:0:0:
150,354,157149,2,0,B|156:294|91:242,1,70,0|0,1:0|0:0,0:0:0:0:
0,194,157341,86,0,B|84:178|137:86,1,140,0|0,3:0|1:0,0:0:0:0:
170,180,157620,1,0,0:0:0:0:
171,52,157713,2,0,B|231:46|283:111,1,70,8|0,0:0|0:0,0:0:0:0:
341,147,157900,1,2,1:3:0:0:
253,156,157993,1,2,0:3:0:0:
332,171,158086,6,0,B|338:111|273:59,1,70,0|0,3:0|0:0,0:0:0:0:
425,295,158272,2,0,B|431:355|366:407,1,70,0|0,3:0|0:0,0:0:0:0:
281,234,158459,2,0,B|238:277|157:260,1,70,8|0,3:2|0:0,0:0:0:0:
147,312,158645,2,0,B|104:268|23:285,1,70,0|0,3:0|0:0,0:0:0:0:
10,250,158831,85,0,3:0:0:0:
10,167,159011,1,0,3:0:0:0:
63,104,159192,1,8,3:2:0:0:
144,89,159373,1,0,3:0:0:0:
216,129,159553,1,0,3:0:0:0:
234,208,159734,1,0,3:0:0:0:
300,258,159915,1,8,3:2:0:0:
382,254,160096,1,0,3:0:0:0:
443,199,160276,5,0,3:0:0:0:
415,276,160451,1,0,3:0:0:0:
336,165,160626,85,8,3:2:0:0:
304,294,160802,1,0,3:0:0:0:
229,131,160977,5,0,3:0:0:0:
193,313,161153,1,0,3:0:0:0:
122,97,161328,85,8,3:2:0:0:
82,332,161504,1,0,3:0:0:0:
380,361,161679,5,8,3:2:0:0:
387,349,161764,1,0,3:0:0:0:
385,335,161850,2,0,B|325:344|270:281,1,70,0|0,3:0|3:0,3:3:0:0:
447,295,162021,85,8,3:2:0:0:
447,263,162107,1,0,3:0:0:0:
429,237,162193,2,0,B|378:270|302:237,1,70,0|0,3:0|3:0,3:3:0:0:
459,164,162364,5,8,3:2:0:0:
420,134,162450,1,0,3:0:0:0:
371,132,162536,2,0,B|347:187|265:201,1,70,0|0,3:0|3:0,3:3:0:0:
342,61,162707,85,8,3:2:0:0:
271,47,162793,1,0,3:0:0:0:
226,105,162879,2,0,B|259:155|226:231,1,70,0|0,3:0|3:0,3:3:0:0:
202,250,163050,6,0,B|152:202|69:196,1,140,0|8,3:0|0:0,0:0:0:0:
202,250,163907,38,0,B|152:202|69:196,1,140,0|8,3:0|0:0,0:0:0:0:
386,282,164421,86,0,B|367:178|413:80,1,195.999994018555,4|0,3:1|1:0,0:0:0:0:
489,134,164679,1,0,0:0:0:0:
511,155,164764,2,0,B|535:133|527:89|494:72,1,97.9999970092774,8|0,0:0|0:0,0:0:0:0:
428,15,164936,2,0,B|397:52|341:53,1,97.9999970092774,0|0,1:0|0:0,0:0:0:0:
205,14,165107,86,0,B|186:46|198:100,1,70,2|0,1:0|3:0,1:1:0:0:
177,95,165450,22,0,B|296:89|234:173|370:151,1,195.999994018555,8|2,0:0|1:3,0:0:0:0:
438,161,165707,1,2,0:3:0:0:
453,177,165793,85,0,3:0:0:0:
434,247,165879,1,0,0:0:0:0:
380,295,165964,1,0,1:0:0:0:
309,305,166050,1,0,0:0:0:0:
243,274,166136,2,0,B|280:305|281:361,1,97.9999970092774,8|0,0:0|0:0,0:0:0:0:
271,160,166307,2,0,B|319:155|359:194,1,97.9999970092774,0|0,1:0|0:0,0:0:0:0:
184,198,166479,86,0,B|146:196|105:233,1,70,2|0,1:0|3:0,1:1:0:0:
127,243,166821,22,0,B|125:286|34:315|-1:204|84:140,1,195.999994018555,8|2,0:0|1:3,0:0:0:0:
95,43,167079,1,2,0:3:0:0:
18,83,167164,86,0,B|123:85|213:24,1,195.999994018555,0|0,3:1|1:0,0:0:0:0:
228,120,167421,1,0,0:0:0:0:
258,99,167507,2,0,B|234:121|242:165|275:182,1,97.9999970092774,8|0,0:0|0:0,0:0:0:0:
426,168,167679,2,0,B|395:131|339:130,1,97.9999970092774,0|0,1:0|0:0,0:0:0:0:
258,264,167850,86,0,B|277:296|265:350,1,70,2|0,1:0|3:0,1:1:0:0:
256,303,168193,22,0,B|300:339|364:344|405:317|405:269|369:245,1,195.999994018555,8|2,0:0|1:3,0:0:0:0:
409,177,168450,1,2,0:3:0:0:
466,239,168536,86,0,B|347:245|409:161|273:183,1,195.999994018555,0|0,3:0|1:0,0:0:0:0:
13,297,168879,2,0,B|132:303|70:219|206:241,1,195.999994018555,8|0,0:0|1:0,0:0:0:0:
268,289,169136,1,0,0:0:0:0:
304,297,169221,6,0,B|267:266|266:210,1,97.9999970092774,0|0,3:0|0:0,0:0:0:0:
108,206,169393,2,0,B|103:157|142:117,1,97.9999970092774,0|0,3:0|0:0,0:0:0:0:
397,114,169564,2,0,B|407:59|393:4|341:-15|280:-7|317:47,1,195.999994018555,8|2,0:0|1:3,0:0:0:0:
337,173,169821,1,2,0:3:0:0:
279,112,169907,86,0,B|174:114|84:53,1,195.999994018555,0|0,3:1|1:0,0:0:0:0:
7,10,170164,1,0,0:0:0:0:
14,41,170250,2,0,B|-10:63|-2:107|31:124,1,97.9999970092774,8|0,0:0|0:0,0:0:0:0:
193,138,170421,2,0,B|144:134|105:174,1,97.9999970092774,0|0,1:0|0:0,0:0:0:0:
63,358,170593,86,0,B|82:326|70:272,1,70,2|0,1:0|3:0,1:1:0:0:
59,310,170936,22,0,B|13:300|22:248|78:208|153:261|156:326,1,195.999994018555,8|2,0:0|1:3,0:0:0:0:
207,229,171193,1,2,0:3:0:0:
141,181,171279,86,0,B|260:175|198:259|334:237,1,195.999994018555,0|0,3:0|1:0,0:0:0:0:
375,175,171536,1,0,0:0:0:0:
379,143,171621,2,0,B|357:119|313:127|296:160,1,97.9999970092774,8|0,0:0|0:0,0:0:0:0:
376,346,171793,2,0,B|372:297|412:258,1,97.9999970092774,0|0,1:0|0:0,0:0:0:0:
438,78,171964,86,0,B|466:101|473:156,1,70,2|0,1:0|3:0,1:1:0:0:
486,117,172307,22,0,B|381:119|291:58,1,195.999994018555,8|2,0:0|1:3,0:0:0:0:
175,80,172564,1,2,0:3:0:0:
231,21,172650,86,0,B|266:16|322:96|295:147|241:166|204:132,1,195.999994018555,0|0,3:1|1:0,0:0:0:0:
142,166,172907,1,0,0:0:0:0:
125,193,172993,2,0,B|131:224|173:240|204:221,1,97.9999970092774,8|0,0:0|0:0,0:0:0:0:
344,238,173164,2,0,B|348:189|308:150,1,97.9999970092774,0|0,1:0|0:0,0:0:0:0:
151,82,173336,86,0,B|114:78|71:112,1,70,2|0,1:0|3:0,1:1:0:0:
123,114,173679,22,0,B|242:120|180:36|316:58,1,195.999994018555,8|2,0:0|1:3,0:0:0:0:
380,20,173936,1,2,0:3:0:0:
402,97,174021,86,0,B|382:52|425:18|461:18|529:76|486:206,1,195.999994018555,0|0,3:0|1:0,0:0:0:0:
302,316,174364,2,0,B|282:361|325:395|361:395|429:337|386:207,1,195.999994018555,8|0,0:0|1:0,0:0:0:0:
386,180,174621,1,0,0:0:0:0:
415,199,174707,6,0,B|366:195|327:235,1,97.9999970092774,0|0,3:0|0:0,0:0:0:0:
316,108,174879,2,0,B|267:112|228:72,1,97.9999970092774,0|0,3:0|0:0,0:0:0:0:
177,361,175050,2,0,B|240:277|243:168,1,195.999994018555,8|2,0:0|1:3,0:0:0:0:
134,100,175307,1,2,0:3:0:0:
125,202,175393,86,0,B|208:138|317:135,1,195.999994018555,4|0,3:1|1:0,0:0:0:0:
353,210,175650,1,0,0:0:0:0:
367,236,175736,2,0,B|398:230|414:188|395:157,1,97.9999970092774,8|0,0:0|0:0,0:0:0:0:
458,43,175907,2,0,B|409:39|370:79,1,97.9999970092774,0|0,1:0|0:0,0:0:0:0:
226,65,176079,86,0,B|193:46|178:-6,1,70,2|0,1:0|3:0,1:1:0:0:
223,32,176421,22,0,B|104:26|166:110|30:88,1,195.999994018555,8|2,0:0|1:3,0:0:0:0:
1,158,176679,1,2,0:3:0:0:
83,178,176764,86,0,B|33:177|-29:258|11:333|91:291,1,195.999994018555,0|0,3:0|1:0,0:0:0:0:
187,313,177021,1,0,0:0:0:0:
212,283,177107,2,0,B|186:301|144:284|135:249,1,97.9999970092774,8|0,0:0|0:0,0:0:0:0:
148,87,177279,2,0,B|144:136|184:175,1,97.9999970092774,0|0,1:0|0:0,0:0:0:0:
306,313,177450,86,0,B|273:331|258:384,1,70,2|0,1:0|3:0,1:1:0:0:
290,354,177793,22,0,B|287:249|348:159,1,195.999994018555,8|2,0:0|1:3,0:0:0:0:
258,150,178050,1,2,0:3:0:0:
352,84,178136,86,0,B|233:78|295:162|159:140,1,195.999994018555,0|0,3:1|1:0,0:0:0:0:
122,69,178393,1,0,0:0:0:0:
125,37,178479,2,0,B|147:15|192:25|206:58,1,97.9999970092774,8|0,0:0|0:0,0:0:0:0:
187,233,178650,2,0,B|138:229|99:269,1,97.9999970092774,0|0,1:0|0:0,0:0:0:0:
39,117,178821,86,0,B|72:135|87:188,1,70,2|0,1:0|3:0,1:1:0:0:
47,163,179164,22,0,B|0:154|-15:77|125:47|147:117,1,195.999994018555,8|2,0:0|1:3,0:0:0:0:
192,34,179421,1,2,0:3:0:0:
220,113,179507,86,0,B|325:116|415:55,1,195.999994018555,0|0,3:0|1:0,0:0:0:0:
272,345,179850,2,0,B|167:348|77:287,1,195.999994018555,8|0,0:0|1:0,0:0:0:0:
62,195,180107,1,0,0:0:0:0:
38,218,180193,6,0,B|87:222|126:182,1,97.9999970092774,0|0,3:0|0:0,0:0:0:0:
348,130,180364,2,0,B|299:134|260:94,1,97.9999970092774,0|0,3:0|0:0,0:0:0:0:
29,100,180536,2,0,B|148:94|86:178|222:156,1,195.999994018555,8|2,0:0|1:3,0:0:0:0:
313,34,180793,1,2,0:3:0:0:
194,39,180879,86,0,B|252:126|248:235,1,195.999994018555,0|0,3:1|1:0,0:0:0:0:
333,263,181136,1,0,0:0:0:0:
307,295,181221,2,0,B|329:273|374:283|388:316,1,97.9999970092774,8|0,0:0|0:0,0:0:0:0:
425,142,181393,2,0,B|376:138|337:178,1,97.9999970092774,0|0,1:0|0:0,0:0:0:0:
230,377,181564,86,0,B|240:340|213:292,1,70,2|0,1:0|3:0,1:1:0:0:
208,338,181907,22,0,B|168:360|120:348|104:293|121:234|176:208,1,195.999994018555,8|2,0:0|1:3,0:0:0:0:
207,163,182164,1,2,0:3:0:0:
251,226,182250,86,0,B|164:168|55:172,1,195.999994018555,0|0,3:0|1:0,0:0:0:0:
25,248,182507,1,0,0:0:0:0:
20,276,182593,2,0,B|42:298|87:288|101:255,1,97.9999970092774,8|0,0:0|0:0,0:0:0:0:
0,111,182764,2,0,B|-4:62|36:23,1,97.9999970092774,0|0,1:0|0:0,0:0:0:0:
210,115,182936,86,0,B|239:91|293:97,1,70,2|0,1:0|3:0,1:1:0:0:
234,81,183279,22,0,B|353:75|291:159|427:137,1,195.999994018555,8|2,0:0|1:3,0:0:0:0:
380,226,183536,1,2,0:3:0:0:
407,223,183621,85,0,3:0:0:0:
434,311,183793,1,0,3:0:0:0:
147,362,183964,5,8,3:2:0:0:
179,170,184136,1,0,3:0:0:0:
347,289,184307,85,0,3:0:0:0:
215,320,184479,1,0,3:0:0:0:
140,95,184650,5,8,3:2:0:0:
363,139,184821,1,0,3:0:0:0:
111,279,184993,85,0,3:0:0:0:
111,279,185079,1,0,3:0:0:0:
111,279,185164,1,0,3:0:0:0:
111,279,185250,1,0,3:0:0:0:
111,279,185336,1,8,3:2:0:0:
111,279,185421,1,0,3:0:0:0:
111,279,185507,1,0,3:0:0:0:
111,279,185593,1,0,3:0:0:0:
111,279,185679,5,0,3:0:0:0:
150,217,185764,1,0,3:0:0:0:
211,177,185850,1,0,3:0:0:0:
283,167,185936,1,0,3:0:0:0:
353,188,186021,1,8,3:2:0:0:
94,32,186364,6,0,B|169:108|189:237,1,224,6|0,3:1|1:0,1:1:0:0:
271,294,186621,1,2,0:1:0:0:
156,309,186707,2,0,B|197:266|302:255,1,112,8|0,0:0|0:0,1:1:0:0:
331,133,186879,2,0,B|372:176|477:187,1,112,2|0,1:0|0:0,1:1:0:0:
342,343,187050,2,0,B|380:321|379:266|337:243,1,112,2|0,1:0|0:0,1:1:0:0:
107,227,187221,5,0,3:0:0:0:
107,227,187393,2,0,B|122:192|102:142,1,70,8|2,0:0|1:3,0:0:0:0:
94,143,187650,1,2,0:3:0:0:
13,127,187736,86,0,B|148:155|102:47|258:69,1,224,2|0,3:1|1:0,1:1:0:0:
318,136,187993,1,2,0:1:0:0:
296,0,188079,2,0,B|253:41|242:146,1,112,8|0,0:0|0:0,1:1:0:0:
239,267,188250,2,0,B|196:226|185:121,1,112,2|0,1:0|0:0,1:1:0:0:
392,84,188421,2,0,B|430:106|429:161|387:184,1,112,2|0,1:0|0:0,1:1:0:0:
330,278,188593,5,0,3:0:0:0:
330,278,188764,2,0,B|359:254|413:260,1,70,8|2,0:0|1:3,0:0:0:0:
414,268,189021,1,2,0:3:0:0:
486,217,189107,86,0,B|491:247|465:284|404:296|351:202|387:119,1,224,2|0,3:1|1:0,1:1:0:0:
310,78,189364,1,2,0:1:0:0:
407,68,189450,2,0,B|366:111|261:122,1,112,8|0,0:0|0:0,1:1:0:0:
303,247,189621,2,0,B|243:248|161:181,1,112,2|0,1:0|0:0,1:1:0:0:
134,145,189793,2,0,B|150:104|205:97|233:136,1,112,2|0,1:0|0:0,1:1:0:0:
185,310,189964,5,0,3:0:0:0:
185,310,190136,2,0,B|148:299|101:325,1,70,8|2,0:0|1:3,0:0:0:0:
103,333,190393,1,2,0:3:0:0:
33,384,190479,86,0,B|96:298|98:167,1,224,2|0,3:1|1:0,1:1:0:0:
119,90,190736,1,2,0:1:0:0:
59,197,190821,2,0,B|60:137|-6:55,1,112,8|0,0:0|0:0,1:1:0:0:
214,50,190993,2,0,B|215:109|148:191,1,112,2|0,1:0|0:0,1:1:0:0:
55,19,191164,2,0,B|71:-21|126:-28|154:10,1,112,2|0,3:1|0:0,1:1:0:0:
230,221,191336,2,0,B|214:261|159:268|131:230,1,112,0|0,3:0|0:0,1:1:0:0:
344,42,191507,6,0,B|333:79|359:126,1,70,8|2,0:0|1:3,0:0:0:0:
367,124,191764,1,2,0:3:0:0:
499,114,191850,86,0,B|364:86|410:194|254:172,1,224,6|0,3:1|1:0,1:1:0:0:
271,261,192107,1,2,0:1:0:0:
197,163,192193,2,0,B|196:222|263:304,1,112,8|0,0:0|0:0,1:1:0:0:
382,253,192364,2,0,B|339:294|328:399,1,112,2|0,1:0|0:0,1:1:0:0:
193,346,192536,2,0,B|149:348|120:301|143:260,1,112,2|0,1:0|0:0,1:1:0:0:
212,82,192707,5,0,3:0:0:0:
212,82,192879,2,0,B|175:71|128:97,1,70,8|2,0:0|1:3,0:0:0:0:
130,105,193136,1,2,0:3:0:0:
46,105,193221,86,0,B|151:117|249:205,1,224,2|0,3:1|1:0,1:1:0:0:
339,269,193479,1,2,0:1:0:0:
314,137,193564,2,0,B|271:178|260:283,1,112,8|0,0:0|0:0,1:1:0:0:
465,321,193736,2,0,B|422:279|411:174,1,112,2|0,1:0|0:0,1:1:0:0:
350,61,193907,2,0,B|393:58|422:105|399:146,1,112,2|0,1:0|0:0,1:1:0:0:
185,284,194079,5,0,3:0:0:0:
185,284,194250,2,0,B|156:257|154:204,1,70,8|2,0:0|1:3,0:0:0:0:
162,201,194507,1,2,0:3:0:0:
75,214,194593,86,0,B|107:154|186:130|277:184|228:251,1,224,2|0,3:1|1:0,1:1:0:0:
250,332,194850,1,2,0:1:0:0:
161,354,194936,2,0,B|202:311|307:300,1,112,8|0,0:0|0:0,1:1:0:0:
461,260,195107,6,0,B|418:301|407:406,1,112,2|0,1:0|0:0,1:1:0:0:
357,237,195279,2,0,B|326:287|343:392,1,112,0|0,1:0|0:0,1:1:0:0:
170,83,195450,86,0,B|212:124|223:229,1,112,2|0,3:1|0:0,1:1:0:0:
274,60,195621,2,0,B|304:110|287:215,1,112,8|0,0:0|0:0,1:1:0:0:
93,373,195793,6,0,B|135:331|146:226,1,112,2|0,1:0|0:0,1:1:0:0:
18,188,195964,2,0,B|101:253|232:260,1,224,2|2,3:1|1:0,1:1:0:0:
318,194,196221,1,0,0:0:0:0:
186,170,196307,86,0,B|321:198|275:90|431:112,1,224,8|2,0:0|1:0,1:1:0:0:
482,51,196564,1,0,0:0:0:0:
421,194,196650,2,0,B|437:137|393:40,1,112,2|0,3:1|0:0,1:1:0:0:
247,128,196821,2,0,B|230:71|274:-25,1,112,0|0,3:0|0:0,1:1:0:0:
318,194,196993,6,0,B|329:231|303:278,1,70,8|2,0:0|1:3,0:0:0:0:
295,276,197250,1,2,0:3:0:0:
348,372,197336,86,0,B|385:372|373:292|303:268|222:307|211:356,1,224,6|0,3:1|1:0,1:1:0:0:
100,281,197593,1,2,0:1:0:0:
122,384,197679,2,0,B|106:327|150:230,1,112,8|0,0:0|0:0,1:1:0:0:
20,117,197850,2,0,B|4:174|48:271,1,112,2|0,1:0|0:0,1:1:0:0:
203,223,198021,2,0,B|196:180|143:162|109:194,1,112,2|0,1:0|0:0,1:1:0:0:
95,77,198193,5,0,3:0:0:0:
95,77,198364,2,0,B|133:78|172:40,1,70,8|2,0:0|1:3,0:0:0:0:
168,33,198621,1,2,0:3:0:0:
89,0,198707,86,0,B|194:-1|303:71,1,224,2|0,3:1|1:0,1:1:0:0:
402,152,198964,1,2,0:1:0:0:
372,37,199050,2,0,B|328:77|318:183,1,112,8|0,0:0|0:0,1:1:0:0:
172,136,199221,2,0,B|170:195|237:276,1,112,2|0,1:0|0:0,1:1:0:0:
385,238,199393,2,0,B|355:269|302:253|291:207,1,112,2|0,1:0|0:0,1:1:0:0:
231,379,199564,5,0,3:0:0:0:
231,379,199736,2,0,B|259:353|260:299,1,70,8|2,0:0|1:3,0:0:0:0:
251,297,199993,1,2,0:3:0:0:
170,261,200079,86,0,B|305:233|259:341|415:319,1,224,2|0,3:1|1:0,1:1:0:0:
471,292,200336,1,2,0:1:0:0:
356,356,200421,2,0,B|415:349|503:408,1,112,8|0,0:0|0:0,1:1:0:0:
474,206,200593,2,0,B|414:199|326:258,1,112,2|0,1:0|0:0,1:1:0:0:
240,176,200764,2,0,B|250:134|304:121|336:155,1,112,2|0,1:0|0:0,1:1:0:0:
483,35,200936,5,0,3:0:0:0:
483,35,201107,2,0,B|457:7|402:6,1,70,8|2,0:0|1:3,0:0:0:0:
400,14,201364,1,2,0:3:0:0:
328,54,201450,86,0,B|362:16|447:36|483:43|480:102|460:147|425:122,1,224,2|0,3:1|1:0,1:1:0:0:
299,174,201707,1,2,0:1:0:0:
414,167,201793,2,0,B|354:174|266:115,1,112,8|0,0:0|0:0,1:1:0:0:
238,20,201964,2,0,B|189:55|83:47,1,112,2|0,1:0|0:0,1:1:0:0:
227,213,202136,2,0,B|186:199|177:144|214:115,1,112,2|0,3:1|0:0,1:1:0:0:
474,230,202307,2,0,B|493:268|460:313|413:307,1,112,0|0,3:0|0:0,1:1:0:0:
257,299,202479,6,0,B|283:271|337:270,1,70,8|2,0:0|1:3,0:0:0:0:
340,278,202736,1,2,0:3:0:0:
402,384,202821,86,0,B|343:296|344:165,1,224,6|0,3:1|1:0,1:1:0:0:
260,45,203079,1,2,0:1:0:0:
268,191,203164,2,0,B|315:153|335:49,1,112,8|0,0:0|0:0,1:1:0:0:
190,13,203336,6,0,B|325:-15|279:93|435:71,1,224,2|0,1:0|1:0,1:1:0:0:
453,135,203593,1,0,0:0:0:0:
374,216,203679,2,0,B|239:188|285:296|129:274,1,224,2|8,3:1|0:0,1:1:0:0:
48,243,203936,1,0,0:0:0:0:
101,336,204021,2,0,B|60:322|51:267|88:238,1,112,2|0,1:0|0:0,1:1:0:0:
283,206,204193,86,0,B|306:179|290:135|256:101|171:113|148:208,1,224,2|2,3:1|1:0,1:1:0:0:
219,346,204450,1,0,0:0:0:0:
214,250,204536,2,0,B|177:298|185:404,1,112,8|0,0:0|0:0,1:1:0:0:
364,382,204707,2,0,B|327:333|335:227,1,112,2|0,1:0|0:0,1:1:0:0:
375,154,204879,2,0,B|417:160|435:212|404:247,1,112,0|0,1:0|0:0,1:1:0:0:
218,105,205050,5,0,3:0:0:0:
218,105,205221,2,0,B|192:77|137:76,1,70,8|2,0:0|1:3,0:0:0:0:
135,84,205479,1,2,0:3:0:0:
52,74,205564,86,0,B|156:80|269:14,1,224,2|0,3:1|1:0,1:1:0:0:
354,142,205821,1,2,0:1:0:0:
356,49,205907,2,0,B|319:96|324:202,1,112,8|0,0:0|0:0,1:1:0:0:
201,206,206079,6,0,B|153:169|47:174,1,112,2|0,1:0|0:0,1:1:0:0:
170,281,206250,2,0,B|114:257|13:290,1,112,0|0,1:0|0:0,1:1:0:0:
367,275,206421,86,0,B|414:238|520:243,1,112,2|0,3:1|0:0,1:1:0:0:
398,350,206593,2,0,B|453:326|554:359,1,112,8|0,0:0|0:0,1:1:0:0:
282,377,206764,6,0,B|290:317|232:228,1,112,2|0,1:0|0:0,1:1:0:0:
327,134,206936,2,0,B|277:182|194:188,1,140,0|8,3:0|0:0,0:0:0:0:
327,134,207793,22,0,B|277:182|194:188,1,140,0|0,3:0|0:0,0:0:0:0:
114,193,207964,1,8,0:0:0:0:
120,189,208050,1,8,0:0:0:0:
114,186,208136,1,8,0:0:0:0:
289,201,208307,86,0,B|274:217|289:232,1,35,4|0,3:1|0:0,0:0:0:0:
303,233,208479,2,0,B|235:404|32:368,1,293.999991027832,2|0,0:1|0:0,1:1:0:0:
0,322,208821,2,0,B|-12:285|14:249|48:251,1,97.9999970092774,2|0,3:0|0:0,1:1:0:0:
149,287,208993,6,0,B|211:277|183:297|245:292,1,97.9999970092774,8|0,0:0|0:0,0:0:0:0:
46,251,209164,2,0,B|211:171|161:-28,1,293.999991027832,2|0,3:1|0:0,1:1:0:0:
75,18,209507,2,0,B|47:44|54:88|86:102,1,97.9999970092774,2|0,0:3|0:0,1:1:0:0:
201,110,209679,85,2,1:2:0:0:
201,110,209850,2,0,B|194:158|229:201,1,97.9999970092774,0|0,3:0|0:0,0:0:0:0:
167,300,210021,1,0,0:0:0:0:
167,300,210107,2,0,B|195:338|251:344,1,97.9999970092774,0|0,3:0|0:0,0:0:0:0:
351,272,210279,5,0,3:0:0:0:
351,272,210364,2,0,B|341:210|361:238|356:176,1,97.9999970092774,8|0,0:0|0:0,0:0:0:0:
251,344,210536,2,0,B|423:344|316:232|530:235,1,293.999991027832,2|0,0:1|0:0,1:1:0:0:
496,126,210879,85,2,0:3:0:0:
496,126,210964,1,2,0:3:0:0:
496,126,211050,2,0,B|489:146|469:141,1,35,0|0,3:0|0:0,0:0:0:0:
461,133,211221,2,0,B|458:83|385:71|316:90|313:231|389:273,1,293.999991027832,2|0,0:1|0:0,1:1:0:0:
459,296,211564,2,0,B|487:270|480:226|448:212,1,97.9999970092774,0|0,3:0|0:0,1:1:0:0:
271,317,211736,6,0,B|209:327|237:307|175:312,1,97.9999970092774,8|0,0:0|0:0,0:0:0:0:
450,213,211907,2,0,B|481:252|435:309|371:341|274:239|302:157,1,293.999991027832,2|0,0:1|0:0,0:0:0:0:
201,143,212250,2,0,B|204:90|243:56,1,97.9999970092774,2|0,0:3|0:3,0:3:0:0:
505,61,212421,85,2,1:2:0:0:
445,20,212507,1,0,0:0:0:0:
374,29,212593,1,0,0:0:0:0:
327,84,212679,1,0,0:0:0:0:
328,156,212764,1,0,3:0:0:0:
397,277,212936,5,0,0:0:0:0:
397,277,213021,1,0,0:0:0:0:
397,277,213107,2,0,B|387:340|407:312|402:374,1,97.9999970092774,8|0,0:0|0:0,0:0:0:0:
328,156,213279,2,0,B|145:142|88:340,1,293.999991027832,2|0,3:1|0:0,0:0:0:0:
233,319,213621,85,2,0:3:0:0:
233,319,213707,1,2,0:3:0:0:
233,319,213793,2,0,B|252:309|262:327,1,35,0|0,3:0|0:0,0:0:0:0:
258,344,213964,2,0,B|86:344|193:232|-21:235,1,293.999991027832,2|0,0:1|0:0,1:1:0:0:
0,319,214307,2,0,B|10:355|52:369|79:347,1,97.9999970092774,0|0,3:0|0:0,1:1:0:0:
171,205,214479,6,0,B|181:142|161:170|166:108,1,97.9999970092774,8|0,0:0|0:0,0:0:0:0:
77,348,214650,2,0,B|249:348|142:236|356:239,1,293.999991027832,2|0,3:1|0:0,1:1:0:0:
395,312,214993,2,0,B|431:301|445:259|423:232,1,97.9999970092774,2|0,0:3|0:0,1:1:0:0:
376,157,215164,85,2,1:2:0:0:
376,157,215336,2,0,B|347:118|291:112,1,97.9999970092774,0|0,3:0|0:0,0:0:0:0:
276,4,215507,1,0,0:0:0:0:
276,4,215593,2,0,B|227:9|195:54,1,97.9999970092774,0|0,3:0|0:0,0:0:0:0:
161,198,215764,5,0,3:0:0:0:
161,198,215850,2,0,B|171:261|151:233|156:295,1,97.9999970092774,8|0,0:0|0:0,0:0:0:0:
195,53,216021,2,0,B|255:55|284:133|203:203|83:194|48:134,1,293.999991027832,2|0,0:1|0:0,1:1:0:0:
102,25,216364,85,2,0:3:0:0:
102,25,216450,1,2,0:3:0:0:
102,25,216536,2,0,B|112:44|94:54,1,35,0|0,3:0|0:0,0:0:0:0:
80,64,216707,2,0,B|261:88|276:293,1,293.999991027832,2|0,0:1|0:0,1:1:0:0:
364,283,217050,2,0,B|389:255|380:212|348:199,1,97.9999970092774,0|0,3:0|0:0,1:1:0:0:
226,183,217221,6,0,B|163:173|191:193|129:188,1,97.9999970092774,8|0,0:0|0:0,0:0:0:0:
350,200,217393,2,0,B|301:375|95:362,1,293.999991027832,2|0,0:1|0:0,0:0:0:0:
81,274,217736,2,0,B|31:268|-1:223,1,97.9999970092774,2|0,0:3|0:0,1:1:0:0:
69,57,217907,85,2,1:2:0:0:
69,57,218079,2,0,B|74:106|119:139,1,97.9999970092774,0|0,0:0|0:0,0:0:0:0:
260,0,218250,2,0,B|88:0|195:112|-19:109,1,293.999991027832,2|0,3:1|0:0,1:1:0:0:
250,89,218593,6,0,B|313:79|285:99|347:94,1,97.9999970092774,8|0,0:0|0:0,0:0:0:0:
1,108,218764,2,0,B|179:71|260:260,1,293.999991027832,2|0,3:1|0:0,1:1:0:0:
344,255,219107,21,2,0:3:0:0:
344,255,219193,1,2,0:3:0:0:
344,255,219279,2,0,B|363:265|373:247,1,35,4|0,3:1|0:0,0:0:0:0:
380,233,219450,2,0,B|238:202|311:339|109:281,1,251.999992309571,2|0,0:1|0:0,1:1:0:0:
88,353,219793,2,0,B|58:342|47:305|67:283,1,83.9999974365235,2|0,3:0|0:0,1:1:0:0:
142,198,219964,5,8,1:0:0:0:
149,120,220136,1,0,0:0:0:0:
149,120,220221,1,0,0:0:0:0:
149,120,220307,1,0,0:0:0:0:
156,42,220479,1,0,0:0:0:0:
142,198,220650,85,2,1:2:0:0:
149,120,220907,5,2,0:0:0:0:
156,42,221164,85,0,0:0:0:0:
142,198,221336,5,8,1:0:0:0:
149,120,221507,1,0,3:0:0:0:
149,120,221593,1,0,0:0:0:0:
149,120,221679,1,0,0:0:0:0:
156,42,221850,1,0,0:0:0:0:
329,113,222021,86,0,B|322:133|301:127,1,35,4|0,3:1|0:0,0:0:0:0:
295,116,222193,2,0,B|246:137|206:83|208:4|350:-8|387:112,1,251.999992309571,2|0,0:1|0:0,1:1:0:0:
440,25,222536,2,0,B|466:41|472:79|448:97,1,83.9999974365235,2|0,3:0|0:0,1:1:0:0:
472,282,222707,5,8,1:0:0:0:
376,196,222879,1,0,0:0:0:0:
376,196,222964,1,0,0:0:0:0:
376,196,223050,1,0,0:0:0:0:
254,235,223221,1,0,0:0:0:0:
472,282,223393,85,2,1:2:0:0:
376,196,223650,5,2,0:0:0:0:
254,235,223907,85,0,0:0:0:0:
472,282,224079,5,8,1:0:0:0:
376,196,224250,1,0,3:0:0:0:
376,196,224336,1,0,0:0:0:0:
376,196,224421,1,0,0:0:0:0:
254,235,224593,1,0,0:0:0:0:
394,367,224764,86,0,B|389:345|411:340,1,35,4|0,3:1|0:0,0:0:0:0:
424,345,224936,2,0,B|448:209|331:120,1,251.999992309571,2|0,0:1|0:0,1:1:0:0:
388,59,225279,2,0,B|418:54|445:81|439:110,1,83.9999974365235,2|0,3:0|0:0,1:1:0:0:
253,151,225450,5,8,1:0:0:0:
160,137,225621,1,0,0:0:0:0:
160,137,225707,1,0,0:0:0:0:
160,137,225793,1,0,0:0:0:0:
67,123,225964,1,0,0:0:0:0:
253,151,226136,85,2,1:2:0:0:
160,137,226393,5,2,0:0:0:0:
67,123,226650,85,0,0:0:0:0:
253,151,226821,5,8,1:0:0:0:
160,137,226993,1,0,3:0:0:0:
160,137,227079,1,0,0:0:0:0:
160,137,227164,1,0,0:0:0:0:
67,123,227336,1,0,0:0:0:0:
42,360,227507,86,0,B|62:354|57:332,1,35,4|0,3:1|0:0,0:0:0:0:
43,330,227679,2,0,B|-26:297|-5:166|47:152|108:166|103:212,1,251.999992309571,2|0,0:1|0:0,1:1:0:0:
179,243,228021,2,0,B|177:274|146:296|119:284,1,83.9999974365235,2|0,3:0|0:0,1:1:0:0:
228,44,228193,5,8,1:0:0:0:
305,25,228364,1,0,0:0:0:0:
305,25,228450,1,0,0:0:0:0:
305,25,228536,1,0,0:0:0:0:
228,44,228707,1,0,0:0:0:0:
437,221,228879,85,4,1:1:0:0:
429,213,229050,1,0,0:0:0:0:
429,221,229221,1,0,0:0:0:0:
438,217,229393,1,0,0:0:0:0:
433,222,229564,1,0,0:0:0:0:
433,211,229736,1,0,0:0:0:0:
291,310,229907,5,2,0:0:0:0:
291,310,229993,1,0,0:0:0:0:
170,261,230164,85,2,0:0:0:0:
170,261,230250,1,0,0:0:0:0:
171,170,230421,5,2,0:0:0:0:
171,170,230507,1,0,0:0:0:0:
231,124,230679,85,2,0:0:0:0:
231,124,230764,1,0,0:0:0:0:
259,129,230936,85,2,0:0:0:0:
259,129,231021,1,0,0:0:0:0:
256,192,231107,12,0,232993,0:0:0:0:
