osu file format v14

[General]
AudioFilename: audio.mp3
AudioLeadIn: 0
PreviewTime: 1720
Countdown: 0
SampleSet: Soft
StackLeniency: 0.7
Mode: 0
LetterboxInBreaks: 0
WidescreenStoryboard: 0

[Editor]
DistanceSpacing: 1.1
BeatDivisor: 8
GridSize: 8
TimelineZoom: 1

[Metadata]
Title:For a Dead Girl+
TitleUnicode:For a Dead Girl+
Artist:baker
ArtistUnicode:baker
Creator:handsome
Version:Easy
Source:
Tags:delis pishifat motoloid presents choremix compilation featured artist dnb dubstep drum bass electronic vocaloid megurine luka yuyoyuppe ゆよゆっぺ 巡音ルカ
BeatmapID:1442762
BeatmapSetID:682287

[Difficulty]
HPDrainRate:2
CircleSize:3
OverallDifficulty:2
ApproachRate:2
SliderMultiplier:0.8
SliderTickRate:1

[Events]
//Background and Video events
0,0,"baker.jpg",0,0
//Break Periods
2,139067,149307
//Storyboard Layer 0 (Background)
//Storyboard Layer 1 (Fail)
//Storyboard Layer 2 (Pass)
//Storyboard Layer 3 (Foreground)
//Storyboard Sound Samples

[TimingPoints]
1725,428.571428571429,4,2,1,30,1,0
15439,-100,4,2,1,40,0,0
29153,-100,4,2,1,50,0,0
42867,-100,4,2,1,60,0,0
56582,-100,4,2,1,60,0,1
57439,-100,4,2,1,40,0,1
58296,-100,4,2,1,60,0,1
59153,-100,4,2,1,40,0,1
60010,-100,4,2,1,60,0,1
60867,-100,4,2,1,40,0,1
61725,-100,4,2,1,60,0,1
62582,-100,4,2,1,40,0,1
63439,-100,4,2,1,60,0,1
64296,-100,4,2,1,40,0,1
65153,-100,4,2,1,60,0,1
66010,-100,4,2,1,40,0,1
66867,-100,4,2,1,60,0,1
67725,-100,4,2,1,40,0,1
68582,-100,4,2,1,60,0,1
69439,-100,4,2,1,40,0,1
70296,-100,4,2,1,70,0,1
71153,-100,4,2,1,60,0,1
72010,-100,4,2,1,70,0,1
72867,-100,4,2,1,60,0,1
73724,-100,4,2,1,70,0,1
74581,-100,4,2,1,60,0,1
75439,-100,4,2,1,70,0,1
76296,-100,4,2,1,60,0,1
77153,-100,4,2,1,70,0,1
78010,-100,4,2,1,60,0,1
78867,-100,4,2,1,70,0,1
79724,-100,4,2,1,60,0,1
80581,-100,4,2,1,70,0,1
81438,-100,4,2,1,60,0,1
82296,-100,4,2,1,70,0,1
82725,-100,4,2,1,40,0,0
97725,-100,4,2,1,50,0,0
111439,-100,4,2,1,60,0,1
112296,-100,4,2,1,40,0,1
113153,-100,4,2,1,60,0,1
114010,-100,4,2,1,40,0,1
114867,-100,4,2,1,60,0,1
115725,-100,4,2,1,40,0,1
116582,-100,4,2,1,60,0,1
117439,-100,4,2,1,40,0,1
118296,-100,4,2,1,60,0,1
119153,-100,4,2,1,40,0,1
120010,-100,4,2,1,60,0,1
120867,-100,4,2,1,40,0,1
121725,-100,4,2,1,60,0,1
122582,-100,4,2,1,40,0,1
123439,-100,4,2,1,60,0,1
124296,-100,4,2,1,50,0,1
125153,-100,4,2,1,80,0,1
137582,-100,4,2,1,80,0,0
138867,-100,4,2,1,50,0,0
152582,410.958904109589,4,2,1,60,1,0
154225,394.736842105263,4,2,1,60,1,0
155803,384.615384615385,4,2,1,60,1,0
157341,372.670807453416,4,2,1,60,1,0
158831,361.44578313253,4,2,1,60,1,0
160276,350.877192982456,4,2,1,60,1,0
161679,342.857142857143,4,2,1,60,1,0
164421,-125,4,2,1,70,0,0
186364,-125,4,2,1,80,0,1
206936,-125,4,2,1,60,0,0
219279,-125,4,2,1,40,0,0
229907,-125,4,2,2,35,0,0
230164,-125,4,2,1,30,0,0
230421,-125,4,2,2,25,0,0
230679,-125,4,2,1,20,0,0
230936,-125,4,2,2,15,0,0
231621,-125,4,2,1,10,0,0
232307,-125,4,2,2,5,0,0

[Colours]
Combo1 : 196,179,162
Combo2 : 130,202,255
Combo3 : 18,124,255
Combo4 : 255,151,153
Combo5 : 247,53,72
Combo6 : 255,222,147
Combo7 : 255,199,66

[HitObjects]
70,344,1725,6,0,B|234:296|196:394|415:331,1,320,4|2,1:0|1:2,0:0:0:0:
487,161,5153,2,0,B|323:113|361:211|142:148,1,320,2|2,1:2|1:2,0:0:0:0:
50,18,8582,6,0,B|160:142|178:321,1,320,2|2,1:2|1:2,0:0:0:0:
364,367,12010,2,0,B|474:243|492:64,1,320,2|2,1:2|1:2,0:0:0:0:
327,11,14582,1,8,1:0:0:0:
169,89,15439,38,0,B|151:171|193:266,1,160,4|8,3:1|1:0,0:0:0:0:
265,280,16725,1,0,0:0:0:0:
338,232,17153,2,0,B|376:215|436:221,2,80,2|0|8,1:2|0:0|1:0,0:0:0:0:
218,361,18867,6,0,B|112:366|166:321|41:337,1,160,0|8,3:0|1:0,0:0:0:0:
8,265,20153,1,0,0:0:0:0:
47,186,20582,2,0,B|30:148|36:88,2,80,2|0|8,1:2|0:0|1:0,0:0:0:0:
173,63,22296,86,0,B|228:36|291:98|257:151,1,160,4|8,3:1|1:0,0:0:0:0:
178,185,23582,1,0,0:0:0:0:
213,265,24010,2,0,B|196:303|202:363,2,80,2|0|8,1:2|0:0|1:0,0:0:0:0:
388,278,25725,6,0,B|370:196|412:101,1,160,0|8,3:0|1:0,0:0:0:0:
482,81,27010,2,0,B|477:39|442:-9,1,80,0|0,0:0|0:0,0:0:0:0:
103,45,29153,22,0,B|85:127|127:222,1,160,4|8,3:1|1:0,0:0:0:0:
272,116,30867,2,0,B|313:120|362:155,1,80,2|0,1:2|3:0,0:0:0:0:
434,138,31725,2,0,B|460:170|469:229,1,80,8|0,1:0|0:0,0:0:0:0:
485,296,32582,6,0,B|379:291|433:336|308:320,1,160,0|8,3:0|1:0,0:0:0:0:
154,308,34296,2,0,B|149:349|114:398,2,80,2|0|8,1:0|3:0|1:0,0:0:0:0:
96,241,35582,1,0,0:0:0:0:
8,237,36010,86,0,B|-19:182|43:119|96:153,1,160,4|8,3:1|1:0,0:0:0:0:
240,248,37725,2,0,B|266:215|275:156,1,80,2|0,1:2|3:0,0:0:0:0:
192,138,38582,2,0,B|165:105|156:46,1,80,8|0,1:0|0:0,0:0:0:0:
222,3,39439,6,0,B|305:6|386:71,1,160,0|8,3:0|1:0,0:0:0:0:
467,205,41153,2,0,B|471:163|506:114,2,80,2|0|8,1:0|3:0|1:0,0:0:0:0:
502,285,42439,1,8,1:0:0:0:
428,333,42867,38,0,B|389:316|330:321,1,80,4|0,3:1|0:0,0:0:0:0:
289,256,43725,2,0,B|250:270|211:317,1,80,8|0,0:0|0:0,0:0:0:0:
162,364,44582,2,0,B|81:338|20:254,1,160,2|8,1:2|0:0,0:0:0:0:
121,117,46296,6,0,B|104:78|109:19,1,80,0|0,3:0|0:0,0:0:0:0:
194,25,47153,2,0,B|211:64|206:123,1,80,8|0,0:0|0:0,0:0:0:0:
181,187,48010,2,0,B|287:182|233:227|358:211,1,160,2|8,1:2|0:0,0:0:0:0:
483,310,49725,86,0,B|500:271|495:212,1,80,0|0,3:0|0:0,0:0:0:0:
436,166,50582,2,0,B|431:123|397:75,1,80,8|0,0:0|0:0,0:0:0:0:
320,93,51439,2,0,B|293:38|355:-25|408:9,2,160,2|8|2,1:2|0:0|1:2,0:0:0:0:
228,340,55725,1,8,0:0:0:0:
87,234,56582,70,0,B|91:149|156:68,1,160,6|8,3:1|0:0,0:0:0:0:
229,71,57867,1,0,0:0:0:0:
304,24,58296,2,0,B|375:70|412:167,1,160,6|8,3:1|0:0,0:0:0:0:
374,229,59581,1,0,0:0:0:0:
376,317,60010,6,0,B|301:356|198:339,1,160,6|8,3:1|0:0,0:0:0:0:
164,275,61295,1,0,0:0:0:0:
87,234,61725,2,0,B|82:191|48:143,2,80,6|0|8,3:1|3:0|0:0,0:0:0:0:
189,348,63439,86,0,B|233:275|330:236,1,160,6|8,3:1|0:0,0:0:0:0:
397,255,64725,1,0,0:0:0:0:
424,172,65153,2,0,B|339:169|257:105,1,160,6|8,3:1|0:0,0:0:0:0:
252,33,66439,1,0,0:0:0:0:
164,41,66867,6,0,B|204:116|190:219,1,160,6|8,3:1|0:0,0:0:0:0:
163,369,68582,2,0,B|202:370|254:388,2,80,6|0|8,3:1|3:0|0:0,0:0:0:0:
42,240,70296,86,0,B|22:157|63:61,1,160,6|8,3:1|0:0,0:0:0:0:
142,94,71582,1,0,1:0:0:0:
180,16,72010,2,0,B|262:-5|358:35,1,160,6|8,3:1|0:0,1:1:0:0:
350,114,73296,1,0,1:0:0:0:
430,152,73725,6,0,B|449:234|408:330,1,160,6|8,3:1|0:0,0:0:0:0:
330,322,75011,1,0,1:0:0:0:
267,384,75439,2,0,B|225:372|183:331,1,80,6|0,3:1|3:0,1:1:0:0:
109,345,76296,2,0,B|87:307|87:248,1,80,8|0,0:0|0:0,0:0:0:0:
65,183,77153,86,0,B|171:178|117:223|242:207,1,160,6|8,3:1|0:0,0:0:0:0:
290,157,78439,1,0,1:0:0:0:
362,107,78867,2,0,B|380:54|316:0|257:25,1,160,6|8,3:1|0:0,1:1:0:0:
208,93,80153,1,0,1:0:0:0:
129,53,80582,6,0,B|89:127|104:230,1,160,6|8,3:1|0:0,1:1:0:0:
64,287,81867,1,0,1:0:0:0:
145,320,82296,2,0,B|183:298|242:298,1,80,2|0,1:2|0:0,0:0:0:0:
484,279,84010,54,0,B|511:199|481:100,1,160,4|8,3:0|3:0,3:0:0:0:
344,15,85725,2,0,B|306:37|247:37,1,80,2|0,1:2|3:0,0:0:0:0:
183,65,86582,2,0,B|160:102|161:161,1,80,8|0,1:0|0:0,0:0:0:0:
139,226,87439,6,0,B|245:221|191:266|316:250,1,160,0|8,3:0|1:0,0:0:0:0:
455,182,89153,2,0,B|455:138|425:86,2,80,2|0|8,1:0|3:0|1:0,0:0:0:0:
429,266,90439,1,0,0:0:0:0:
511,296,90867,86,0,B|534:353|462:404|411:360,1,160,4|8,3:1|1:0,0:0:0:0:
242,319,92582,2,0,B|242:275|212:223,1,80,2|0,1:2|3:0,0:0:0:0:
250,158,93439,2,0,B|218:126|160:111,1,80,8|0,1:0|0:0,0:0:0:0:
106,71,94296,6,0,B|66:145|81:248,2,160,0|8|2,3:0|1:0|1:0,0:0:0:0:
277,31,96867,2,0,B|308:62|323:120,1,80,8|8,1:0|1:0,0:0:0:0:
333,186,97725,38,0,B|227:191|281:146|156:162,1,160,4|8,3:1|1:0,0:0:0:0:
2,161,99439,1,2,1:2:0:0:
53,232,99867,1,0,0:0:0:0:
41,319,100296,1,8,1:0:0:0:
208,372,101153,6,0,B|232:291|315:229,1,160,0|8,3:0|1:0,0:0:0:0:
462,304,102867,1,2,1:2:0:0:
474,216,103296,1,0,3:0:0:0:
486,128,103725,1,8,1:0:0:0:
324,57,104582,86,0,B|320:15|243:15|189:83,1,160,4|8,3:1|1:0,0:0:0:0:
162,250,106296,1,2,1:2:0:0:
249,263,106725,1,0,3:0:0:0:
314,205,107153,1,8,1:0:0:0:
193,77,108010,6,0,B|119:37|16:51,2,160,0|8|6,3:0|1:0|1:2,0:0:0:0:
362,29,110582,2,0,B|384:67|384:127,1,80,8|8,0:0|0:0,0:0:0:0:
428,180,111439,54,0,B|383:251|287:290,1,160,6|8,3:1|0:0,0:0:0:0:
267,360,112725,1,0,0:0:0:0:
180,346,113153,2,0,B|140:272|155:169,1,160,6|8,3:1|0:0,0:0:0:0:
105,117,114439,1,0,0:0:0:0:
159,49,114867,6,0,B|243:51|325:115,1,160,6|8,3:1|0:0,0:0:0:0:
395,98,116153,1,0,0:0:0:0:
428,180,116582,2,0,B|406:218|405:278,2,80,6|0|8,3:1|3:0|0:0,0:0:0:0:
310,48,118296,86,0,B|247:104|144:115,1,160,6|8,3:1|0:0,0:0:0:0:
80,133,119582,1,0,0:0:0:0:
104,217,120010,2,0,B|184:242|245:327,1,160,6|8,3:1|0:0,0:0:0:0:
292,373,121296,1,0,0:0:0:0:
353,310,121725,6,0,B|335:228|378:133,1,160,6|8,3:1|0:0,0:0:0:0:
273,5,123439,2,0,B|231:-9|172:3,2,80,6|2|8,3:1|3:1|0:0,0:0:0:0:
317,81,124725,1,8,0:0:0:0:
395,119,125153,86,0,B|432:142|461:195,1,80,6|8,3:1|0:0,1:1:0:0:
400,249,126010,2,0,B|410:292|393:349,1,80,2|8,3:2|0:0,1:1:0:0:
310,324,126867,2,0,B|286:361|233:390,1,80,2|8,3:1|0:0,0:0:0:0:
200,307,127725,2,0,B|156:317|99:300,1,80,2|8,3:2|0:0,1:1:0:0:
69,234,128582,6,0,B|31:257|2:310,2,80,2|8|2,3:1|0:0|3:2,1:1:0:0:
153,209,129867,1,8,0:0:0:0:
153,120,130296,2,0,B|109:109|52:126,2,80,2|8|2,3:1|0:0|3:2,1:1:0:0:
230,162,131581,1,8,0:0:0:0:
290,97,132010,86,0,B|328:75|389:76,1,80,2|8,3:1|0:0,1:1:0:0:
393,162,132867,2,0,B|354:183|293:182,1,80,2|8,3:2|0:0,1:1:0:0:
230,162,133725,2,0,B|240:205|223:263,2,80,2|8|2,3:1|0:0|3:2,1:1:0:0:
145,136,135010,1,8,0:0:0:0:
78,193,135439,6,0,B|67:236|84:294,1,80,2|8,3:1|0:0,1:1:0:0:
166,279,136296,2,0,B|188:317|242:345,1,80,2|8,3:2|0:0,1:1:0:0:
293,282,137153,1,2,3:1:0:0:
378,305,137582,2,0,B|388:348|371:406,2,80,8|2|2,0:0|3:1|0:1,0:0:0:0:
355,220,138867,53,4,3:1:0:0:
444,271,150867,5,2,1:2:0:0:
126,200,152582,38,0,B|96:233|85:292,2,80,4|8|0,3:1|0:0|3:0,0:0:0:0:
248,62,154225,2,0,B|214:32|155:21,2,80,0|8|0,3:1|0:0|3:0,0:0:0:0:
386,184,155803,6,0,B|415:150|426:91,2,80,0|8|0,3:1|0:0|3:0,0:0:0:0:
264,322,157341,2,0,B|297:351|356:362,2,80,0|8|0,3:0|0:0|3:0,0:0:0:0:
176,330,158459,2,0,B|156:290|161:230,1,80,8|0,3:2|3:0,0:0:0:0:
256,192,159011,12,0,163050,3:0:0:0:
394,75,164421,22,0,B|439:116|459:189,1,128,4|2,3:1|1:0,1:1:0:0:
469,234,165450,1,8,0:0:0:0:
439,276,165793,2,0,B|365:268|403:305|306:300,1,128,0|2,3:0|1:0,1:1:0:0:
229,354,167164,6,0,B|182:375|137:341|147:284,1,128,0|2,3:1|1:0,1:1:0:0:
180,254,168193,1,8,0:0:0:0:
163,205,168536,2,0,B|130:153|129:78,1,128,0|0,3:0|3:0,0:0:0:0:
226,51,169907,86,0,B|278:84|353:85,1,128,0|2,3:1|1:0,1:1:0:0:
392,59,170936,1,8,0:0:0:0:
435,32,171279,2,0,B|468:84|469:159,1,128,0|2,3:0|1:0,1:1:0:0:
422,245,172650,6,0,B|442:255|426:299|360:292|332:268,1,128,0|2,3:1|1:0,1:1:0:0:
306,224,173679,1,8,0:0:0:0:
275,182,174021,2,0,B|214:195|161:247,1,128,0|0,3:0|3:0,0:0:0:0:
67,212,175393,86,0,B|46:165|80:120|137:130,1,128,4|2,3:1|1:0,1:1:0:0:
179,136,176421,1,8,0:0:0:0:
225,113,176764,2,0,B|258:165|259:240,1,128,0|2,3:0|1:0,1:1:0:0:
224,331,178136,6,0,B|298:323|260:360|357:355,1,128,0|2,3:1|1:0,1:1:0:0:
396,343,179164,1,8,0:0:0:0:
439,369,179507,2,0,B|472:317|473:242,1,128,0|0,3:0|3:0,0:0:0:0:
510,151,180879,86,0,B|481:96|417:58,1,128,0|2,3:1|1:0,1:1:0:0:
373,78,181907,1,8,0:0:0:0:
328,53,182250,2,0,B|275:86|200:87,1,128,0|2,3:0|1:0,1:1:0:0:
129,18,183621,5,0,3:0:0:0:
39,67,184307,1,0,3:0:0:0:
112,138,184993,1,0,3:0:0:0:
76,175,185336,2,0,B|44:212|72:269|131:257,1,128,8|8,3:2|3:2,0:0:0:0:
167,287,186364,6,0,B|220:254|295:253,1,128,6|2,3:1|1:0,1:1:0:0:
340,250,187393,1,8,0:0:0:0:
382,221,187736,2,0,B|327:192|289:127,1,128,2|2,3:1|1:0,1:1:0:0:
264,90,188765,1,8,0:0:0:0:
218,67,189107,6,0,B|220:129|183:195,1,128,2|2,3:1|1:0,1:1:0:0:
163,235,190136,1,8,0:0:0:0:
167,287,190479,2,0,B|200:313|221:354,2,64,2|8|2,3:1|0:0|3:1,1:1:0:0:
68,314,191850,86,0,B|45:256|59:181,1,128,6|2,3:1|1:0,1:1:0:0:
47,137,192879,1,8,0:0:0:0:
82,100,193221,2,0,B|156:108|118:71|215:76,1,128,2|2,3:1|1:0,1:1:0:0:
245,107,194250,1,8,0:0:0:0:
291,85,194593,6,0,B|314:142|300:217,1,128,2|0,3:1|1:0,1:1:0:0:
375,280,195964,2,0,B|402:289|390:322|322:343|276:311,1,128,2|2,3:1|3:1,1:1:0:0:
212,255,197336,86,0,B|163:217|138:145,1,128,6|2,3:1|1:0,1:1:0:0:
173,112,198364,1,8,0:0:0:0:
223,122,198707,2,0,B|280:99|355:113,1,128,2|2,3:1|1:0,1:1:0:0:
366,160,199735,1,8,0:0:0:0:
332,198,200079,6,0,B|323:259|274:317,1,128,2|2,3:1|1:0,1:1:0:0:
228,303,201107,1,8,0:0:0:0:
212,255,201450,2,0,B|170:250|126:264,2,64,2|8|2,3:1|0:0|3:1,1:1:0:0:
296,197,202821,86,0,B|287:136|238:78,1,128,6|0,3:1|1:0,1:1:0:0:
194,63,203850,1,8,0:0:0:0:
149,37,204193,2,0,B|140:98|91:156,1,128,2|0,3:1|1:0,1:1:0:0:
51,243,205564,2,0,B|125:235|87:272|184:267,1,128,2|0,3:1|1:0,1:1:0:0:
214,236,206593,2,0,B|247:262|268:303,1,64,8|0,0:0|3:0,0:0:0:0:
363,373,208307,22,0,B|372:312|421:254,1,128,4|8,3:1|0:0,0:0:0:0:
480,177,209679,2,0,B|467:133|411:121|368:157,1,128,2|8,1:2|0:0,0:0:0:0:
313,234,211050,6,0,B|239:242|277:205|180:210,1,128,0|8,3:0|0:0,0:0:0:0:
112,276,212421,2,0,B|103:215|54:157,1,128,2|8,1:2|0:0,0:0:0:0:
0,76,213793,86,0,B|49:39|125:32,1,128,0|8,3:0|0:0,0:0:0:0:
212,74,215164,2,0,B|221:57|258:53|270:132|226:157,1,128,2|8,1:2|0:0,0:0:0:0:
128,180,216536,6,0,B|137:240|185:299,1,128,0|8,3:0|0:0,0:0:0:0:
272,246,217907,2,0,B|346:238|308:275|405:270,1,128,2|8,1:2|0:0,0:0:0:0:
470,201,219279,22,0,B|423:88|288:19,1,256,4|2,3:1|1:2,0:0:0:0:
107,105,222021,2,0,B|153:218|107:362,1,256,4|2,3:1|1:2,0:0:0:0:
311,321,224764,6,0,B|344:358|410:329|421:279|348:178|284:194,1,256,4|2,3:1|1:2,0:0:0:0:
85,186,227507,2,0,B|245:182|138:90|326:91,1,256,4|4,3:1|1:1,0:0:0:0:
256,192,229050,12,0,232993,0:0:0:0:
