osu file format v14

[General]
AudioFilename: audio.mp3
AudioLeadIn: 0
PreviewTime: 1720
Countdown: 0
SampleSet: Soft
StackLeniency: 0.2
Mode: 0
LetterboxInBreaks: 0
WidescreenStoryboard: 1

[Editor]
DistanceSpacing: 0.8
BeatDivisor: 4
GridSize: 8
TimelineZoom: 1.9

[Metadata]
Title:For a Dead Girl+
TitleUnicode:For a Dead Girl+
Artist:baker
ArtistUnicode:baker
Creator:handsome
Version:Collab Extra
Source:
Tags:delis pishifat motoloid presents choremix compilation featured artist dnb dubstep drum bass electronic vocaloid megurine luka yuyoyuppe ゆよゆっぺ 巡音ルカ
BeatmapID:1444316
BeatmapSetID:682287

[Difficulty]
HPDrainRate:6
CircleSize:4
OverallDifficulty:8
ApproachRate:9.2
SliderMultiplier:2
SliderTickRate:1

[Events]
//Background and Video events
0,0,"baker.jpg",0,0
//Break Periods
2,139067,152012
//Storyboard Layer 0 (Background)
//Storyboard Layer 1 (Fail)
//Storyboard Layer 2 (Pass)
//Storyboard Layer 3 (Foreground)
//Storyboard Sound Samples

[TimingPoints]
1725,428.571428571429,4,2,1,30,1,0
1725,-200,4,2,1,30,0,0
15439,-200,4,2,1,40,0,0
15653,-83.3333333333333,4,2,1,40,0,0
18867,-200,4,2,1,40,0,0
19082,-83.3333333333333,4,2,1,40,0,0
22296,-200,4,2,1,40,0,0
22510,-83.3333333333333,4,2,1,40,0,0
25725,-200,4,2,1,40,0,0
25939,-83.3333333333333,4,2,1,40,0,0
29153,-200,4,2,1,50,0,0
29367,-71.4285714285714,4,2,1,50,0,0
30010,-142.857142857143,4,2,1,50,0,0
30867,-285.714285714286,4,2,1,50,0,0
31725,-142.857142857143,4,2,1,50,0,0
32582,-200,4,2,1,50,0,0
32796,-71.4285714285714,4,2,1,50,0,0
33439,-142.857142857143,4,2,1,50,0,0
36010,-200,4,2,1,50,0,0
36224,-71.4285714285714,4,2,1,50,0,0
36867,-142.857142857143,4,2,1,50,0,0
37725,-285.714285714286,4,2,1,50,0,0
38583,-142.857142857143,4,2,1,50,0,0
39439,-200,4,2,1,50,0,0
39653,-71.4285714285714,4,2,1,50,0,0
40296,-142.857142857143,4,2,1,50,0,0
42867,-100,4,2,1,60,0,0
43082,-71.4285714285714,4,2,1,60,0,0
43725,-100,4,2,1,60,0,0
46296,-100,4,2,1,60,0,0
46510,-71.4285714285714,4,2,1,60,0,0
47153,-100,4,2,1,60,0,0
49725,-100,4,2,1,60,0,0
49939,-71.4285714285714,4,2,1,60,0,0
50582,-100,4,2,1,60,0,0
53153,-200,4,2,1,60,0,0
53367,-71.4285714285714,4,2,1,60,0,0
55832,-71.4285714285714,4,2,1,5,0,0
56153,-142.857142857143,4,2,1,60,0,0
56582,-62.5,4,2,1,60,0,1
57439,-200,4,2,1,40,0,0
58296,-62.5,4,2,1,60,0,1
59153,-200,4,2,1,40,0,0
60010,-62.5,4,2,1,60,0,1
60867,-200,4,2,1,40,0,0
61725,-62.5,4,2,1,60,0,1
62582,-200,4,2,1,40,0,0
63439,-62.5,4,2,1,60,0,1
64296,-200,4,2,1,40,0,0
65153,-62.5,4,2,1,60,0,1
66010,-200,4,2,1,40,0,0
66867,-62.5,4,2,1,60,0,1
67725,-200,4,2,1,40,0,0
68582,-62.5,4,2,1,60,0,1
69439,-100,4,2,1,40,0,0
70296,-62.5,4,2,1,70,0,1
71153,-100,4,2,1,60,0,1
72010,-62.5,4,2,1,70,0,1
72867,-100,4,2,1,60,0,1
73724,-62.5,4,2,1,70,0,1
74581,-100,4,2,1,60,0,1
75439,-62.5,4,2,1,70,0,1
76296,-100,4,2,1,60,0,1
77153,-62.5,4,2,1,70,0,1
78010,-100,4,2,1,60,0,1
78867,-62.5,4,2,1,70,0,1
79724,-100,4,2,1,60,0,1
80581,-62.5,4,2,1,70,0,1
81438,-100,4,2,1,60,0,1
82296,-62.5,4,2,1,70,0,1
82725,-62.5,4,2,1,40,0,0
84010,-200,4,2,1,40,0,0
84867,-142.857142857143,4,2,1,40,0,0
85725,-285.714285714286,4,2,1,50,0,0
86582,-142.857142857143,4,2,1,50,0,0
87439,-200,4,2,1,40,0,0
87653,-71.4285714285714,4,2,1,40,0,0
88296,-142.857142857143,4,2,1,40,0,0
90867,-200,4,2,1,40,0,0
91081,-71.4285714285714,4,2,1,40,0,0
91724,-142.857142857143,4,2,1,40,0,0
92582,-285.714285714286,4,2,1,50,0,0
93440,-142.857142857143,4,2,1,50,0,0
94296,-200,4,2,1,40,0,0
94510,-71.4285714285714,4,2,1,40,0,0
95153,-142.857142857143,4,2,1,40,0,0
96867,-71.4285714285715,4,2,1,40,0,0
96975,-71.4285714285715,4,2,1,5,0,0
97296,-71.4285714285715,4,2,1,40,0,0
97403,-71.4285714285715,4,2,1,5,0,0
97725,-100,4,2,1,50,0,0
97939,-71.4285714285714,4,2,1,50,0,0
101153,-100,4,2,1,50,0,0
101367,-71.4285714285714,4,2,1,50,0,0
104582,-100,4,2,1,50,0,0
104796,-71.4285714285714,4,2,1,50,0,0
108010,-100,4,2,1,50,0,0
108224,-71.4285714285714,4,2,1,50,0,0
110582,-71.4285714285715,4,2,1,50,0,0
111439,-62.5,4,2,1,60,0,1
112296,-200,4,2,1,40,0,0
113153,-62.5,4,2,1,60,0,1
114010,-200,4,2,1,40,0,0
114867,-62.5,4,2,1,60,0,1
115725,-200,4,2,1,40,0,0
116582,-62.5,4,2,1,60,0,1
117439,-200,4,2,1,40,0,0
118296,-62.5,4,2,1,60,0,1
119153,-200,4,2,1,40,0,0
120010,-62.5,4,2,1,60,0,1
120867,-200,4,2,1,40,0,0
121725,-62.5,4,2,1,60,0,1
122582,-200,4,2,1,40,0,0
123439,-62.5,4,2,1,60,0,1
124296,-100,4,2,1,50,0,0
124725,-125,4,2,1,50,0,0
125153,-55.5555555555556,4,2,1,80,0,1
126439,-83.3333333333333,4,2,1,80,0,1
126867,-55.5555555555556,4,2,1,80,0,1
128153,-83.3333333333333,4,2,1,80,0,1
128581,-55.5555555555556,4,2,1,80,0,1
129867,-83.3333333333333,4,2,1,80,0,1
130295,-55.5555555555556,4,2,1,80,0,1
131582,-83.3333333333333,4,2,1,80,0,1
132010,-55.5555555555556,4,2,1,80,0,1
133296,-83.3333333333333,4,2,1,80,0,1
133724,-55.5555555555556,4,2,1,80,0,1
135010,-83.3333333333333,4,2,1,80,0,1
135438,-55.5555555555556,4,2,1,80,0,1
136725,-83.3333333333333,4,2,1,80,0,1
137153,-55.5555555555556,4,2,1,80,0,1
138867,-71.4285714285714,4,2,1,50,0,0
139082,-142.857142857143,4,2,1,50,0,0
139296,-71.4285714285714,4,2,1,50,0,0
139510,-142.857142857143,4,2,1,50,0,0
140153,-71.4285714285714,4,2,1,50,0,0
140796,-142.857142857143,4,2,1,50,0,0
141010,-71.4285714285714,4,2,1,50,0,0
141224,-142.857142857143,4,2,1,50,0,0
141867,-71.4285714285714,4,2,1,50,0,0
142510,-142.857142857143,4,2,1,50,0,0
142724,-71.4285714285714,4,2,1,50,0,0
142938,-142.857142857143,4,2,1,50,0,0
143581,-71.4285714285714,4,2,1,50,0,0
144225,-142.857142857143,4,2,1,50,0,0
144439,-71.4285714285714,4,2,1,50,0,0
144653,-142.857142857143,4,2,1,50,0,0
145296,-71.4285714285714,4,2,1,50,0,0
145939,-142.857142857143,4,2,1,50,0,0
146153,-71.4285714285714,4,2,1,50,0,0
146367,-142.857142857143,4,2,1,50,0,0
147010,-71.4285714285714,4,2,1,50,0,0
147653,-142.857142857143,4,2,1,50,0,0
147867,-71.4285714285714,4,2,1,50,0,0
148081,-142.857142857143,4,2,1,50,0,0
148724,-71.4285714285714,4,2,1,50,0,0
149367,-142.857142857143,4,2,1,50,0,0
149581,-71.4285714285714,4,2,1,50,0,0
149795,-142.857142857143,4,2,1,50,0,0
150438,-71.4285714285714,4,2,1,50,0,0
150867,-142.857142857143,4,2,1,50,0,0
151617,-71.4285714285715,4,2,1,50,0,0
152582,410.958904109589,4,2,1,60,1,0
154225,394.736842105263,4,2,1,60,1,0
155803,384.615384615385,4,2,1,60,1,0
157341,372.670807453416,4,2,1,60,1,0
157900,-76.9230769230769,4,2,1,60,0,0
158831,361.44578313253,4,2,1,60,1,0
160276,350.877192982456,4,2,1,60,1,0
161679,342.857142857143,4,2,1,60,1,0
163050,-200,4,2,1,60,0,0
163907,-100,4,2,1,60,0,0
164421,-62.5,4,2,1,70,0,0
164764,-71.4285714285714,4,2,1,70,0,0
165107,-100,4,2,1,70,0,0
165450,-71.4285714285714,4,2,1,70,0,0
165793,-62.5,4,2,1,70,0,0
166136,-71.4285714285714,4,2,1,70,0,0
166479,-100,4,2,1,70,0,0
166821,-71.4285714285714,4,2,1,70,0,0
166993,-50,4,2,1,70,0,0
167164,-62.5,4,2,1,70,0,0
167421,-71.4285714285714,4,2,1,70,0,0
167850,-100,4,2,1,70,0,0
168193,-71.4285714285714,4,2,1,70,0,0
168536,-58.8235294117647,4,2,1,70,0,0
168707,-71.4285714285714,4,2,1,70,0,0
169907,-56.4971751412429,4,2,1,70,0,0
170250,-71.4285714285714,4,2,1,70,0,0
170593,-100,4,2,1,70,0,0
170936,-71.4285714285714,4,2,1,70,0,0
171279,-62.5,4,2,1,70,0,0
171621,-71.4285714285714,4,2,1,70,0,0
171964,-100,4,2,1,70,0,0
172307,-71.4285714285714,4,2,1,70,0,0
172650,-62.5,4,2,1,70,0,0
172993,-71.4285714285714,4,2,1,70,0,0
173336,-100,4,2,1,70,0,0
173679,-71.4285714285714,4,2,1,70,0,0
174021,-62.5,4,2,1,70,0,0
175736,-71.4285714285714,4,2,1,70,0,0
176079,-100,4,2,1,70,0,0
176421,-71.4285714285714,4,2,1,70,0,0
176679,-58.8235294117647,4,2,1,70,0,0
177107,-71.4285714285714,4,2,1,70,0,0
177450,-100,4,2,1,70,0,0
177793,-71.4285714285714,4,2,1,70,0,0
178136,-62.5,4,2,1,70,0,0
178479,-71.4285714285714,4,2,1,70,0,0
178821,-100,4,2,1,70,0,0
179164,-71.4285714285714,4,2,1,70,0,0
179421,-56.4971751412429,4,2,1,70,0,0
179850,-71.4285714285714,4,2,1,70,0,0
180879,-62.5,4,2,1,70,0,0
181221,-71.4285714285714,4,2,1,70,0,0
181564,-100,4,2,1,70,0,0
181907,-71.4285714285714,4,2,1,70,0,0
182250,-62.5,4,2,1,70,0,0
182593,-71.4285714285714,4,2,1,70,0,0
182936,-100,4,2,1,70,0,0
183279,-71.4285714285714,4,2,1,70,0,0
183364,-58.8235294117647,4,2,1,70,0,0
183621,-71.4285714285714,4,2,1,70,0,0
184993,-66.6666666666667,4,2,1,70,0,0
186021,-200,4,2,1,70,0,0
186364,-62.5,4,2,1,80,0,1
187393,-160,4,2,1,80,0,1
187736,-62.5,4,2,1,80,0,1
188764,-160,4,2,1,80,0,1
189107,-62.5,4,2,1,80,0,1
190136,-160,4,2,1,80,0,1
190479,-62.5,4,2,1,80,0,1
191507,-160,4,2,1,80,0,1
191850,-62.5,4,2,1,80,0,1
192879,-160,4,2,1,80,0,1
193221,-62.5,4,2,1,80,0,1
194250,-160,4,2,1,80,0,1
194593,-62.5,4,2,1,80,0,1
196993,-200,4,2,1,80,0,1
197336,-62.5,4,2,1,80,0,1
198364,-160,4,2,1,80,0,1
198707,-62.5,4,2,1,80,0,1
199736,-160,4,2,1,80,0,1
200079,-62.5,4,2,1,80,0,1
201107,-160,4,2,1,80,0,1
201450,-58.8235294117647,4,2,1,80,0,1
201793,-62.5,4,2,1,80,0,1
202479,-160,4,2,1,80,0,1
202821,-56.4971751412429,4,2,1,80,0,1
203164,-62.5,4,2,1,80,0,1
205221,-160,4,2,1,80,0,1
205564,-62.5,4,2,1,80,0,1
206936,-200,4,2,1,60,0,0
207793,-50,4,2,1,60,0,0
207964,-100,4,2,1,60,0,0
208307,-100,4,2,1,60,0,0
208479,-71.4285714285714,4,2,1,60,0,0
208564,-100,4,2,1,60,0,0
210364,-133.333333333333,4,2,1,60,0,0
211050,-100,4,2,1,60,0,0
211221,-71.4285714285714,4,2,1,60,0,0
211307,-100,4,2,1,60,0,0
213279,-133.333333333333,4,2,1,60,0,0
213793,-100,4,2,1,60,0,0
213964,-71.4285714285714,4,2,1,60,0,0
214050,-100,4,2,1,60,0,0
215850,-133.333333333333,4,2,1,60,0,0
216536,-100,4,2,1,60,0,0
216707,-71.4285714285714,4,2,1,60,0,0
216793,-100,4,2,1,60,0,0
218764,-133.333333333333,4,2,1,60,0,0
219279,-200,4,2,1,40,0,0
219450,-83.3333333333333,4,2,1,40,0,0
222021,-83.3333333333333,4,2,1,40,0,0
222193,-83.3333333333333,4,2,1,40,0,0
224764,-83.3333333333333,4,2,1,40,0,0
224935,-83.3333333333333,4,2,1,40,0,0
227507,-83.3333333333333,4,2,1,40,0,0
227678,-83.3333333333333,4,2,1,40,0,0
229907,-83.3333333333333,4,2,1,35,0,0
230164,-83.3333333333333,4,2,1,30,0,0
230421,-83.3333333333333,4,2,1,25,0,0
230679,-83.3333333333333,4,2,1,20,0,0
230936,-83.3333333333333,4,2,1,15,0,0
231621,-83.3333333333333,4,2,1,10,0,0
232307,-125,4,2,2,5,0,0

[Colours]
Combo1 : 196,179,162
Combo2 : 130,202,255
Combo3 : 18,124,255
Combo4 : 255,151,153
Combo5 : 247,53,72
Combo6 : 255,222,147
Combo7 : 255,199,66

[HitObjects]
40,160,1725,6,0,B|23:122|27:83,2,75,4|2|0,1:0|0:0|0:0,0:0:0:0:
21,237,2582,1,0,1:0:0:0:
90,278,2796,1,0,0:0:0:0:
150,226,3010,1,0,0:0:0:0:
118,152,3225,1,0,0:0:0:0:
40,160,3439,6,0,B|23:122|27:83,2,75,2|2|0,1:2|0:0|0:0,0:0:0:0:
21,237,4296,1,0,1:0:0:0:
90,278,4510,1,0,0:0:0:0:
150,226,4724,1,0,0:0:0:0:
217,266,4939,1,0,0:0:0:0:
199,343,5153,86,0,B|160:356|121:350,2,75,2|2|0,1:2|0:0|0:0,0:0:0:0:
265,384,6010,1,0,1:0:0:0:
325,333,6225,1,0,0:0:0:0:
294,260,6439,1,0,0:0:0:0:
217,266,6653,1,0,0:0:0:0:
199,343,6867,6,0,B|160:356|121:350,2,75,2|2|0,1:2|0:0|0:0,0:0:0:0:
265,384,7725,1,0,1:0:0:0:
325,333,7940,1,0,0:0:0:0:
294,260,8154,1,0,0:0:0:0:
353,208,8367,1,0,0:0:0:0:
421,248,8582,86,0,B|419:288|400:322,2,75,2|2|0,1:2|0:0|0:0,0:0:0:0:
480,196,9439,1,0,1:0:0:0:
450,124,9653,1,0,0:0:0:0:
372,131,9867,1,0,0:0:0:0:
353,207,10082,1,0,0:0:0:0:
421,248,10296,6,0,B|419:288|400:322,2,75,2|2|0,1:2|0:0|0:0,0:0:0:0:
480,196,11153,1,0,1:0:0:0:
450,124,11367,1,0,0:0:0:0:
372,131,11581,1,0,0:0:0:0:
341,59,11796,1,0,0:0:0:0:
399,7,12010,86,0,B|437:19|464:48,2,75,2|2|0,1:2|0:0|0:0,0:0:0:0:
341,59,12867,1,0,1:0:0:0:
266,76,13082,1,0,0:0:0:0:
192,53,13296,1,0,0:0:0:0:
138,0,13510,1,0,0:0:0:0:
78,50,13725,6,0,B|39:37|12:8,2,75,2|2|0,1:2|0:0|0:0,0:0:0:0:
138,0,14582,1,8,1:0:0:0:
205,76,14796,1,0,0:0:0:0:
224,175,15010,1,0,0:0:0:0:
192,271,15225,1,0,0:0:0:0:
28,351,15439,37,4,3:1:0:0:
255,339,15653,2,0,B|202:344|131:303|106:254,1,179.999994506836,2|0,0:1|0:0,1:1:0:0:
133,178,16081,1,2,3:0:0:0:
28,351,16295,5,8,1:0:0:0:
106,254,16510,1,0,0:0:0:0:
143,259,16617,1,0,0:0:0:0:
174,243,16724,1,0,0:0:0:0:
255,339,16938,1,0,0:0:0:0:
28,351,17153,85,2,1:2:0:0:
133,178,17475,5,2,0:0:0:0:
255,339,17796,85,0,0:0:0:0:
28,351,18010,5,8,1:0:0:0:
174,243,18225,1,0,3:0:0:0:
142,259,18332,1,0,0:0:0:0:
106,254,18439,1,0,0:0:0:0:
255,339,18653,1,0,0:0:0:0:
283,70,18867,85,0,3:0:0:0:
506,36,19082,2,0,B|511:89|470:160|421:185,1,179.999994506836,2|0,0:1|0:0,1:1:0:0:
425,261,19510,1,2,0:3:0:0:
283,70,19725,5,8,1:0:0:0:
386,193,19939,1,0,0:0:0:0:
421,185,20046,1,0,0:0:0:0:
456,190,20153,1,0,0:0:0:0:
506,36,20367,1,0,0:0:0:0:
283,70,20582,85,2,1:2:0:0:
425,261,20903,5,2,0:0:0:0:
506,36,21225,85,0,0:0:0:0:
283,70,21439,5,8,1:0:0:0:
456,190,21653,1,0,3:0:0:0:
421,185,21760,1,0,0:0:0:0:
386,193,21867,1,0,0:0:0:0:
506,36,22081,1,0,0:0:0:0:
271,198,22296,85,4,3:1:0:0:
39,187,22510,2,0,B|41:209|84:239|158:192|126:54,1,179.999994506836,2|0,0:1|0:0,1:1:0:0:
170,33,22939,1,2,3:0:0:0:
271,198,23153,5,8,1:0:0:0:
202,106,23367,1,0,0:0:0:0:
166,113,23475,1,0,0:0:0:0:
133,103,23582,1,0,0:0:0:0:
39,187,23796,1,0,0:0:0:0:
271,198,24010,85,2,1:2:0:0:
170,33,24332,5,2,0:0:0:0:
39,187,24653,85,0,0:0:0:0:
271,198,24867,5,8,1:0:0:0:
133,103,25081,1,0,3:0:0:0:
166,113,25188,1,0,0:0:0:0:
202,106,25296,1,0,0:0:0:0:
39,187,25510,1,0,0:0:0:0:
294,295,25725,85,0,3:0:0:0:
288,113,25939,2,0,B|338:103|375:142|356:149|394:188|444:179,1,179.999994506836,2|0,0:1|0:0,1:1:0:0:
512,136,26367,1,2,0:3:0:0:
294,295,26582,5,8,1:0:0:0:
321,223,26796,1,0,0:0:0:0:
351,242,26904,1,0,0:0:0:0:
367,273,27011,1,0,0:0:0:0:
294,295,27225,1,0,0:0:0:0:
48,154,28939,1,0,0:0:0:0:
226,99,29153,21,4,3:1:0:0:
48,154,29367,2,0,B|112:134|192:164|227:229,1,209.999993591309,2|0,0:1|0:0,1:1:0:0:
224,307,29796,1,2,0:3:0:0:
338,366,30010,6,0,B|392:312|390:240,1,139.999995727539,8|0,1:0|0:0,0:0:0:0:
323,190,30653,1,0,0:0:0:0:
501,70,30867,86,0,B|517:103|509:138,1,69.9999978637696,2|0,1:2|3:0,0:0:0:0:
446,176,31510,1,0,0:0:0:0:
330,63,31725,5,8,1:0:0:0:
255,26,31939,2,0,B|178:26|129:78,1,139.999995727539,0|0,3:0|0:0,0:0:0:0:
266,215,32582,85,0,3:0:0:0:
52,271,32796,2,0,B|-4:257|29:180|89:163|144:187|155:219,1,209.999993591309,2|0,0:1|0:0,1:1:0:0:
207,277,33225,1,2,0:3:0:0:
383,277,33439,5,8,1:0:0:0:
317,326,33653,2,0,B|325:338|316:357|283:351|261:324,1,69.9999978637696,0|0,0:0|0:0,0:0:0:0:
276,121,34082,85,0,0:0:0:0:
442,126,34296,2,0,B|479:186|459:261,2,139.999995727539,2|0|8,1:0|3:0|1:0,0:0:0:0:
336,68,35367,6,0,B|317:38|282:25,1,69.9999978637696,0|0,3:0|0:0,0:0:0:0:
161,37,35796,1,0,0:0:0:0:
169,285,36010,85,4,3:1:0:0:
279,125,36225,2,0,B|221:108|174:149|196:160|147:201|90:186,1,209.999993591309,2|0,0:1|0:0,1:1:0:0:
24,144,36653,1,2,0:3:0:0:
232,336,36867,6,0,B|261:307|252:265|239:275|231:232|260:203,1,139.999995727539,8|0,1:0|0:0,0:0:0:0:
338,191,37510,1,0,0:0:0:0:
120,240,37725,86,0,B|124:259|144:265|143:257|163:264|168:283,1,69.9999978637696,2|0,1:2|3:0,0:0:0:0:
127,353,38367,1,0,0:0:0:0:
34,244,38582,5,8,1:0:0:0:
76,171,38796,2,0,B|105:142|147:151|137:164|180:172|209:143,1,139.999995727539,0|0,3:0|0:0,0:0:0:0:
329,280,39439,85,0,3:0:0:0:
427,57,39653,2,0,B|486:88|521:165|500:236,1,209.999993591309,2|0,0:1|0:0,1:1:0:0:
433,285,40082,1,2,0:3:0:0:
272,343,40296,5,8,1:0:0:0:
260,235,40510,2,0,B|279:205|314:192,1,69.9999978637696,0|0,0:0|0:0,0:0:0:0:
433,285,40939,85,0,0:0:0:0:
197,292,41153,2,0,B|145:243|145:165,2,139.999995727539,2|0|8,1:0|3:0|1:0,0:0:0:0:
215,120,42225,1,0,3:0:0:0:
39,265,42439,5,8,1:0:0:0:
406,50,42760,37,0,3:0:0:0:
406,50,42867,2,0,B|415:78|410:99,1,50,4|0,3:1|0:0,0:0:0:0:
476,191,43082,2,0,B|445:132|368:97|297:118,1,209.999993591309,2|0,0:1|0:0,1:1:0:0:
242,176,43510,1,2,3:0:0:0:
86,158,43725,6,0,B|77:186|81:207,1,50,8|0,0:0|0:0,0:0:0:0:
42,276,43940,2,0,B|72:237|128:217|176:224,1,150,2|0,3:1|0:0,1:1:0:0:
246,258,44368,1,2,0:3:0:0:
449,185,44582,85,2,1:2:0:0:
366,352,44796,2,0,B|332:314|326:261,1,100,0|0,3:0|0:0,0:0:0:0:
292,193,45117,2,0,B|299:172|320:153,1,50,0|0,3:0|0:0,0:0:0:0:
325,76,45332,5,0,3:0:0:0:
325,76,45439,2,0,B|370:52|423:60,1,100,8|2,0:0|0:1,1:1:0:0:
129,160,45867,2,0,B|131:109|165:67,1,100,0|2,0:0|0:3,0:0:0:0:
213,6,46189,85,2,0:3:0:0:
213,6,46296,2,0,B|234:25|240:46,1,50,0|0,3:0|0:0,0:0:0:0:
325,76,46510,2,0,B|311:20|234:53|217:113|241:168|271:178,1,209.999993591309,2|0,0:1|0:0,1:1:0:0:
343,152,46939,1,0,3:0:0:0:
508,151,47153,6,0,B|486:170|480:191,1,50,8|0,0:0|0:0,0:0:0:0:
409,230,47367,2,0,B|419:189|474:213|486:256|469:295|447:303,1,150,2|0,0:1|0:0,0:0:0:0:
371,300,47796,1,2,0:3:0:0:
295,362,48010,85,2,1:2:0:0:
268,320,48117,1,0,0:0:0:0:
226,294,48224,1,0,0:0:0:0:
176,289,48331,1,0,0:0:0:0:
130,306,48438,1,0,3:0:0:0:
22,367,48653,5,0,0:0:0:0:
22,367,48760,1,0,0:0:0:0:
22,367,48867,2,0,B|24:316|58:274,1,100,8|2,0:0|3:1,0:0:0:0:
106,110,49296,2,0,B|53:115|16:150,1,100,0|2,0:0|0:3,0:0:0:0:
86,200,49617,85,2,0:3:0:0:
86,200,49724,2,0,B|112:213|123:231,1,50,0|0,3:0|0:0,0:0:0:0:
57,275,49939,2,0,B|115:292|162:251|140:240|189:199|246:214,1,209.999993591309,2|0,0:1|0:0,1:1:0:0:
295,284,50367,1,0,3:0:0:0:
475,56,50582,6,0,B|448:69|437:87,1,50,8|0,0:0|0:0,0:0:0:0:
491,149,50797,2,0,B|449:161|416:131|431:124|397:94|356:105,1,150,2|0,3:1|0:0,1:1:0:0:
294,152,51225,1,2,0:3:0:0:
71,111,51439,85,2,1:2:0:0:
178,20,51653,2,0,B|212:58|218:111,1,100,0|0,3:0|0:0,0:0:0:0:
151,158,51975,2,0,B|172:165|191:186,1,50,0|0,3:0|0:0,0:0:0:0:
142,280,52189,5,0,3:0:0:0:
142,280,52296,2,0,B|187:256|240:264,1,100,8|2,0:0|0:1,1:1:0:0:
370,180,52725,2,0,B|412:207|432:257,1,100,0|2,0:0|0:3,0:0:0:0:
384,337,53046,5,2,0:3:0:0:
384,337,53153,2,0,B|384:296|402:265,1,75,2|2,1:2|0:2,0:0:0:0:
156,90,55725,54,0,B|120:87|87:102,1,69.9999978637696,8|0,0:0|0:0,0:0:0:0:
357,321,56153,38,0,B|331:273|340:217,1,104.999996795654,0|0,0:0|0:0,0:0:0:0:
275,163,56582,38,0,B|294:127|335:115,1,80,6|0,3:1|0:0,1:1:0:0:
457,59,56796,1,0,0:0:0:0:
411,129,56903,2,0,B|384:81|337:56|277:55,1,160,2|0,0:1|0:0,1:1:0:0:
208,8,57225,2,0,B|187:45|199:84,1,80,2|0,3:1|0:0,1:1:0:0:
275,163,57439,53,8,0:0:0:0:
275,163,57867,1,0,0:0:0:0:
1,232,58296,54,0,B|45:220|82:251|65:260|101:291|145:278,1,160,6|0,3:1|0:0,1:1:0:0:
210,217,58617,1,2,0:1:0:0:
101,128,58725,2,0,B|130:158|129:200,1,80,0|0,3:0|0:0,1:1:0:0:
36,378,58939,2,0,B|65:347|64:305,1,80,2|0,0:1|0:0,1:1:0:0:
1,232,59153,37,8,0:0:0:0:
1,232,59582,1,0,0:0:0:0:
78,268,59796,37,2,0:3:0:0:
78,268,59903,1,2,0:3:0:0:
78,268,60010,2,0,B|108:238|150:239,1,80,6|0,3:1|0:0,1:1:0:0:
284,118,60225,1,0,0:0:0:0:
228,254,60332,2,0,B|187:247|141:204|166:153|204:148|226:168,1,160,2|0,0:1|0:0,1:1:0:0:
338,185,60653,2,0,B|338:227|307:256,1,80,2|0,3:1|0:0,1:1:0:0:
78,268,60867,53,8,0:0:0:0:
78,268,61296,1,0,0:0:0:0:
268,351,61725,54,0,B|295:303|342:278|402:277,1,160,6|0,3:1|0:0,1:1:0:0:
476,348,62046,1,2,0:1:0:0:
441,211,62153,2,0,B|451:170|489:150,1,80,0|0,3:0|0:0,1:1:0:0:
294,185,62367,2,0,B|281:225|302:261,1,80,2|0,0:1|0:0,1:1:0:0:
268,351,62582,37,8,0:0:0:0:
193,364,62903,1,0,3:0:0:0:
143,307,63225,1,0,3:0:0:0:
74,131,63439,37,6,3:1:0:0:
116,162,63546,1,0,0:0:0:0:
168,173,63653,1,0,0:0:0:0:
219,159,63760,2,0,B|171:132|146:85|145:25,1,160,2|0,0:1|0:0,1:1:0:0:
295,8,64082,2,0,B|307:49|285:85,1,80,2|0,3:1|0:0,1:1:0:0:
219,159,64296,53,8,0:0:0:0:
219,159,64725,1,0,0:0:0:0:
507,161,65153,54,0,B|463:173|426:142|443:133|407:102|363:115,1,160,6|0,3:1|0:0,1:1:0:0:
396,219,65475,1,2,0:1:0:0:
312,185,65582,2,0,B|270:194|250:232,1,80,0|0,3:0|0:0,1:1:0:0:
297,22,65796,2,0,B|338:10|374:32,1,80,2|0,0:1|0:0,1:1:0:0:
507,161,66010,37,8,0:0:0:0:
507,161,66439,1,0,0:0:0:0:
434,147,66653,37,2,0:3:0:0:
434,147,66760,1,2,0:3:0:0:
434,147,66867,2,0,B|436:123|405:76|337:86|328:124|341:151,1,160,6|0,3:1|0:0,0:0:0:0:
392,227,67189,1,0,0:0:0:0:
259,161,67296,2,0,B|247:120|269:84,1,80,2|0,0:1|0:0,0:0:0:0:
243,278,67510,2,0,B|263:240|304:230,1,80,2|0,3:1|0:0,0:0:0:0:
434,147,67725,53,8,0:0:0:0:
297,355,68582,54,0,B|270:307|223:282|163:281,1,160,6|0,3:1|0:0,1:1:0:0:
211,202,68903,1,2,0:1:0:0:
84,311,69010,2,0,B|72:270|94:234,1,80,0|0,3:0|0:0,1:1:0:0:
11,139,69225,2,0,B|31:101|72:91,1,80,2|0,0:1|0:0,1:1:0:0:
185,44,69439,86,0,B|176:72|181:93,1,50,8|0,0:0|0:0,0:0:0:0:
289,133,69653,2,0,B|326:170|378:173,1,100,0|0,3:0|0:0,0:0:0:0:
447,135,69975,5,0,3:0:0:0:
450,146,70081,1,8,0:0:0:0:
452,157,70188,1,0,3:0:0:0:
510,214,70296,86,0,B|472:234|462:275,1,80,6|0,3:1|0:0,1:1:0:0:
505,349,70510,1,0,0:0:0:0:
376,384,70617,2,0,B|328:357|303:310|302:250,1,160,2|0,0:1|0:0,1:1:0:0:
348,160,70939,2,0,B|357:201|395:221,1,80,2|0,3:1|0:0,1:1:0:0:
510,214,71153,70,0,B|519:162|498:116,1,100,8|0,0:0|0:0,0:0:0:0:
488,115,71475,1,2,0:0:0:0:
478,114,71582,2,0,B|448:70|400:53,1,100,0|2,1:0|0:3,0:0:0:0:
392,59,71904,1,0,0:0:0:0:
322,86,72010,38,0,B|278:74|241:105|258:114|222:145|178:132,1,160,6|0,3:1|0:0,1:1:0:0:
90,73,72332,1,2,0:1:0:0:
53,232,72439,2,0,B|82:200|124:201,1,80,0|0,3:0|0:0,1:1:0:0:
202,0,72653,2,0,B|200:42|230:72,1,80,2|0,0:1|0:0,1:1:0:0:
321,85,72867,69,8,0:0:0:0:
255,166,73082,1,0,3:0:0:0:
255,166,73189,1,2,0:0:0:0:
255,166,73296,2,0,B|273:216|259:265,1,100,0|2,1:0|0:3,0:0:0:0:
250,270,73617,1,2,0:3:0:0:
200,334,73725,6,0,B|168:305|169:263,1,80,6|0,3:1|0:0,1:1:0:0:
144,128,73939,1,0,0:0:0:0:
82,268,74046,2,0,B|73:297|22:288|2:210|44:180|99:176,1,160,2|0,0:1|0:0,1:1:0:0:
246,122,74367,2,0,B|214:151|215:193,1,80,2|0,3:1|0:0,1:1:0:0:
200,334,74582,70,0,B|230:290|277:273,1,100,8|0,0:0|0:0,0:0:0:0:
285,279,74904,1,2,0:0:0:0:
293,285,75011,2,0,B|345:275|391:297,1,100,0|2,1:0|0:3,0:0:0:0:
393,307,75333,1,0,0:0:0:0:
467,338,75439,38,0,B|419:311|394:264|393:204,1,160,6|0,3:1|0:0,1:1:0:0:
512,193,75760,1,2,0:1:0:0:
476,70,75867,2,0,B|444:99|445:141,1,80,0|0,3:0|0:0,1:1:0:0:
267,225,76082,2,0,B|275:267|312:287,1,80,2|0,0:1|0:0,1:1:0:0:
467,338,76296,70,0,B|471:284|445:242,1,100,8|0,0:0|0:0,0:0:0:0:
436,246,76617,2,0,B|401:205|353:193,1,100,0|0,3:0|0:0,0:0:0:0:
344,198,76939,1,2,0:3:0:0:
335,202,77046,1,2,0:3:0:0:
266,224,77153,6,0,B|224:225|195:193,1,80,6|0,3:1|0:0,1:1:0:0:
71,253,77367,1,0,0:0:0:0:
62,161,77475,2,0,B|106:173|143:142|126:133|162:102|206:115,1,160,2|0,0:1|0:0,1:1:0:0:
307,9,77796,2,0,B|275:38|276:80,1,80,2|0,3:1|0:0,1:1:0:0:
266,224,78010,70,0,B|213:214|168:235,1,100,8|0,0:0|0:0,0:0:0:0:
167,245,78332,1,2,0:0:0:0:
165,255,78439,2,0,B|121:284|104:332,1,100,0|2,1:0|0:3,0:0:0:0:
110,341,78761,1,0,0:0:0:0:
185,367,78867,38,0,B|169:318|236:298|274:321|297:364,1,160,6|2,3:1|0:1,1:1:0:0:
443,271,79189,1,0,0:0:0:0:
401,384,79296,2,0,B|369:355|370:313,1,80,2|0,3:1|0:0,1:1:0:0:
314,172,79510,2,0,B|283:201|286:245,1,80,2|0,0:1|0:0,1:1:0:0:
185,367,79725,69,8,0:0:0:0:
218,286,79939,1,0,3:0:0:0:
218,286,80046,1,2,0:0:0:0:
218,286,80153,2,0,B|167:268|138:227,1,100,0|2,1:0|0:3,0:0:0:0:
128,230,80475,1,2,0:3:0:0:
50,246,80582,6,0,B|26:209|38:169,1,80,6|0,3:1|0:0,1:1:0:0:
138,65,80796,1,0,0:0:0:0:
14,79,80903,2,0,B|41:127|88:152|148:153,1,160,2|0,0:1|0:0,1:1:0:0:
287,93,81225,2,0,B|246:81|210:104,1,80,2|0,3:1|0:0,1:1:0:0:
50,246,81439,70,0,B|102:236|147:257,1,100,8|2,0:0|0:1,0:0:0:0:
155,250,81761,1,0,0:0:0:0:
162,243,81868,2,0,B|205:272|222:320,1,100,0|2,1:0|0:1,0:0:0:0:
231,324,82190,1,0,0:0:0:0:
239,328,82296,86,0,B|278:337|341:316|411:233|354:123|234:233|339:330,1,320,2|0,1:2|0:0,0:0:0:0:
423,97,84010,2,0,B|402:89|405:47|454:78|441:147,1,100,4|0,1:0|0:0,0:0:0:0:
396,191,84653,1,0,3:0:0:0:
338,70,84867,22,0,B|284:16|212:18,1,139.999995727539,8|0,1:0|0:0,0:0:0:0:
143,65,85510,1,0,0:0:0:0:
91,180,85725,86,0,B|56:172|22:187,1,69.9999978637696,2|0,1:2|3:0,0:0:0:0:
0,269,86367,1,0,0:0:0:0:
227,365,86582,5,8,1:0:0:0:
159,288,86796,2,0,B|157:216|211:162,1,139.999995727539,0|0,3:0|0:0,0:0:0:0:
466,58,87439,85,0,3:0:0:0:
370,162,87653,2,0,B|306:182|226:152|191:87,1,209.999993591309,2|0,0:1|0:0,1:1:0:0:
180,3,88082,1,2,0:3:0:0:
33,141,88296,5,8,1:0:0:0:
90,266,88510,2,0,B|55:253|36:223,1,69.9999978637696,0|0,0:0|0:0,0:0:0:0:
106,57,88939,85,0,0:0:0:0:
211,199,89153,2,0,B|249:265|228:334,2,139.999995727539,2|0|8,1:0|3:0|1:0,0:0:0:0:
311,377,90225,6,0,B|341:358|354:323,1,69.9999978637696,0|0,3:0|0:0,0:0:0:0:
434,293,90653,1,0,0:0:0:0:
313,66,90867,85,4,3:1:0:0:
429,196,91082,2,0,B|458:157|426:103|342:113|311:158|298:199,1,209.999993591309,2|0,0:1|0:0,1:1:0:0:
291,271,91510,1,2,0:3:0:0:
118,245,91725,6,0,B|98:219|119:183|175:189|196:219|204:247,1,139.999995727539,8|0,1:0|0:0,0:0:0:0:
222,319,92367,1,0,0:0:0:0:
401,296,92582,86,0,B|401:279|384:272|362:287|351:307,1,69.9999978637696,2|0,1:2|3:0,0:0:0:0:
341,384,93225,1,0,0:0:0:0:
308,195,93439,5,8,1:0:0:0:
121,219,93653,2,0,B|147:239|183:218|177:162|147:141|119:133,1,139.999995727539,0|0,3:0|0:0,0:0:0:0:
278,8,94296,85,0,3:0:0:0:
102,57,94510,2,0,B|160:40|207:81|185:92|234:133|291:118,1,209.999993591309,2|0,0:1|0:0,1:1:0:0:
346,57,94939,1,2,0:3:0:0:
501,134,95153,5,8,1:0:0:0:
366,180,95367,2,0,B|346:174|330:188|338:191|321:205|302:200,1,69.9999978637696,0|0,0:0|0:0,0:0:0:0:
285,362,95742,85,0,0:0:0:0:
496,323,96010,2,0,B|498:251|444:197,1,139.999995727539,2|0,1:0|0:0,0:0:0:0:
199,150,96867,70,0,B|195:112|171:86,1,69.9999978637696,8|0,1:0|0:0,0:0:0:0:
343,282,97296,2,0,B|346:244|370:218,1,69.9999978637696,8|0,1:0|0:0,0:0:0:0:
95,362,97725,86,0,B|104:334|99:313,1,50,4|0,3:1|0:0,0:0:0:0:
87,303,97939,2,0,B|151:323|231:293|266:228,1,209.999993591309,2|0,0:1|0:0,1:1:0:0:
263,213,98367,1,2,3:0:0:0:
260,199,98475,1,0,0:0:0:0:
257,185,98582,5,8,1:0:0:0:
302,216,98689,1,0,0:0:0:0:
357,217,98796,1,0,0:0:0:0:
403,187,98903,1,0,0:0:0:0:
425,136,99010,1,0,0:0:0:0:
415,82,99117,1,0,0:0:0:0:
376,43,99224,1,0,0:0:0:0:
322,32,99331,1,0,0:0:0:0:
271,52,99439,85,2,1:2:0:0:
273,65,99546,1,0,0:0:0:0:
275,78,99653,1,0,0:0:0:0:
314,117,99760,1,2,0:0:0:0:
312,130,99867,1,0,0:0:0:0:
310,143,99974,1,0,0:0:0:0:
274,183,100082,1,0,0:0:0:0:
276,196,100189,1,0,0:0:0:0:
278,209,100296,5,8,1:0:0:0:
230,180,100403,1,0,0:0:0:0:
175,183,100510,1,0,3:0:0:0:
130,215,100617,1,0,0:0:0:0:
91,253,100725,1,0,0:0:0:0:
37,252,100832,1,0,0:0:0:0:
0,212,100939,1,0,0:0:0:0:
4,157,101046,1,0,0:0:0:0:
45,122,101153,86,0,B|54:94|49:73,1,50,0|0,3:0|0:0,0:0:0:0:
36,63,101367,2,0,B|64:16|137:-7|189:11|185:75|157:85,1,209.999993591309,2|0,0:1|0:0,1:1:0:0:
163,99,101796,1,2,0:3:0:0:
166,112,101903,1,0,0:0:0:0:
169,125,102010,5,8,1:0:0:0:
204,82,102117,1,0,0:0:0:0:
256,62,102224,1,0,0:0:0:0:
310,71,102331,1,0,0:0:0:0:
353,106,102438,1,0,0:0:0:0:
373,158,102545,1,0,0:0:0:0:
365,212,102652,1,0,0:0:0:0:
330,256,102759,1,0,0:0:0:0:
277,276,102867,85,2,1:2:0:0:
263,273,102974,1,0,0:0:0:0:
249,271,103081,1,0,0:0:0:0:
208,309,103189,1,2,0:0:0:0:
194,312,103296,1,0,3:0:0:0:
180,314,103403,1,0,0:0:0:0:
142,273,103510,1,0,0:0:0:0:
128,270,103617,1,0,0:0:0:0:
114,268,103725,5,8,1:0:0:0:
131,215,103832,1,0,0:0:0:0:
171,177,103939,1,0,3:0:0:0:
225,163,104046,1,0,0:0:0:0:
279,176,104153,1,0,0:0:0:0:
320,212,104260,1,0,0:0:0:0:
374,225,104368,1,0,0:0:0:0:
427,211,104475,1,0,0:0:0:0:
468,173,104582,86,0,B|459:145|464:124,1,50,4|0,3:1|0:0,0:0:0:0:
473,113,104796,2,0,B|415:130|368:89|390:78|341:37|284:52,1,209.999993591309,2|0,0:1|0:0,1:1:0:0:
272,61,105225,1,2,3:0:0:0:
261,70,105332,1,0,0:0:0:0:
250,79,105439,5,8,1:0:0:0:
218,33,105546,1,0,0:0:0:0:
168,9,105653,1,0,0:0:0:0:
113,12,105760,1,0,0:0:0:0:
66,42,105867,1,0,0:0:0:0:
40,91,105974,1,0,0:0:0:0:
42,146,106081,1,0,0:0:0:0:
70,194,106188,1,0,0:0:0:0:
118,221,106296,85,2,1:2:0:0:
132,219,106403,1,0,0:0:0:0:
146,218,106510,1,0,0:0:0:0:
192,250,106617,1,2,0:0:0:0:
206,252,106724,1,0,3:0:0:0:
220,253,106831,1,0,0:0:0:0:
260,214,106939,1,0,0:0:0:0:
274,212,107046,1,0,0:0:0:0:
288,211,107153,5,8,1:0:0:0:
308,159,107260,1,0,0:0:0:0:
351,124,107367,1,0,3:0:0:0:
405,114,107474,1,0,0:0:0:0:
458,133,107581,1,0,0:0:0:0:
494,175,107688,1,0,0:0:0:0:
504,229,107795,1,0,0:0:0:0:
487,282,107902,1,0,0:0:0:0:
446,319,108010,86,0,B|418:310|397:315,1,50,0|0,3:0|0:0,0:0:0:0:
390,328,108225,2,0,B|410:264|380:184|315:149,1,209.999993591309,2|0,0:1|0:0,1:1:0:0:
301,154,108653,1,2,0:3:0:0:
288,159,108760,1,0,0:0:0:0:
275,164,108867,5,8,1:0:0:0:
302,212,108975,1,0,0:0:0:0:
306,267,109082,1,0,0:0:0:0:
285,319,109189,1,0,0:0:0:0:
245,357,109296,1,0,0:0:0:0:
192,373,109403,1,0,0:0:0:0:
137,365,109510,1,0,0:0:0:0:
91,334,109617,1,0,0:0:0:0:
62,286,109725,85,6,1:2:0:0:
65,272,109832,1,0,0:0:0:0:
67,259,109939,1,0,0:0:0:0:
29,217,110046,1,2,0:0:0:0:
26,203,110153,1,0,0:0:0:0:
24,190,110260,1,0,0:0:0:0:
58,146,110367,1,0,0:0:0:0:
61,132,110474,1,0,0:0:0:0:
64,120,110582,86,0,B|99:111|131:126,1,69.9999978637696,8|0,0:0|0:0,0:0:0:0:
172,51,110796,2,0,B|203:70|214:103,1,69.9999978637696,8|0,0:0|0:0,0:0:0:0:
296,79,111010,2,0,B|303:115|288:146,1,69.9999978637696,8|0,0:0|0:0,0:0:0:0:
364,187,111225,2,0,B|360:205|336:217,2,34.9999989318848,2|0|0,0:3|0:0|0:0,0:0:0:0:
134,354,111439,86,0,B|154:316|142:277,1,80,6|0,3:1|0:0,1:1:0:0:
52,268,111653,2,0,B|96:280|133:249|116:240|152:209|196:222,1,160,0|0,0:0|0:0,0:0:0:0:
190,136,111975,1,0,0:0:0:0:
77,110,112082,2,0,B|56:147|68:186,1,80,2|0,3:1|0:0,1:1:0:0:
134,354,112296,53,8,0:0:0:0:
134,354,112725,1,0,0:0:0:0:
419,202,113153,54,0,B|410:166|384:154|324:171|320:248,1,160,6|0,3:1|0:0,1:1:0:0:
436,288,113475,1,2,0:1:0:0:
403,357,113582,2,0,B|362:357|332:326,1,80,0|0,3:0|0:0,1:1:0:0:
253,191,113796,2,0,B|282:160|323:160,1,80,2|0,0:1|0:0,1:1:0:0:
419,202,114010,37,8,0:0:0:0:
419,202,114439,1,0,0:0:0:0:
487,144,114653,37,2,0:3:0:0:
487,144,114760,1,2,0:3:0:0:
487,144,114867,2,0,B|475:103|439:84,1,80,6|0,3:1|0:0,1:1:0:0:
333,2,115082,1,0,0:0:0:0:
481,6,115189,2,0,B|454:54|407:79|347:80,1,160,2|0,0:1|0:0,1:1:0:0:
226,119,115510,2,0,B|238:78|274:59,1,80,2|0,3:1|0:0,1:1:0:0:
487,144,115725,53,8,0:0:0:0:
487,144,116153,1,0,0:0:0:0:
356,331,116582,54,0,B|312:344|276:313|293:304|256:273|212:285,1,160,6|0,3:1|0:0,1:1:0:0:
177,187,116903,1,2,0:1:0:0:
143,332,117010,2,0,B|122:294|134:255,1,80,0|0,3:0|0:0,1:1:0:0:
300,180,117225,2,0,B|312:219|291:257,1,80,2|0,0:1|0:0,1:1:0:0:
357,332,117439,37,8,0:0:0:0:
433,324,117760,1,0,3:0:0:0:
469,254,118082,1,0,3:0:0:0:
496,57,118296,37,6,3:1:0:0:
444,49,118403,1,0,0:0:0:0:
397,72,118510,1,0,0:0:0:0:
372,119,118617,2,0,B|409:138|395:198|332:216|288:182,1,160,2|0,0:1|0:0,1:1:0:0:
253,26,118939,2,0,B|294:15|328:37,1,80,2|0,3:1|0:0,1:1:0:0:
496,57,119153,53,8,0:0:0:0:
496,57,119582,1,0,0:0:0:0:
336,333,120010,54,0,B|350:279|335:229|293:185,1,160,6|0,3:1|0:0,1:1:0:0:
165,238,120332,1,2,0:1:0:0:
261,106,120439,2,0,B|224:128|215:167,1,80,0|0,3:0|0:0,1:1:0:0:
86,277,120653,2,0,B|108:313|147:322,1,80,2|0,0:1|0:0,1:1:0:0:
336,333,120867,37,8,0:0:0:0:
336,333,121296,1,0,0:0:0:0:
263,366,121510,37,2,0:3:0:0:
263,366,121617,1,2,0:3:0:0:
263,366,121725,2,0,B|233:335|235:294,1,80,6|0,3:1|0:0,0:0:0:0:
153,149,121939,1,0,0:0:0:0:
103,258,122046,2,0,B|147:271|183:240|166:231|203:200|247:212,1,160,0|0,0:0|0:0,0:0:0:0:
329,183,122367,2,0,B|341:222|320:259,1,80,2|0,3:1|0:0,0:0:0:0:
263,366,122582,53,8,0:0:0:0:
34,206,123439,54,0,B|20:152|35:102|77:58,1,160,6|0,3:1|0:0,1:1:0:0:
12,4,123760,1,2,0:1:0:0:
112,171,123867,2,0,B|150:192|189:180,1,80,2|0,3:1|0:0,1:1:0:0:
158,37,124082,2,0,B|169:79|205:98,1,80,0|0,0:0|3:0,0:0:0:0:
274,211,124296,86,0,B|296:199|322:204,1,50,8|0,0:0|0:0,0:0:0:0:
276,336,124510,2,0,B|283:311|305:296,1,50,0|0,3:0|0:0,0:0:0:0:
512,229,124725,5,8,0:0:0:0:
440,216,124832,1,8,0:0:0:0:
386,170,124939,1,8,0:0:0:0:
363,102,125046,1,8,0:0:0:0:
379,33,125153,86,0,B|341:9|293:17,1,89.9999972534181,6|0,3:1|0:0,1:1:0:0:
77,44,125367,1,0,1:0:0:0:
46,114,125475,1,2,0:1:0:0:
96,172,125582,6,0,B|134:148|182:156,1,89.9999972534181,8|0,0:0|0:0,1:1:0:0:
176,50,125796,2,0,B|219:59|248:99,1,89.9999972534181,2|0,1:0|0:0,1:1:0:0:
218,345,126010,86,0,B|202:285|219:229|265:180,1,179.999994506836,2|0,3:2|1:0,1:1:0:0:
362,121,126332,1,2,0:0:0:0:
368,225,126439,6,0,B|369:270|387:305|424:326,1,119.999996337891,8|2,0:0|1:3,1:1:0:0:
496,334,126760,1,0,0:0:0:0:
474,263,126867,86,0,B|478:214|511:184,1,89.9999972534181,2|0,3:1|0:0,1:1:0:0:
461,41,127082,1,0,1:0:0:0:
392,75,127189,1,2,0:1:0:0:
321,45,127296,6,0,B|287:75|283:123,1,89.9999972534181,8|0,0:0|0:0,0:0:0:0:
420,167,127510,2,0,B|375:165|337:196,1,89.9999972534181,2|0,1:0|0:0,1:1:0:0:
90,254,127725,86,0,B|139:269|180:234|161:224|203:189|252:203,1,179.999994506836,2|0,3:2|1:0,1:1:0:0:
402,248,128046,1,2,0:0:0:0:
346,321,128153,6,0,B|311:331|282:306|295:299|266:275|231:284,1,119.999996337891,8|2,0:0|1:3,1:1:0:0:
182,341,128475,1,2,0:3:0:0:
112,373,128582,86,0,B|64:360|40:322,1,89.9999972534181,2|0,3:1|0:0,1:1:0:0:
41,113,128796,1,0,1:0:0:0:
101,159,128903,1,2,0:1:0:0:
177,165,129010,6,0,B|224:152|248:114,1,89.9999972534181,8|0,0:0|0:0,1:1:0:0:
97,47,129225,2,0,B|139:71|182:62,1,89.9999972534181,2|0,1:0|0:0,1:1:0:0:
383,17,129439,86,0,B|338:-2|298:47|322:123|365:160,1,179.999994506836,2|0,3:2|1:0,1:1:0:0:
430,199,129760,1,2,0:0:0:0:
502,147,129867,6,0,B|529:135|553:165|538:210|512:232,1,119.999996337891,8|2,0:0|1:3,1:1:0:0:
450,273,130189,1,0,0:0:0:0:
374,262,130296,86,0,B|329:260|291:291,1,89.9999972534181,2|0,3:1|0:0,1:1:0:0:
24,342,130510,1,0,1:0:0:0:
76,286,130617,1,2,0:1:0:0:
70,209,130725,6,0,B|115:207|153:238,1,89.9999972534181,8|0,0:0|0:0,0:0:0:0:
194,151,130939,2,0,B|227:181|232:230,1,89.9999972534181,2|0,1:0|0:0,1:1:0:0:
328,354,131153,86,0,B|312:294|329:238|375:189,1,179.999994506836,2|0,3:2|1:0,1:1:0:0:
485,172,131475,1,2,0:0:0:0:
411,88,131582,6,0,B|367:77|328:85|298:115,1,119.999996337891,8|2,0:0|1:3,1:1:0:0:
230,140,131903,1,2,0:3:0:0:
158,126,132010,86,0,B|124:95|119:46,1,89.9999972534181,2|0,3:1|0:0,1:1:0:0:
0,222,132225,1,0,1:0:0:0:
22,295,132332,1,2,0:1:0:0:
87,334,132439,6,0,B|42:336|4:305,1,89.9999972534181,8|0,0:0|0:0,1:1:0:0:
94,182,132653,2,0,B|98:230|132:261,1,89.9999972534181,2|0,1:0|0:0,1:1:0:0:
208,226,132867,86,0,B|268:210|324:227|373:273,1,179.999994506836,2|0,3:2|1:0,1:1:0:0:
423,337,133189,1,2,0:0:0:0:
439,342,133296,6,0,B|418:306|421:267|443:227,1,119.999996337891,8|2,0:0|1:3,1:1:0:0:
512,192,133617,1,0,0:0:0:0:
445,152,133725,86,0,B|414:118|365:113,1,89.9999972534181,2|0,3:1|0:0,1:1:0:0:
189,23,133939,1,2,1:0:0:0:
262,0,134046,1,0,0:0:0:0:
322,46,134153,6,0,B|288:77|283:126,1,89.9999972534181,8|0,0:0|0:0,0:0:0:0:
226,187,134367,2,0,B|195:148|198:103,1,89.9999972534181,2|0,1:0|0:0,1:1:0:0:
370,217,134582,86,0,B|321:203|279:238|298:248|257:283|208:268,1,179.999994506836,2|0,3:2|1:0,1:1:0:0:
147,211,134903,1,2,0:0:0:0:
132,202,135010,6,0,B|97:192|68:217|81:224|52:248|17:239,1,119.999996337891,8|2,0:0|1:3,1:1:0:0:
17,165,135332,1,2,0:3:0:0:
69,113,135439,86,0,B|35:82|30:33,1,89.9999972534181,2|0,3:1|0:0,1:1:0:0:
203,18,135653,1,0,1:0:0:0:
240,84,135760,1,2,0:1:0:0:
201,150,135867,6,0,B|198:104|229:65,1,89.9999972534181,8|0,0:0|0:0,1:1:0:0:
331,223,136082,2,0,B|284:228|253:262,1,89.9999972534181,2|0,1:0|0:0,1:1:0:0:
341,384,136296,86,0,B|394:352|422:301|424:234,1,179.999994506836,2|2,3:2|1:0,1:1:0:0:
492,185,136617,1,2,0:0:0:0:
502,171,136725,6,0,B|492:130|462:105|418:92,1,119.999996337891,8|2,0:0|1:3,0:0:0:0:
346,90,137046,1,0,0:0:0:0:
346,17,137153,86,0,B|301:4|259:25,1,89.9999972534181,2|0,3:1|0:0,1:1:0:0:
80,58,137367,1,0,1:0:0:0:
122,122,137475,1,0,0:0:0:0:
93,192,137582,6,0,B|139:191|174:222,1,89.9999972534181,8|0,0:0|0:0,0:0:0:0:
276,226,137796,2,0,B|271:177|239:145,1,89.9999972534181,0|0,1:0|0:0,1:1:0:0:
268,52,138010,85,2,3:1:0:0:
59,30,138225,1,0,3:0:0:0:
59,30,138332,2,0,B|27:66|28:112,1,89.9999972534181,8|2,0:0|0:1,0:0:0:0:
106,264,138546,5,0,3:0:0:0:
93,192,138653,1,8,0:0:0:0:
163,179,138760,1,0,3:0:0:0:
176,251,138867,1,4,3:1:0:0:
364,249,152582,6,0,B|317:256|294:288|312:296|287:327|235:335,1,150,4|0,3:1|0:0,0:0:0:0:
116,303,152992,2,0,B|130:310|149:312|164:310,1,50,8|0,0:0|0:0,0:0:0:0:
228,251,153198,1,0,1:0:0:0:
217,217,153301,1,0,0:0:0:0:
188,194,153403,1,0,3:0:0:0:
246,333,153609,1,0,1:0:0:0:
226,118,153814,2,0,B|211:110|192:108|177:110,1,50,8|0,0:0|0:0,0:0:0:0:
62,225,154020,1,0,1:0:0:0:
377,271,154225,6,0,B|329:270|302:297|318:309|288:334|235:333,1,150,0|0,3:1|0:0,0:0:0:0:
123,282,154619,2,0,B|136:292|154:296|169:297,1,50,8|0,0:0|0:0,0:0:0:0:
242,249,154817,1,0,1:0:0:0:
238,215,154915,1,0,0:0:0:0:
213,186,155014,1,0,3:0:0:0:
246,333,155211,1,0,1:0:0:0:
263,118,155409,2,0,B|249:107|231:103|216:102,1,50,8|0,0:0|0:0,0:0:0:0:
73,206,155606,1,0,1:0:0:0:
385,294,155803,86,0,B|338:284|306:307|320:321|286:341|235:331,1,150,0|0,3:1|0:0,0:0:0:0:
133,262,156187,2,0,B|144:274|161:282|175:285,1,50,8|0,0:0|0:0,0:0:0:0:
257,249,156379,1,0,1:0:0:0:
259,215,156476,1,0,0:0:0:0:
239,182,156572,1,0,3:0:0:0:
246,333,156764,1,0,1:0:0:0:
300,124,156956,2,0,B|288:111|271:103|257:100,1,50,8|0,0:0|0:0,0:0:0:0:
88,188,157149,1,0,1:0:0:0:
391,319,157341,6,0,B|346:302|311:318|322:334|285:348|237:329,1,150,0|0,3:0|0:0,0:0:0:0:
148,243,157713,2,0,B|156:257|172:267|186:273,1,50,8|0,0:0|0:0,0:0:0:0:
365,219,157900,2,0,B|335:219|301:211|282:200,1,64.9999970245363,2|2,1:3|0:3,0:0:0:0:
181,60,158086,85,0,3:0:0:0:
181,60,158272,1,0,3:0:0:0:
218,195,158459,1,8,3:2:0:0:
181,60,158645,2,0,B|136:40|119:36|74:37,1,64.9999970245363,0|0,3:0|0:0,0:0:0:0:
8,152,158831,5,0,3:0:0:0:
8,152,159011,1,0,3:0:0:0:
123,126,159192,1,8,3:2:0:0:
218,195,159372,1,0,3:0:0:0:
63,224,159553,85,0,3:0:0:0:
63,224,159733,1,0,3:0:0:0:
157,134,159914,1,8,3:2:0:0:
286,149,160096,1,0,3:0:0:0:
145,248,160276,5,0,3:0:0:0:
145,248,160451,1,0,3:0:0:0:
208,119,160626,1,8,3:2:0:0:
347,86,160802,1,0,3:0:0:0:
212,223,160977,85,0,3:0:0:0:
212,223,161153,1,0,3:0:0:0:
255,71,161328,1,8,3:2:0:0:
399,8,161504,1,0,3:0:0:0:
315,174,161679,5,8,3:2:0:0:
315,174,161764,1,0,3:0:0:0:
315,174,161850,2,0,B|311:207|323:222,1,50,0|0,3:0|3:0,3:3:0:0:
472,104,162021,85,8,3:2:0:0:
472,104,162106,1,0,3:0:0:0:
472,104,162193,2,0,B|445:84|425:86,1,50,0|0,3:0|3:0,3:3:0:0:
465,283,162364,5,8,3:2:0:0:
465,283,162450,1,0,3:0:0:0:
465,283,162536,2,0,B|495:269|502:251,1,50,0|0,3:0|3:0,3:3:0:0:
416,171,162707,85,8,3:2:0:0:
402,185,162793,1,0,3:0:0:0:
411,203,162879,1,0,3:0:0:0:
431,199,162964,1,0,3:0:0:0:
433,179,163050,5,0,3:0:0:0:
76,252,163393,1,8,0:0:0:0:
433,179,163907,37,0,3:0:0:0:
76,252,164079,1,8,0:0:0:0:
254,16,164421,86,0,B|342:11|396:97|348:124|281:159|251:68,1,240,4|0,3:1|0:0,0:0:0:0:
185,67,164764,2,0,B|153:73|139:84|126:101,1,69.9999978637696,8|0,0:0|0:0,0:0:0:0:
160,285,164936,2,0,B|160:240|165:200|198:153,1,139.999995727539,0|2,1:0|1:0,1:1:0:0:
198,152,165279,6,0,B|206:183|210:202|241:226,1,50,0|0,3:0|0:0,0:0:0:0:
324,308,165450,2,0,B|371:319|417:311|458:286,1,139.999995727539,8|2,0:0|1:3,0:0:0:0:
377,180,165707,1,2,0:3:0:0:
313,230,165793,86,0,B|235:306|279:440|380:346|324:309,1,240,0|0,3:0|0:0,0:0:0:0:
313,230,166136,2,0,B|272:218|219:234|180:262,1,139.999995727539,8|0,0:0|1:0,0:0:0:0:
115,321,166393,1,0,0:0:0:0:
115,321,166479,1,2,1:0:0:0:
115,321,166650,6,0,B|101:294|95:280|94:258,1,50,0|0,3:0|0:0,0:0:0:0:
228,210,166821,2,0,B|222:223|200:247|181:261,1,69.9999978637696,8|0,0:0|0:0,0:0:0:0:
27,127,166993,1,2,1:3:0:0:
98,127,167079,1,2,0:3:0:0:
144,187,167164,86,0,B|218:215|267:158|245:148|288:84|390:132,1,240,0|0,3:1|0:0,0:0:0:0:
354,266,167507,2,0,B|344:254|331:225|326:201,1,69.9999978637696,8|0,0:0|0:0,0:0:0:0:
481,87,167679,2,0,B|443:119|424:161|420:209,1,139.999995727539,0|2,1:0|1:0,1:1:0:0:
420,208,168021,6,0,B|438:193|447:190|463:183,1,50,0|0,3:0|0:0,0:0:0:0:
378,347,168193,2,0,B|346:310|304:291|256:287,1,139.999995727539,8|2,0:0|1:3,0:0:0:0:
89,269,168450,1,2,0:3:0:0:
146,327,168536,86,0,B|177:304|206:213|130:252|123:157|163:98|284:205|173:225,1,255.000004863739,0|0,3:0|0:0,0:0:0:0:
89,269,168879,2,0,B|62:265|43:256|28:238,1,69.9999978637696,8|0,0:0|0:0,0:0:0:0:
130,69,169050,1,0,1:0:0:0:
130,69,169221,6,0,B|100:56|76:61|30:80,1,69.9999978637696,0|0,3:0|0:0,0:0:0:0:
241,95,169393,2,0,B|236:63|220:44|180:14,1,69.9999978637696,0|0,3:0|0:0,0:0:0:0:
267,215,169564,2,0,B|292:195|300:172|306:122,1,69.9999978637696,8|0,0:0|0:0,0:0:0:0:
411,46,169736,1,2,1:3:0:0:
395,118,169821,1,2,0:3:0:0:
383,190,169907,86,0,B|384:327|481:353|541:281|472:157|380:280,1,265.500008608818,0|0,3:1|0:0,0:0:0:0:
328,316,170250,2,0,B|289:316|258:303|224:271,1,69.9999978637696,8|0,0:0|0:0,0:0:0:0:
205,115,170421,2,0,B|181:157|177:203|190:250,1,139.999995727539,0|2,1:0|1:0,1:1:0:0:
190,250,170764,6,0,B|159:259|138:270|121:285,1,50,0|0,3:0|0:0,0:0:0:0:
19,118,170936,2,0,B|52:152|94:172|143:172,1,139.999995727539,8|2,0:0|1:3,0:0:0:0:
241,41,171193,1,2,0:3:0:0:
205,115,171279,86,0,B|279:143|328:86|306:76|349:12|451:60,1,240,0|0,3:0|0:0,0:0:0:0:
497,82,171621,2,0,B|521:122|529:168|517:215,1,139.999995727539,8|0,0:0|1:0,0:0:0:0:
478,294,171879,1,0,0:0:0:0:
478,294,171964,1,2,1:0:0:0:
478,294,172136,6,0,B|438:274|424:271|404:276,1,50,0|0,3:0|0:0,0:0:0:0:
220,336,172307,2,0,B|267:348|313:340|353:315,1,139.999995727539,8|2,0:0|1:3,0:0:0:0:
309,102,172564,1,2,0:3:0:0:
232,135,172650,86,0,B|178:241|289:303|316:255|351:188|264:160,1,240,0|0,3:1|0:0,0:0:0:0:
232,135,172993,2,0,B|210:133|190:142|168:161,1,69.9999978637696,8|0,0:0|0:0,0:0:0:0:
106,329,173164,2,0,B|81:288|73:242|85:195,1,139.999995727539,0|2,1:0|1:0,1:1:0:0:
86,194,173507,6,0,B|79:165|51:121|37:110,1,50,0|0,3:0|0:0,0:0:0:0:
20,0,173679,2,0,B|43:41|78:71|125:84,1,139.999995727539,8|2,0:0|1:3,0:0:0:0:
286,70,173936,1,2,0:3:0:0:
232,135,174021,86,0,B|245:198|306:103|274:50|169:28|97:112,1,240,0|0,3:0|0:0,0:0:0:0:
193,221,174364,2,0,B|227:241|265:239|290:225,1,80,8|0,0:0|0:0,0:0:0:0:
416,144,174536,1,0,1:0:0:0:
355,186,174621,1,0,0:0:0:0:
362,259,174707,5,0,3:0:0:0:
494,244,174879,1,0,3:0:0:0:
232,135,175050,1,8,0:0:0:0:
364,20,175222,1,2,1:3:0:0:
422,66,175307,1,2,0:3:0:0:
416,144,175393,86,0,B|339:162|297:100|320:92|285:24|178:59,1,240,4|0,3:1|0:0,0:0:0:0:
128,75,175736,2,0,B|91:84|67:108,1,69.9999978637696,8|0,0:0|0:0,0:0:0:0:
230,204,175907,2,0,B|240:167|231:134,1,69.9999978637696,0|0,1:0|0:0,0:0:0:0:
47,198,176079,5,2,1:0:0:0:
47,198,176250,2,0,B|69:218|84:225|107:236,1,50,0|0,3:0|0:0,0:0:0:0:
229,298,176421,2,0,B|269:270|315:262|361:272,1,139.999995727539,8|2,0:0|1:3,0:0:0:0:
473,326,176679,1,2,0:3:0:0:
416,384,176765,86,0,B|385:361|356:270|432:309|439:214|399:155|278:262|389:282,1,255.000004863739,0|0,3:0|0:0,0:0:0:0:
473,326,177107,2,0,B|491:303|500:290|510:220,1,69.9999978637696,8|0,0:0|0:0,0:0:0:0:
469,120,177279,2,0,B|429:92|383:84|337:94,1,139.999995727539,0|2,1:0|1:0,1:1:0:0:
335,94,177621,6,0,B|312:105|280:110|260:104,1,50,0|0,3:0|0:0,0:0:0:0:
145,37,177793,2,0,B|198:60|225:85|235:116,1,69.9999978637696,8|0,0:0|0:0,0:0:0:0:
161,253,177964,1,2,1:3:0:0:
112,193,178050,1,2,0:3:0:0:
137,122,178136,86,0,B|190:174|155:245|137:231|104:287|157:350,1,240,0|0,3:1|0:0,0:0:0:0:
227,384,178479,2,0,B|275:379|316:356|345:317,1,139.999995727539,8|0,0:0|1:0,0:0:0:0:
369,236,178736,1,0,0:0:0:0:
369,236,178821,1,2,1:0:0:0:
369,236,178993,6,0,B|338:225|324:213|307:177,1,50,0|0,3:0|0:0,0:0:0:0:
172,42,179164,2,0,B|201:80|242:103|290:108,1,139.999995727539,8|2,0:0|1:3,0:0:0:0:
442,43,179421,1,2,0:3:0:0:
382,100,179507,86,0,B|314:219|385:290|473:257|475:115|334:176,1,265.500008608818,0|0,3:0|0:0,0:0:0:0:
290,108,179850,2,0,B|254:117|237:133|206:179,1,69.9999978637696,8|0,0:0|0:0,0:0:0:0:
228,296,180021,1,0,1:0:0:0:
228,296,180193,6,0,B|211:271|207:249|206:230,1,69.9999978637696,0|0,3:0|0:0,0:0:0:0:
158,97,180364,2,0,B|149:112|141:134|143:164,1,69.9999978637696,0|0,3:0|0:0,0:0:0:0:
203,384,180536,2,0,B|175:370|161:353|151:338,1,69.9999978637696,8|0,0:0|0:0,0:0:0:0:
44,155,180707,1,2,1:3:0:0:
32,229,180793,1,2,0:3:0:0:
23,304,180879,86,0,B|10:367|-51:272|-19:219|86:197|158:281,1,240,0|0,3:1|0:0,0:0:0:0:
228,296,181221,2,0,B|265:293|284:280|323:240,1,69.9999978637696,8|0,0:0|0:0,0:0:0:0:
253,73,181393,2,0,B|213:101|189:141|183:189,1,139.999995727539,0|2,1:0|1:0,1:1:0:0:
183,189,181736,6,0,B|204:203|220:207|255:210,1,50,0|0,3:0|0:0,0:0:0:0:
442,139,181907,2,0,B|406:171|362:187|313:183,1,139.999995727539,8|2,0:0|1:3,0:0:0:0:
328,12,182164,1,2,0:3:0:0:
354,92,182250,86,0,B|277:110|235:48|258:40|223:-28|116:7,1,240,0|0,3:0|0:0,0:0:0:0:
23,99,182593,2,0,B|7:122|-4:161|9:204,1,69.9999978637696,8|0,0:0|0:0,0:0:0:0:
150,206,182764,2,0,B|154:157|138:113|106:77,1,139.999995727539,0|2,1:0|1:0,1:1:0:0:
106,77,183107,6,0,B|136:79|161:95,1,50,0|0,3:0|0:0,0:0:0:0:
238,226,183279,2,0,B|266:222|283:216|315:201,1,69.9999978637696,8|0,0:0|0:0,0:0:0:0:
283,66,183450,2,0,B|264:87|245:108|232:156,1,85.0000016212464,2|2,1:3|0:3,0:0:0:0:
264,308,183621,85,0,3:0:0:0:
264,308,183793,1,0,3:0:0:0:
396,271,183964,1,8,3:2:0:0:
494,368,184136,1,0,3:0:0:0:
309,186,184307,5,0,3:0:0:0:
309,186,184479,1,0,3:0:0:0:
454,222,184650,1,8,3:2:0:0:
494,368,184822,1,0,3:0:0:0:
377,87,184993,85,0,3:0:0:0:
377,87,185079,1,0,3:0:0:0:
377,87,185164,2,0,B|345:83|329:79|304:67,1,75.0000028610231,0|0,3:0|3:0,0:0:0:0:
239,213,185336,5,8,3:2:0:0:
239,213,185422,1,0,3:0:0:0:
239,213,185507,2,0,B|223:178|218:156|222:113,1,75.0000028610231,0|0,3:0|3:0,0:0:0:0:
58,151,185679,85,0,3:0:0:0:
58,151,185765,1,0,3:0:0:0:
58,151,185850,2,0,B|79:120|96:104|134:86,1,75.0000028610231,0|0,3:0|3:0,0:0:0:0:
304,67,186021,86,0,B|329:79|345:83|377:87,1,75.0000028610231,8|0,3:2|0:0,0:0:0:0:
448,32,186364,38,0,B|422:73|405:136|421:201,1,160,6|0,3:1|1:0,1:1:0:0:
502,251,186621,2,0,B|465:265|422:253|436:235|403:220|343:240,1,160,2|0,0:1|0:0,0:0:0:0:
311,339,186879,2,0,B|344:339|362:331|385:314,1,80,2|0,1:0|0:0,1:1:0:0:
279,133,187050,1,2,1:0:0:0:
279,133,187221,2,0,B|261:161|259:180|262:209,1,80,0|0,3:0|0:0,0:0:0:0:
230,308,187393,6,0,B|208:272|189:261|155:253,1,93.75,8|2,0:0|0:3,0:0:0:0:
68,241,187736,86,0,B|9:183|6:97,1,160,2|0,3:1|1:0,1:1:0:0:
119,4,187993,1,2,0:1:0:0:
94,86,188079,2,0,B|128:85|140:82|177:71,1,80,8|0,0:0|0:0,1:1:0:0:
284,3,188250,2,0,B|315:15|326:21|356:45,1,80,2|0,1:0|0:0,1:1:0:0:
462,132,188421,1,2,1:0:0:0:
462,132,188593,2,0,B|430:144|419:150|389:174,1,80,0|0,3:0|0:0,0:0:0:0:
210,239,188764,6,0,B|192:218|246:210|291:265,1,93.75,8|2,0:0|0:3,0:0:0:0:
331,325,189107,86,0,B|368:339|411:327|397:309|430:294|490:314,1,160,2|0,3:1|1:0,1:1:0:0:
450,383,189364,2,0,B|407:348|369:282|357:213,1,160,2|0,0:1|0:0,0:0:0:0:
408,92,189621,2,0,B|408:141|388:186|373:210,1,80,2|0,1:0|0:0,1:1:0:0:
284,33,189793,1,2,1:0:0:0:
284,33,189964,2,0,B|279:17|299:62|299:111,1,80,0|0,3:0|0:0,0:0:0:0:
178,168,190136,6,0,B|178:126|190:106|215:83,1,93.75,8|2,0:0|0:3,0:0:0:0:
153,26,190479,86,2,B|47:-28|-15:83|33:110|100:145|128:58,1,240,2|2,3:1|0:1,1:1:0:0:
102,98,190821,1,8,0:0:0:0:
83,312,190993,1,2,1:0:0:0:
277,231,191164,6,0,B|236:229|211:238|169:264,1,80,2|0,3:1|0:0,1:1:0:0:
83,312,191336,2,0,B|105:277|109:251|108:201,1,80,0|0,3:0|0:0,1:1:0:0:
102,98,191507,86,0,B|118:135|127:148|178:179,1,93.75,8|2,0:0|0:3,0:0:0:0:
277,231,191850,6,0,B|314:245|357:233|343:215|376:200|436:220,1,160,6|0,3:1|1:0,1:1:0:0:
484,314,192107,1,2,0:1:0:0:
416,372,192193,2,0,B|401:343|395:327|396:277,1,80,8|0,0:0|0:0,1:1:0:0:
491,157,192364,2,0,B|506:128|512:112|511:62,1,80,2|0,1:0|0:0,1:1:0:0:
413,2,192536,1,2,1:0:0:0:
413,2,192707,2,0,B|384:17|368:23|318:22,1,80,0|0,3:0|0:0,0:0:0:0:
157,45,192879,86,0,B|198:46|220:56|262:96,1,93.75,8|2,0:0|0:3,0:0:0:0:
256,168,193221,6,0,B|212:196|166:211|101:204,1,160,2|0,3:1|1:0,1:1:0:0:
0,284,193479,2,0,B|62:277|108:292|152:321,1,160,2|0,0:1|0:0,0:0:0:0:
223,372,193736,2,0,B|252:368|269:365|306:347,1,80,2|0,1:0|0:0,1:1:0:0:
355,196,193907,1,2,1:0:0:0:
355,196,194079,2,0,B|335:223|332:242|330:287,1,80,0|0,3:0|0:0,0:0:0:0:
511,182,194250,86,0,B|529:161|475:153|430:208,1,93.75,8|2,0:0|0:3,0:0:0:0:
355,196,194593,6,2,B|249:169|220:31|355:62|325:122,1,240,2|2,3:1|0:1,1:1:0:0:
231,216,194936,2,0,B|189:213|153:192|124:165,1,80,8|0,0:0|0:0,1:1:0:0:
50,160,195107,2,0,B|78:203|93:249|86:314,1,160,2|0,1:0|1:0,1:1:0:0:
87,312,195450,2,0,B|83:310|119:289|161:286,1,80,2|0,3:1|0:0,1:1:0:0:
308,368,195621,1,8,0:0:0:0:
308,368,195793,2,0,B|273:344|252:308|256:308,1,80,2|0,1:0|0:0,1:1:0:0:
223,131,195964,86,0,B|266:102|312:87|377:94,1,160,2|2,3:1|1:0,1:1:0:0:
494,177,196221,1,0,0:0:0:0:
426,223,196307,2,0,B|349:241|307:179|330:171|295:103|188:138,1,240,8|0,0:0|0:0,1:1:0:0:
139,154,196650,1,2,3:1:0:0:
139,154,196821,1,0,3:0:0:0:
228,288,196993,6,0,B|238:257|244:233|243:196,1,75,8|2,0:0|0:3,0:0:0:0:
242,214,197336,86,0,B|255:271|284:318|322:348,1,160,6|0,3:1|1:0,1:1:0:0:
459,373,197593,1,2,0:1:0:0:
399,309,197679,2,0,B|405:256|433:222|451:201,1,80,8|0,0:0|0:0,1:1:0:0:
512,153,197850,2,0,B|505:100|477:66|459:45,1,80,2|0,1:0|0:0,1:1:0:0:
382,161,198021,1,2,1:0:0:0:
382,161,198193,2,0,B|333:140|290:147|262:152,1,80,0|0,3:0|0:0,0:0:0:0:
154,142,198364,6,0,B|123:133|103:119|82:84,1,93.75,8|2,0:0|0:3,0:0:0:0:
18,34,198707,86,0,B|47:77|61:123|55:185,1,160,2|0,3:1|1:0,1:1:0:0:
31,265,198964,2,0,B|68:279|111:267|97:249|130:234|190:254,1,160,2|0,0:1|0:0,0:0:0:0:
311,353,199221,2,0,B|261:355|224:320|211:287,1,80,2|0,1:0|0:0,1:1:0:0:
380,241,199393,1,2,1:0:0:0:
380,241,199564,2,0,B|363:257|338:271|307:268,1,80,0|0,3:0|0:0,0:0:0:0:
317,112,199736,6,0,B|334:90|351:142|305:196,1,93.75,8|2,0:0|0:3,0:0:0:0:
235,218,200079,86,0,B|203:176|165:147|103:133,1,160,2|0,3:1|1:0,1:1:0:0:
0,208,200336,1,2,0:1:0:0:
54,269,200421,2,0,B|94:258|115:250|145:219,1,80,8|0,0:0|0:0,1:1:0:0:
233,95,200593,2,0,B|236:66|233:51|225:16,1,80,2|0,1:0|0:0,1:1:0:0:
32,99,200764,1,2,1:0:0:0:
32,99,200936,2,0,B|66:122|85:133|128:136,1,80,0|0,3:0|0:0,0:0:0:0:
300,155,201107,6,0,B|327:124|348:113|380:111,1,93.75,8|2,0:0|0:3,0:0:0:0:
454,78,201450,86,2,B|475:110|471:205|413:143|374:229|391:299|541:239|444:183,1,255.000004863739,2|2,3:1|0:1,1:1:0:0:
465,200,201793,1,8,0:0:0:0:
257,230,201964,1,2,1:0:0:0:
477,360,202136,2,0,B|454:343|425:332|404:327,1,80,2|0,3:1|0:0,1:1:0:0:
328,291,202307,2,0,B|307:296|278:307|255:323,1,80,0|0,3:0|0:0,1:1:0:0:
151,347,202479,6,0,B|169:368|115:376|70:321,1,93.75,8|2,0:0|0:3,0:0:0:0:
37,257,202821,86,2,B|105:138|34:67|-54:100|-56:242|85:181,1,265.500008608818,6|2,3:1|0:1,1:1:0:0:
141,220,203164,2,0,B|168:209|187:200|205:165,1,80,8|0,0:0|0:0,1:1:0:0:
261,69,203336,2,0,B|315:50|348:65|334:83|377:95|414:81,1,160,2|0,1:0|1:0,1:1:0:0:
414,81,203679,2,0,B|400:106|391:125|400:164,1,80,2|0,3:1|0:0,1:1:0:0:
512,283,203850,1,8,0:0:0:0:
512,283,204021,2,0,B|496:258|484:241|446:229,1,80,2|0,1:0|0:0,1:1:0:0:
190,300,204193,6,0,B|227:335|271:357|334:360,1,160,2|2,3:1|1:0,1:1:0:0:
307,182,204450,1,0,0:0:0:0:
292,266,204536,2,0,B|321:264|342:262|370:236,1,80,8|0,0:0|0:0,1:1:0:0:
512,49,204707,2,0,B|448:52|405:74|367:109,1,160,2|0,1:0|1:0,1:1:0:0:
367,109,205050,2,0,B|337:107|316:105|288:79,1,80,0|0,3:0|0:0,0:0:0:0:
208,15,205221,86,0,B|229:-3|237:51|182:96,1,93.75,8|2,0:0|0:3,0:0:0:0:
118,129,205564,6,2,B|12:75|-50:186|-2:213|65:248|93:161,1,240,2|2,3:1|0:1,1:1:0:0:
152,209,205907,2,0,B|176:218|196:227|225:257,1,80,8|0,0:0|0:0,1:1:0:0:
357,324,206079,2,0,B|321:286|299:242|296:179,1,160,2|0,1:0|1:0,1:1:0:0:
296,179,206421,2,0,B|319:154|339:145|363:136,1,80,2|0,3:1|0:0,1:1:0:0:
512,94,206593,2,0,B|448:90|405:68|367:33,1,160,8|2,0:0|1:0,1:1:0:0:
48,162,206936,85,0,3:0:0:0:
282,320,207279,1,8,0:0:0:0:
48,162,207793,37,0,3:0:0:0:
282,320,207964,1,8,0:0:0:0:
307,252,208050,1,8,0:0:0:0:
237,263,208136,1,8,0:0:0:0:
372,184,208307,86,0,B|370:154|354:129,1,50,4|0,3:1|0:0,0:0:0:0:
437,96,208479,2,0,B|373:106|302:79|257:10,1,209.999993591309,2|0,0:1|0:0,1:1:0:0:
170,27,208821,1,2,3:0:0:0:
60,250,208993,6,0,B|62:220|78:195,1,50,8|0,0:0|0:0,0:0:0:0:
0,162,209164,2,0,B|47:170|101:149|134:98,1,150,2|0,3:1|0:0,1:1:0:0:
218,95,209507,1,2,0:3:0:0:
101,329,209679,85,2,1:2:0:0:
185,178,209850,2,0,B|234:179|280:208|290:221,1,100,0|0,3:0|0:0,0:0:0:0:
355,171,210107,2,0,B|378:192|388:211|392:239,1,50,0|0,3:0|0:0,0:0:0:0:
471,236,210279,5,0,3:0:0:0:
471,236,210364,2,0,B|476:315|423:412,1,150.000005722046,8|0,0:0|0:0,0:0:0:0:
237,295,210879,85,2,0:3:0:0:
237,295,210964,1,2,0:3:0:0:
237,295,211050,2,0,B|207:297|182:313,1,50,0|0,3:0|0:0,0:0:0:0:
84,294,211221,2,0,B|78:340|122:387|233:328|120:188,1,209.999993591309,2|0,0:1|0:0,1:1:0:0:
97,167,211564,1,0,3:0:0:0:
314,282,211736,6,0,B|327:255|325:225,1,50,8|0,0:0|0:0,0:0:0:0:
405,202,211907,2,0,B|391:218|368:238|301:202|369:119,1,150,2|0,0:1|0:0,0:0:0:0:
421,67,212250,1,2,0:3:0:0:
262,111,212421,85,2,1:2:0:0:
216,94,212507,1,0,0:0:0:0:
166,99,212593,1,0,0:0:0:0:
124,125,212679,1,0,0:0:0:0:
97,167,212764,1,0,3:0:0:0:
208,202,212936,5,0,0:0:0:0:
208,202,213021,1,0,0:0:0:0:
208,202,213107,1,8,0:0:0:0:
29,278,213279,2,0,B|108:273|205:326,1,150.000005722046,2|2,3:1|0:3,0:0:0:0:
252,356,213707,85,2,0:3:0:0:
252,356,213793,2,0,B|276:352|288:351|316:333,1,50,0|0,3:0|0:0,0:0:0:0:
433,384,213964,2,0,B|361:376|299:323|276:236,1,209.999993591309,2|0,0:1|0:0,1:1:0:0:
291,169,214307,1,0,3:0:0:0:
496,177,214479,6,0,B|480:197|474:211|467:261,1,50,8|0,0:0|0:0,0:0:0:0:
408,284,214650,2,0,B|385:245|363:186|395:93,1,150,2|0,3:1|0:0,1:1:0:0:
407,54,214993,1,2,0:3:0:0:
179,161,215164,85,2,1:2:0:0:
300,29,215336,2,0,B|255:35|230:44|182:87,1,100,0|0,3:0|0:0,0:0:0:0:
122,80,215593,2,0,B|116:84|99:104|86:155,1,50,0|0,3:0|0:0,0:0:0:0:
17,158,215764,1,0,3:0:0:0:
17,158,215850,2,0,B|-10:197|-19:270|4:329,1,150.000005722046,8|0,0:0|0:0,0:0:0:0:
259,226,216364,5,2,0:3:0:0:
259,226,216450,1,2,0:3:0:0:
259,226,216536,2,0,B|264:230|281:250|295:301,1,50,0|0,3:0|0:0,0:0:0:0:
309,351,216707,2,0,B|251:368|204:327|226:316|177:275|120:290,1,209.999993591309,2|0,0:1|0:0,1:1:0:0:
64,358,217050,1,0,3:0:0:0:
162,65,217221,86,0,B|142:87|135:116,1,50,8|0,0:0|0:0,0:0:0:0:
132,189,217393,2,0,B|174:201|207:171|192:164|226:134|267:145,1,150,2|0,0:1|0:0,0:0:0:0:
336,192,217736,1,2,0:3:0:0:
477,28,217907,6,0,B|444:70|422:114|408:206,1,150,2|0,1:2|0:0,0:0:0:0:
470,233,218250,2,0,B|493:266|505:309|505:363,1,100,2|0,3:1|0:0,1:1:0:0:
425,369,218507,85,0,0:0:0:0:
425,369,218593,2,0,B|405:352|379:338|365:334,1,50,8|0,0:0|0:0,0:0:0:0:
300,370,218764,1,2,3:1:0:0:
177,34,219107,1,2,0:3:0:0:
177,34,219193,1,2,0:3:0:0:
177,34,219279,37,4,3:1:0:0:
277,58,219450,2,0,B|212:54|150:82|103:141,1,179.999994506836,2|0,0:1|0:0,1:1:0:0:
73,199,219793,1,2,3:0:0:0:
250,241,219964,5,8,1:0:0:0:
278,322,220136,1,0,0:0:0:0:
240,330,220221,1,0,0:0:0:0:
207,316,220307,1,0,0:0:0:0:
127,380,220479,1,0,0:0:0:0:
73,199,220650,85,2,1:2:0:0:
250,241,220907,5,2,0:0:0:0:
127,380,221164,85,0,0:0:0:0:
73,199,221336,5,8,1:0:0:0:
207,316,221507,1,0,3:0:0:0:
240,330,221593,1,0,0:0:0:0:
278,322,221678,1,0,0:0:0:0:
250,241,221850,1,0,0:0:0:0:
355,96,222021,85,4,3:1:0:0:
438,242,222193,2,0,B|384:247|313:206|288:157,1,179.999994506836,2|0,0:1|0:0,1:1:0:0:
270,73,222536,1,2,3:0:0:0:
487,11,222707,5,8,1:0:0:0:
444,157,222879,1,0,0:0:0:0:
407,164,222964,1,0,0:0:0:0:
378,184,223050,1,0,0:0:0:0:
270,73,223221,1,0,0:0:0:0:
487,11,223393,85,2,1:2:0:0:
438,242,223650,5,2,0:0:0:0:
270,73,223907,85,0,0:0:0:0:
487,11,224079,5,8,1:0:0:0:
378,184,224250,1,0,3:0:0:0:
407,164,224336,1,0,0:0:0:0:
444,157,224421,1,0,0:0:0:0:
270,73,224593,1,0,0:0:0:0:
312,266,224764,85,4,3:1:0:0:
158,318,224936,2,0,B|129:349|57:301|110:230|175:232,1,179.999994506836,2|0,0:1|0:0,1:1:0:0:
195,149,225279,1,2,3:0:0:0:
58,272,225450,5,8,1:0:0:0:
13,195,225622,1,0,0:0:0:0:
47,183,225708,1,0,0:0:0:0:
82,187,225793,1,0,0:0:0:0:
238,321,225964,1,0,0:0:0:0:
195,149,226136,85,2,1:2:0:0:
58,272,226393,5,2,0:0:0:0:
238,321,226650,85,0,0:0:0:0:
195,149,226821,5,8,1:0:0:0:
82,187,226994,1,0,3:0:0:0:
47,183,227079,1,0,0:0:0:0:
13,195,227165,1,0,0:0:0:0:
58,272,227336,1,0,0:0:0:0:
312,123,227507,85,4,3:1:0:0:
272,237,227679,2,0,B|323:246|361:207|342:200|379:161|429:171,1,179.999994506836,2|0,0:1|0:0,1:1:0:0:
499,222,228021,1,2,3:0:0:0:
319,328,228193,5,8,1:0:0:0:
445,336,228364,1,0,0:0:0:0:
443,294,228450,1,0,0:0:0:0:
422,257,228536,1,0,0:0:0:0:
312,122,228707,1,0,0:0:0:0:
192,328,228879,69,4,1:1:0:0:
256,192,228964,12,0,232307,0:0:0:0:
