osu file format v14

[General]
AudioFilename: audio.mp3
AudioLeadIn: 0
PreviewTime: -1
Countdown: 1
SampleSet: Normal
StackLeniency: 0.7
Mode: 0
LetterboxInBreaks: 0
WidescreenStoryboard: 0

[Editor]
DistanceSpacing: 1
BeatDivisor: 4
GridSize: 4
TimelineZoom: 1

[Metadata]
Title:Gothic And Lonliness
TitleUnicode:Gothic And Lonliness
Artist:badend
ArtistUnicode:badend
Creator:Nitronic Techno
Version:Normal
Source:
Tags:Gothic And Lonliness
BeatmapID:1072421
BeatmapSetID:503986

[Difficulty]
HPDrainRate:4
CircleSize:3
OverallDifficulty:3
ApproachRate:5
SliderMultiplier:1.43
SliderTickRate:2

[Events]
//Background and Video events
0,0,"kagamine_rin.jpg",0,0
//Break Periods
2,35334,43106
2,97627,108839
2,163360,175335
//Storyboard Layer 0 (Background)
//Storyboard Layer 1 (Fail)
//Storyboard Layer 2 (Pass)
//Storyboard Layer 3 (Foreground)
//Storyboard Sound Samples

[TimingPoints]
1504,382.165605095541,4,2,0,100,1,0
7618,-90.9090909090909,4,1,0,55,0,0
13733,-111.111111111111,4,1,0,55,0,0
19847,-125,4,2,0,30,0,0
24433,-125,4,1,0,60,0,0
25962,-125,4,2,0,30,0,0
30548,-125,4,1,0,60,0,0
32077,-100,4,1,0,75,0,0
44306,-125,4,2,0,30,0,0
48892,-125,4,1,0,60,0,0
50421,-125,4,2,0,30,0,0
55007,-111.111111111111,4,1,0,65,0,0
56535,-90.9090909090909,4,1,0,75,0,0
70293,-83.3333333333333,4,1,0,80,0,1
76408,-86.9565217391304,4,1,0,80,0,1
82523,-83.3333333333333,4,1,0,80,0,1
88637,-86.9565217391304,4,1,0,80,0,1
97427,-86.9565217391304,4,1,0,80,0,0
97809,-100,4,1,0,80,0,0
110039,-125,4,1,0,30,0,0
114625,-125,4,1,0,60,0,0
116153,-125,4,1,0,30,0,0
120739,-125,4,1,0,60,0,0
122268,-90.9090909090909,4,1,0,75,0,0
136026,-83.3333333333333,4,1,0,80,0,1
142141,-86.9565217391304,4,1,0,80,0,1
148256,-83.3333333333333,4,1,0,80,0,1
154370,-86.9565217391304,4,1,0,80,0,1
163160,-86.9565217391304,4,1,0,80,0,0
163542,-100,4,1,0,80,0,0
176535,-200,4,2,0,30,0,0
177300,-166.666666666667,4,2,0,80,0,0
177395,-166.666666666667,4,2,0,30,0,0
178828,-166.666666666667,4,2,0,80,0,0
178923,-166.666666666667,4,2,0,30,0,0
180357,-166.666666666667,4,2,0,80,0,0
180452,-166.666666666667,4,2,0,30,0,0
181886,-166.666666666667,4,2,0,80,0,0
181981,-166.666666666667,4,2,0,30,0,0
182650,-166.666666666667,4,2,0,80,0,0
182745,-166.666666666667,4,2,0,30,0,0
183414,-166.666666666667,4,2,0,80,0,0
183509,-166.666666666667,4,2,0,30,0,0
184943,-166.666666666667,4,2,0,80,0,0
185038,-166.666666666667,4,2,0,30,0,0
186472,-166.666666666667,4,2,0,80,0,0
186567,-166.666666666667,4,2,0,30,0,0
188000,-166.666666666667,4,2,0,80,0,0
188095,-166.666666666667,4,2,0,30,0,0
188765,-166.666666666667,4,2,0,80,0,0
188860,-166.666666666667,4,2,0,30,0,0
189529,-166.666666666667,4,2,0,80,0,0
189624,-166.666666666667,4,2,0,30,0,0
191058,-166.666666666667,4,2,0,80,0,0
191153,-166.666666666667,4,2,0,30,0,0
192586,-166.666666666667,4,2,0,80,0,0
192681,-166.666666666667,4,2,0,30,0,0
194115,-166.666666666667,4,2,0,80,0,0
194210,-166.666666666667,4,2,0,30,0,0
195644,-166.666666666667,4,2,0,80,0,0
195739,-166.666666666667,4,2,0,30,0,0
197172,-166.666666666667,4,2,0,80,0,0
197267,-166.666666666667,4,2,0,30,0,0
198701,-166.666666666667,4,2,0,80,0,0
198796,-166.666666666667,4,2,0,30,0,0
200230,-166.666666666667,4,2,0,80,0,0
200325,-166.666666666667,4,2,0,30,0,0
201758,-133.333333333333,4,1,0,40,0,0
202523,-111.111111111111,4,1,0,50,0,0
220867,-166.666666666667,4,2,0,30,0,0
233096,-83.3333333333333,4,1,0,80,0,1
239211,-86.9565217391304,4,1,0,80,0,1
245326,-83.3333333333333,4,1,0,80,0,1
251440,-86.9565217391304,4,1,0,80,0,1
257554,-76.9230769230769,4,1,0,80,0,1
263669,-80,4,1,0,80,0,1
269784,-90.9090909090909,4,1,0,80,0,0
282013,-90.9090909090909,4,1,0,80,0,0

[HitObjects]
142,151,1504,6,8,P|168:119|274:84,1,143
387,149,2268,2,2,P|378:205|367:231,1,71.5
370,151,3032,6,8,P|344:119|238:84,1,143
125,149,3796,2,2,P|134:205|145:231,1,71.5
276,259,4370,1,0,0:0:0:0:
276,259,4561,6,8,P|314:236|373:136,1,143
225,168,5325,2,2,L|180:249,1,71.5
236,259,6089,6,8,P|198:236|139:136,1,143
287,168,6853,2,2,L|332:249,1,71.5
404,113,7427,1,0,0:0:0:0:
329,87,7618,6,2,P|282:77|166:89,1,157.300004800415
114,137,8191,2,8,P|73:183|71:207,1,78.6500024002076
148,184,8574,2,8,P|136:235|140:270,1,78.6500024002076
212,235,8956,1,2,0:0:0:0:
270,287,9147,6,4,B|323:272|336:332|336:332|376:297|410:237|382:175|338:136,1,314.60000960083
263,123,10102,2,8,P|226:164|189:183,1,78.6500024002076
137,137,10484,1,8,0:0:0:0:
77,187,10675,2,2,B|82:217|113:222|113:222|98:281|179:335|259:266,1,235.950007200623
298,225,11440,5,2,0:0:0:0:
298,225,11822,1,2,0:0:0:0:
298,225,12204,2,2,B|338:256|395:258|395:258|420:275|406:245|406:245|425:176|382:125,1,235.950007200623
399,151,12968,2,2,B|366:148|336:135|314:121|314:121|306:105|295:120|295:120|280:131|231:144|174:142,1,235.950007200623
117,158,13733,6,8,P|97:216|94:290,2,128.699996072388
174,129,14688,1,8,0:0:0:0:
235,148,14879,2,2,P|261:187|261:224,1,64.3499980361939
281,265,15261,2,2,B|320:280|344:318|344:318|358:263|413:285|413:285|389:234|406:183,1,257.399992144776
308,114,16408,1,2,0:0:0:0:
180,100,16790,6,8,P|145:130|114:215,1,128.699996072388
172,176,17363,2,8,P|168:247|197:312,1,128.699996072388
377,338,18319,2,4,P|338:312|337:160,1,193.049994108582
277,132,19083,5,8,0:0:0:0:
277,132,19370,1,8,0:0:0:0:
277,132,19656,1,8,0:0:0:0:
220,122,19847,6,2,P|173:148|134:206,1,114.4
154,251,20421,2,0,P|190:274|200:300,1,57.2
251,269,20803,2,2,P|297:271|322:290,1,57.2
359,257,21185,1,0,0:0:0:0:
414,243,21376,6,8,P|448:214|457:153,2,85.8
374,201,22140,2,2,P|339:184|303:181,1,57.2
272,212,22523,2,2,P|275:249|251:280,1,57.2
213,288,22905,6,2,B|189:251|189:251|199:219|195:167,1,114.4
241,147,23478,2,0,P|277:171|290:194,2,57.2,0|2|0,0:0|0:0|0:0,0:0:0:0:
231,90,24051,2,0,P|284:84|309:86,1,57.2
344,93,24433,6,8,P|379:118|391:144,1,57.2
328,135,24816,2,8,P|346:175|349:203,1,57.2
292,174,25198,2,8,P|296:216|235:338,1,171.6
194,300,25962,6,2,P|156:301|113:312,2,57.2
214,246,26535,2,0,P|241:212|241:176,1,57.2,0|2,0:0|0:0,0:0:0:0:
262,145,26918,2,0,P|306:136|388:151,1,114.4,2|0,0:0|0:0,0:0:0:0:
423,174,27491,6,8,P|448:206|448:233,2,57.2
366,185,28064,1,2,0:0:0:0:
328,228,28255,2,2,P|300:272|181:313,1,171.6
136,301,29019,6,8,P|110:275|102:240,1,57.2
159,245,29402,2,8,P|165:199|191:174,1,57.2
225,205,29784,1,2,0:0:0:0:
266,244,29975,2,2,P|314:252|392:227,1,114.4
408,188,30548,5,2,0:0:0:0:
408,130,30739,1,2,0:0:0:0:
373,84,30930,2,8,P|325:76|304:79,1,57.2
262,95,31312,1,2,0:0:0:0:
232,144,31504,1,2,0:0:0:0:
197,189,31695,2,8,P|155:204|119:200,1,57.2
256,192,32077,12,4,35134,0:0:0:0:
109,64,44306,6,8,P|99:113|103:136,1,57.2
114,174,44688,1,0,0:0:0:0:
137,226,44879,1,0,0:0:0:0:
176,267,45070,1,8,0:0:0:0:
212,310,45261,2,0,P|246:323|345:309,1,114.4,8|0,0:0|0:0,0:0:0:0:
379,312,45835,6,8,P|400:272|425:254,1,57.2
455,232,46217,2,0,P|459:189|454:166,1,57.2
441,120,46599,2,0,P|404:106|266:144,1,171.6,8|0,0:0|0:0,0:0:0:0:
242,176,47363,5,8,0:0:0:0:
217,227,47554,2,0,P|190:269|169:283,1,57.2,8|0,0:0|0:0,0:0:0:0:
161,220,47937,2,0,P|113:221|93:195,1,57.2,0|8,0:0|0:0,0:0:0:0:
152,182,48319,2,0,P|209:150|247:96,1,114.4,8|0,0:0|0:0,0:0:0:0:
294,98,48892,6,8,L|352:140,1,57.2
283,140,49274,2,0,L|225:188,1,57.2
211,226,49656,1,8,0:0:0:0:
428,298,50421,6,2,P|437:250|427:112,1,171.6
392,85,51185,2,2,P|343:81|270:105,1,114.4
279,155,51758,1,2,0:0:0:0:
283,211,51949,6,8,P|250:265|236:274,1,57.2
211,222,52332,2,0,P|160:247|159:247,1,57.2
156,189,52714,2,0,P|107:183|147:98,1,171.6,8|0,0:0|0:0,0:0:0:0:
192,84,53478,6,8,P|234:71|263:71,1,57.2
260,125,53860,2,0,P|297:114|315:119,1,57.2
363,147,54242,1,8,0:0:0:0:
399,191,54433,2,0,P|413:242|394:320,1,114.4,8|0,0:0|0:0,0:0:0:0:
339,315,55007,5,8,0:0:0:0:
274,320,55198,1,8,0:0:0:0:
215,293,55389,2,0,P|163:270|146:239,1,64.3499980361939
95,275,55771,2,0,P|77:235|145:107,1,193.049994108582,8|0,0:0|0:0,0:0:0:0:
202,208,56535,6,2,B|243:220|286:202|286:202|298:161|356:132|428:150|451:214|440:279|407:313|358:317|308:267|308:267|280:291,1,471.900014401246
195,316,58064,6,2,B|151:315|151:315|135:301|116:291|109:261|130:205|130:205|162:217|211:229|272:161|252:105|252:105|271:80|309:74|362:109,1,471.900014401246
422,163,59593,6,2,B|440:221|437:263|437:263|425:300|346:292|346:292|339:252|307:225|272:238|256:270|258:309|258:309|239:336|188:347|151:313,1,471.900014401246
93,252,61121,6,2,P|86:200|377:206,1,471.900014401246
367,270,62650,6,4,P|327:300|210:314,1,157.300004800415
245,275,63223,2,4,P|197:266|136:171,1,157.300004800415
188,103,63988,2,4,P|234:92|280:107,1,78.6500024002076
329,166,64561,1,8,0:0:0:0:
416,200,64943,2,2,P|416:252|373:319,2,117.975003600311
372,181,65707,6,8,B|328:176|298:142|298:142|281:190|235:227|170:197,1,235.950007200623
143,112,66663,2,8,P|198:99|240:112,1,78.6500024002076
261,123,67045,1,8,0:0:0:0:
326,166,67236,1,8,0:0:0:0:
400,192,67427,2,2,B|440:224|475:232|475:232|419:286|367:298|243:307|187:201,1,393.250012001038
256,192,68765,12,4,70293,0:0:0:0:
97,208,70675,6,8,P|123:153|252:112,1,171.599994763184
300,77,71249,2,8,L|346:166,1,85.7999973815919
419,182,71631,1,8,0:0:0:0:
417,267,71822,6,2,P|386:313|262:335,1,171.599994763184
196,313,72395,2,8,P|156:270|151:227,1,85.7999973815919
77,199,72777,1,8,0:0:0:0:
124,127,72968,2,8,P|188:114|226:129,1,85.7999973815919
272,63,73351,6,2,L|401:202,1,171.599994763184
362,270,73924,1,8,0:0:0:0:
285,308,74115,2,2,P|218:320|143:310,2,128.699996072388
336,239,74879,2,2,P|389:232|480:244,2,128.699996072388
257,203,75644,1,4,0:0:0:0:
132,111,76217,1,4,0:0:0:0:
207,78,76408,6,8,P|255:75|299:95,1,82.2250015683175
367,99,76790,2,2,P|400:142|417:271,1,164.450003136635
341,268,77363,2,2,P|289:295|174:302,1,164.450003136635
118,254,77937,6,8,P|160:229|211:231,1,82.2250015683175
251,283,78319,2,2,P|308:284|410:247,1,164.450003136635
458,183,78892,2,2,P|442:132|348:71,1,164.450003136635
274,93,79465,6,8,P|267:140|272:180,2,82.2250015683175
192,106,80039,2,8,P|165:147|161:190,2,82.2250015683175
110,94,80612,2,8,P|86:142|81:195,2,82.2250015683175
227,54,81281,2,4,P|277:54|356:94,1,123.337502352476
343,83,81758,1,4,0:0:0:0:
422,273,82523,5,4,0:0:0:0:
329,317,82905,2,2,P|264:331|145:322,1,171.599994763184
82,287,83478,2,8,P|77:233|96:186,1,85.7999973815919
162,241,83860,1,8,0:0:0:0:
241,272,84051,6,2,P|291:274|425:224,1,171.599994763184
476,189,84625,2,8,P|435:163|375:163,1,85.7999973815919
317,186,85007,2,8,P|262:193|213:184,1,85.7999973815919
154,153,85389,1,8,0:0:0:0:
99,86,85580,6,2,P|150:69|199:74,2,85.7999973815919
84,170,86153,1,8,0:0:0:0:
152,221,86344,2,2,P|177:280|169:353,2,128.699996072388
218,165,87109,2,2,P|202:107|253:35,2,128.699996072388
299,190,87873,2,4,P|349:167|454:309,1,257.399992144776
381,321,88637,6,8,P|325:338|274:330,1,82.2250015683175
220,328,89019,2,2,P|145:303|93:230,1,164.450003136635
174,213,89593,2,2,P|179:149|266:115,1,164.450003136635
320,55,90166,6,8,P|364:92|378:123,1,82.2250015683175
338,187,90548,2,2,P|314:248|205:271,1,164.450003136635
250,199,91121,2,2,P|214:152|115:107,1,164.450003136635
102,188,91695,6,2,P|61:232|45:273,2,82.2250015683175
160,245,92268,2,8,P|131:291|120:329,2,82.2250015683175
240,261,92841,2,2,P|228:313|233:352,2,82.2250015683175
158,118,93605,2,8,P|229:88|329:125,1,164.450003136635
440,211,94370,2,2,P|384:235|263:237,1,164.450003136635
256,192,94847,12,4,97427,0:0:0:0:
69,182,110039,6,0,P|106:128|110:116,1,57.2,8|0,0:0|0:0,0:0:0:0:
149,103,110421,1,8,0:0:0:0:
202,123,110612,2,0,P|246:156|257:176,1,57.2,0|8,0:0|0:0,0:0:0:0:
226,210,110994,1,0,0:0:0:0:
183,248,111185,2,0,P|170:298|175:325,1,57.2,8|0,0:0|0:0,0:0:0:0:
213,340,111567,6,0,P|259:340|293:329,1,57.2,8|0,0:0|0:0,0:0:0:0:
271,280,111949,2,0,P|318:275|344:267,1,57.2,8|0,0:0|0:0,0:0:0:0:
304,219,112332,2,8,P|366:205|442:105,1,171.6
395,86,113096,5,8,0:0:0:0:
339,74,113287,2,0,P|283:84|275:95,1,57.2,0|8,0:0|0:0,0:0:0:0:
249,125,113669,2,0,L|185:125,2,57.2,0|8|0,0:0|0:0|0:0,0:0:0:0:
337,196,114433,1,0,0:0:0:0:
375,239,114625,6,0,P|359:275|336:300,1,57.2,8|0,0:0|0:0,0:0:0:0:
297,315,115007,2,0,P|249:329|218:321,1,57.2,8|0,0:0|0:0,0:0:0:0:
187,313,115389,2,8,B|172:295|180:272|180:272|205:243|220:178|156:159,1,171.6
114,142,116153,6,0,P|143:102|169:93,1,57.2,8|0,0:0|0:0,0:0:0:0:
203,83,116535,1,8,0:0:0:0:
259,73,116726,1,0,0:0:0:0:
314,87,116918,1,8,0:0:0:0:
367,106,117109,2,2,P|396:156|413:229,1,114.4
369,249,117682,6,0,P|347:306|334:318,1,57.2,8|0,0:0|0:0,0:0:0:0:
302,269,118064,2,0,P|254:300|230:297,1,57.2,8|0,0:0|0:0,0:0:0:0:
202,280,118446,1,8,0:0:0:0:
85,153,119019,1,4,0:0:0:0:
126,112,119211,6,0,P|161:92|184:91,1,57.2,8|0,0:0|0:0,0:0:0:0:
233,80,119593,1,8,0:0:0:0:
287,96,119784,2,0,P|329:115|349:135,1,57.2,0|8,0:0|0:0,0:0:0:0:
392,135,120166,2,0,P|401:169|401:253,1,114.4
357,283,120739,6,4,P|332:311|300:325,1,57.2
285,271,121121,2,4,P|242:291|209:288,1,57.2
216,236,121503,2,4,P|166:236|87:143,1,171.6
202,176,122268,6,2,B|243:164|286:182|286:182|298:223|356:252|428:234|451:170|440:105|407:71|358:67|308:117|308:117|280:93,1,471.900014401246
195,68,123797,6,2,B|151:69|151:69|135:83|116:93|109:123|130:179|130:179|162:167|211:155|272:223|252:279|252:279|271:304|309:310|362:275,1,471.900014401246
422,221,125326,6,2,B|440:163|437:121|437:121|425:84|346:92|346:92|339:132|307:159|272:146|256:114|258:75|258:75|239:48|188:37|151:71,1,471.900014401246
93,132,126854,6,2,P|86:184|377:178,1,471.900014401246
367,114,128383,6,4,P|327:84|210:70,1,157.300004800415
245,109,128956,2,4,P|197:118|136:213,1,157.300004800415
188,281,129721,2,4,P|234:292|280:277,1,78.6500024002076
329,218,130294,1,8,0:0:0:0:
416,184,130676,2,2,P|416:132|373:65,2,117.975003600311
372,203,131440,6,8,B|328:208|298:242|298:242|281:194|235:157|170:187,1,235.950007200623
143,272,132396,2,2,P|198:285|240:272,1,78.6500024002076
261,261,132778,1,2,0:0:0:0:
326,218,132969,1,2,0:0:0:0:
400,192,133160,2,2,B|440:160|475:152|475:152|419:98|367:86|243:77|187:183,1,393.250012001038
256,192,134498,12,4,136026,0:0:0:0:
415,176,136408,6,0,P|389:231|260:272,1,171.599994763184
212,307,136982,2,0,L|166:218,1,85.7999973815919
93,202,137364,1,0,0:0:0:0:
95,117,137555,6,0,P|126:71|250:49,1,171.599994763184
316,71,138128,2,0,P|356:114|361:157,1,85.7999973815919
435,185,138510,1,0,0:0:0:0:
388,257,138701,2,0,P|324:270|286:255,1,85.7999973815919
240,321,139084,6,0,L|111:182,1,171.599994763184
150,114,139657,1,0,0:0:0:0:
227,76,139848,2,0,P|294:64|369:74,2,128.699996072388
176,145,140612,2,0,P|123:152|32:140,2,128.699996072388
255,181,141377,1,0,0:0:0:0:
380,273,141950,1,0,0:0:0:0:
305,306,142141,6,0,P|257:309|213:289,1,82.2250015683175
145,285,142523,2,0,P|112:242|95:113,1,164.450003136635
171,116,143096,2,0,P|223:89|338:82,1,164.450003136635
394,130,143670,6,0,P|352:155|301:153,1,82.2250015683175
261,101,144052,2,0,P|204:100|102:137,1,164.450003136635
54,201,144625,2,0,P|70:252|164:313,1,164.450003136635
238,291,145198,6,0,P|245:244|240:204,2,82.2250015683175
320,278,145772,2,0,P|347:237|351:194,2,82.2250015683175
402,290,146345,2,0,P|426:242|431:189,2,82.2250015683175
285,330,147014,2,0,P|235:330|156:290,1,123.337502352476
169,301,147491,1,0,0:0:0:0:
90,111,148256,5,0,0:0:0:0:
183,67,148638,2,0,P|248:53|367:62,1,171.599994763184
430,97,149211,2,0,P|435:151|416:198,1,85.7999973815919
350,143,149593,1,0,0:0:0:0:
271,112,149784,6,0,P|221:110|87:160,1,171.599994763184
36,195,150358,2,0,P|77:221|137:221,1,85.7999973815919
195,198,150740,2,0,P|250:191|299:200,1,85.7999973815919
358,231,151122,1,0,0:0:0:0:
413,298,151313,6,0,P|362:315|313:310,2,85.7999973815919
428,214,151886,1,0,0:0:0:0:
360,163,152077,2,0,P|335:104|343:31,2,128.699996072388
294,219,152842,2,0,P|310:277|259:349,2,128.699996072388
213,194,153606,2,0,P|163:217|58:75,1,257.399992144776
131,63,154370,6,0,P|187:46|238:54,1,82.2250015683175
292,56,154752,2,0,P|367:81|419:154,1,164.450003136635
338,171,155326,2,0,P|333:235|246:269,1,164.450003136635
192,329,155899,6,0,P|148:292|134:261,1,82.2250015683175
174,197,156281,2,0,P|198:136|307:113,1,164.450003136635
262,185,156854,2,0,P|298:232|397:277,1,164.450003136635
410,196,157428,6,0,P|451:152|467:111,2,82.2250015683175
352,139,158001,2,0,P|381:93|392:55,2,82.2250015683175
272,123,158574,2,0,P|284:71|279:32,2,82.2250015683175
354,266,159338,2,0,P|283:296|183:259,1,164.450003136635
72,173,160103,2,0,P|128:149|249:147,1,164.450003136635
256,192,160580,12,0,163160,0:0:0:0:
104,136,176535,6,0,P|124:118|213:100,1,107.25
242,88,177300,6,0,P|269:75|408:217,1,257.399992144776
401,240,178637,1,0,0:0:0:0:
367,267,178828,6,0,P|339:292|119:301,1,257.399992144776
155,272,180166,1,0,0:0:0:0:
169,231,180357,6,0,B|200:197|161:149|161:149|182:119|245:84|326:119,1,257.399992144776
353,128,181695,1,0,0:0:0:0:
384,157,181886,6,0,P|393:201|425:284,1,128.699996072388
388,305,182650,2,0,P|360:328|256:342,1,128.699996072388
230,331,183414,6,0,B|197:321|189:292|189:292|184:278|137:255|133:195|216:119,1,257.399992144776
250,103,184752,1,0,0:0:0:0:
292,107,184943,6,0,B|321:108|408:112|408:112|389:129|359:249,1,257.399992144776
327,272,186281,1,0,0:0:0:0:
300,305,186472,6,0,P|249:324|74:177,1,300.299990835572
96,154,188000,6,0,P|135:112|217:96,1,128.699996072388
245,99,188765,2,0,P|245:132|205:221,1,128.699996072388
203,260,189529,6,0,P|229:294|428:278,1,257.399992144776
410,244,190867,1,0,0:0:0:0:
409,201,191058,6,0,P|399:167|326:97,1,128.699996072388
292,99,191822,2,0,P|257:107|156:84,1,128.699996072388
125,99,192586,6,0,P|142:128|160:188,1,85.7999973815919
122,201,193160,2,0,P|131:247|151:290,1,85.7999973815919
182,305,193733,2,0,L|236:316,1,42.8999986907959
266,321,194115,6,0,P|316:327|397:304,1,128.699996072388
433,299,194879,2,0,P|457:264|463:173,1,128.699996072388
440,144,195644,6,0,P|378:115|191:131,1,257.399992144776
214,167,196981,1,0,0:0:0:0:
177,189,197172,6,0,P|202:223|290:264,1,128.699996072388
291,221,197937,2,0,P|325:232|403:308,1,128.699996072388
356,311,198701,6,0,B|351:266|427:166|427:166|281:135,1,300.299990835572
256,192,200230,12,0,201758,0:0:0:0:
417,335,202523,6,0,B|405:291|462:187|462:187|412:144|233:125,1,386.099988217163
356,189,204051,6,0,B|343:235|407:284|407:284|383:297|349:313|285:322|182:185,1,386.099988217163
127,302,205580,6,0,B|106:262|112:242|112:242|94:229|94:229|114:217|114:217|96:205|96:205|111:198|111:198|97:186|97:186|112:184|112:184|104:174|104:174|119:181|119:181|117:168|117:168|128:178|128:178|134:164|134:164|142:177|142:177|154:166|154:166|159:179|159:179|173:173|173:173|174:185|174:185|187:178|187:178|189:187|189:187|203:183|247:179,1,386.099988217163
179,302,207109,6,0,P|223:312|266:75,1,386.099988217163
143,72,208637,6,0,P|131:113|140:212,1,128.699996072388
166,254,209211,2,0,P|208:264|304:241,1,128.699996072388
263,190,209784,1,0,0:0:0:0:
239,130,209975,2,0,P|275:111|318:108,1,64.3499980361939
362,112,210357,2,0,P|393:157|399:194,1,64.3499980361939
385,229,210739,1,0,0:0:0:0:
360,288,210930,6,0,P|298:344|280:342,2,96.5249970542909
298,267,211695,2,0,P|252:256|166:77,1,257.399992144776
101,96,212650,1,0,0:0:0:0:
67,150,212841,2,0,P|99:174|150:183,1,64.3499980361939
171,222,213223,1,0,0:0:0:0:
230,197,213414,2,0,P|265:160|471:267,1,321.74999018097
256,192,214752,12,0,217045,0:0:0:0:
256,191,217427,5,0,0:0:0:0:
256,192,217809,12,0,220102,0:0:0:0:
256,197,220867,5,0,0:0:0:0:
202,264,221249,2,0,P|148:218|144:112,1,171.599994763184
210,73,222395,5,0,0:0:0:0:
294,89,222777,2,0,P|325:114|383:243,1,171.599994763184
318,288,223924,5,0,0:0:0:0:
232,295,224306,1,0,0:0:0:0:
172,233,224688,2,0,P|145:194|145:161,2,64.3499980361939
210,213,225453,2,0,P|228:246|230:283,2,64.3499980361939
246,190,226217,2,0,P|264:148|388:138,1,171.599994763184
406,209,227363,5,0,0:0:0:0:
343,267,227746,2,0,P|271:282|245:282,1,85.7999973815919
178,252,228510,5,0,0:0:0:0:
126,183,228892,2,0,P|140:143|176:108,2,85.7999973815919
210,166,230039,6,0,P|244:148|264:141,1,42.8999986907959
260,187,230421,2,0,L|310:175,1,42.8999986907959
294,219,230803,2,0,P|324:217|346:221,1,42.8999986907959
312,254,231185,2,0,P|337:258|352:272,1,42.8999986907959
314,293,231567,2,0,P|348:317|355:349,2,64.3499980361939
271,285,232332,2,0,P|223:294|139:260,1,128.699996072388
68,239,233096,6,0,P|62:194|82:149,1,85.7999973815919
140,100,233478,2,0,P|203:76|304:100,1,171.599994763184
386,84,234051,2,0,P|424:112|443:159,1,85.7999973815919
381,208,234433,1,0,0:0:0:0:
314,262,234625,5,0,0:0:0:0:
250,319,234816,1,0,0:0:0:0:
173,280,235007,2,0,P|168:226|185:187,1,85.7999973815919
256,233,235389,2,0,P|265:170|258:141,1,85.7999973815919
176,167,235771,2,0,P|177:104|188:74,1,85.7999973815919
267,64,236153,6,0,P|352:49|435:84,1,171.599994763184
450,162,236726,1,0,0:0:0:0:
400,232,236918,2,0,P|355:285|271:312,2,128.699996072388
314,223,237682,2,0,P|345:137|380:105,2,128.699996072388
229,234,238446,2,0,P|171:237|113:78,1,257.399992144776
187,113,239211,6,0,P|194:161|220:141,1,82.2250015683175
272,105,239593,2,0,P|326:98|448:144,1,164.450003136635
365,181,240166,2,0,P|364:240|386:281,1,82.2250015683175
304,307,240548,1,0,0:0:0:0:
224,326,240739,6,0,P|165:307|144:272,1,82.2250015683175
72,306,241121,2,0,P|78:224|125:140,1,164.450003136635
154,79,241695,2,0,P|202:78|236:96,1,82.2250015683175
260,169,242077,1,0,0:0:0:0:
328,214,242268,6,0,P|405:239|433:240,2,82.2250015683175
247,228,242841,2,0,P|222:280|196:307,2,82.2250015683175
286,155,243414,2,0,P|310:111|345:92,2,82.2250015683175
124,123,244179,1,0,0:0:0:0:
80,281,244561,2,0,P|131:311|336:283,1,246.675004704952
372,244,245325,6,0,P|410:211|460:79,2,164.450003136635
298,199,246281,1,0,0:0:0:0:
260,121,246472,1,0,0:0:0:0:
186,77,246663,1,0,0:0:0:0:
100,84,246854,6,0,P|65:135|71:251,1,171.599994763184
141,200,247427,2,0,P|166:256|200:283,1,85.7999973815919
265,295,247809,1,0,0:0:0:0:
350,302,248000,1,0,0:0:0:0:
420,253,248191,1,0,0:0:0:0:
417,167,248382,6,0,P|391:124|251:76,1,171.599994763184
225,136,248956,1,0,0:0:0:0:
180,62,249147,2,0,P|125:96|86:151,1,128.699996072388
126,270,249720,1,0,0:0:0:0:
126,270,249911,2,0,P|178:295|262:294,1,128.699996072388
357,229,250484,2,0,P|394:183|411:152,1,85.7999973815919
329,122,250867,2,0,P|348:68|353:38,1,85.7999973815919
270,62,251249,1,0,0:0:0:0:
193,91,251440,6,0,P|177:181|178:211,1,82.2250015683175
229,235,251822,2,0,P|248:180|256:135,1,82.2250015683175
313,101,252204,2,0,P|380:126|423:232,1,164.450003136635
341,202,252777,1,0,0:0:0:0:
264,230,252968,6,0,P|245:290|223:313,1,82.2250015683175
150,312,253351,2,0,P|157:243|195:214,2,82.2250015683175
222,274,253924,1,0,0:0:0:0:
265,204,254115,2,0,P|220:157|183:152,1,82.2250015683175
123,148,254497,6,0,P|176:106|224:95,1,82.2250015683175
194,183,254879,2,0,P|239:151|299:162,1,82.2250015683175
262,231,255261,2,0,P|312:227|362:237,1,82.2250015683175
313,308,255644,2,0,P|376:313|428:338,1,82.2250015683175
472,341,256026,2,0,P|451:255|43:352,1,657.80001254654
136,333,257746,6,0,P|180:300|172:262,1,92.9499957450869
117,194,258128,1,0,0:0:0:0:
48,131,258319,2,0,P|65:62|80:55,1,92.9499957450869
171,57,258701,2,0,P|214:106|218:158,1,92.9499957450869
148,190,259083,5,0,0:0:0:0:
212,257,259274,2,0,P|281:290|332:285,1,92.9499957450869
376,243,259656,1,0,0:0:0:0:
440,176,259847,2,0,P|426:130|388:89,1,92.9499957450869
346,174,260230,2,0,P|316:106|288:81,1,92.9499957450869
211,87,260612,6,0,P|147:100|125:131,2,92.9499957450869
209,179,261185,1,0,0:0:0:0:
144,245,261376,1,0,0:0:0:0:
275,291,261663,1,0,0:0:0:0:
405,340,261949,1,0,0:0:0:0:
427,249,262140,6,0,P|361:198|285:182,1,139.42499361763
172,145,262714,2,0,P|205:188|218:241,1,92.9499957450869
123,222,263096,2,0,P|202:193|306:203,1,185.899991490174
319,289,263669,6,0,P|386:243|391:200,1,89.375
396,150,264051,2,0,P|366:106|310:86,1,89.375
245,86,264433,2,0,P|185:103|144:130,1,89.375
104,185,264816,2,0,P|88:254|99:303,1,89.375
171,289,265198,6,0,P|104:243|99:200,1,89.375
94,150,265580,2,0,P|124:106|180:86,1,89.375
245,86,265962,2,0,P|305:103|346:130,1,89.375
386,185,266345,2,0,P|402:254|391:303,1,89.375
311,264,266726,6,0,L|265:349,1,89.375
266,252,267109,2,0,L|300:147,1,89.375
216,212,267491,2,0,L|155:303,1,89.375
167,196,267873,2,0,L|214:92,1,89.375
114,107,268255,2,0,P|160:79|286:98,1,178.75
384,237,269019,2,0,P|323:285|201:289,1,178.75
256,192,269784,12,0,272077,0:0:0:0:
256,192,272841,12,0,275134,0:0:0:0:
154,194,275898,5,0,0:0:0:0:
468,200,276663,6,0,P|446:142|199:96,1,314.60000960083
256,324,278191,6,0,P|203:283|258:65,1,314.60000960083
281,141,279147,2,0,P|334:115|362:92,1,78.6500024002076
423,129,279529,2,0,P|437:186|461:228,1,78.6500024002076
382,251,279911,2,0,P|326:249|288:261,1,78.6500024002076
284,178,280293,2,0,P|243:141|197:130,1,78.6500024002076
65,155,280867,2,0,P|81:246|124:309,1,157.300004800415
429,307,282013,6,0,P|440:218|435:128,1,157.300004800415
288,100,282777,2,0,P|274:162|293:195,2,78.6500024002076
170,205,283542,6,0,P|120:144|129:63,1,157.300004800415
224,191,284306,2,0,P|231:138|259:102,2,78.6500024002076
304,326,285070,2,0,P|345:260|245:69,2,314.60000960083
136,303,287363,6,0,P|139:200|321:136,1,314.60000960083
337,275,288892,6,0,P|396:263|437:195,2,117.975003600311
331,196,289656,2,0,P|266:196|37:326,1,314.60000960083
167,327,290707,2,0,P|223:307|277:279,1,117.975003600311
353,270,291185,6,0,P|376:213|373:166,1,78.6500024002076
334,130,291567,2,0,P|307:183|297:234,1,78.6500024002076
225,218,291949,2,0,P|241:144|232:109,1,78.6500024002076
198,75,292332,2,0,P|173:136|182:182,1,78.6500024002076
97,126,292714,2,0,P|102:188|307:318,1,314.60000960083
463,56,294242,6,0,P|395:64|282:104,1,157.300004800415
223,222,295007,2,0,P|300:201|378:165,1,157.300004800415
318,317,295771,2,0,P|243:308|207:292,1,78.6500024002076
242,87,296535,1,0,0:0:0:0:
278,240,296918,1,0,0:0:0:0:
