osu file format v14

[General]
AudioFilename: audio.mp3
AudioLeadIn: 0
PreviewTime: -1
Countdown: 1
SampleSet: Soft
StackLeniency: 0.7
Mode: 0
LetterboxInBreaks: 0
WidescreenStoryboard: 1

[Editor]
DistanceSpacing: 1
BeatDivisor: 4
GridSize: 4
TimelineZoom: 1

[Metadata]
Title:Gothic And Lonliness
TitleUnicode:Gothic And Lonliness
Artist:badend
ArtistUnicode:badend
Creator:Nitronic Techno
Version:Insane
Source:
Tags:Gothic and Lonliness
BeatmapID:1072420
BeatmapSetID:503986

[Difficulty]
HPDrainRate:7.5
CircleSize:4
OverallDifficulty:7
ApproachRate:9
SliderMultiplier:1.98
SliderTickRate:2

[Events]
//Background and Video events
0,0,"kagamine_rin.jpg",0,0
//Break Periods
2,221249,232332
//Storyboard Layer 0 (Background)
//Storyboard Layer 1 (Fail)
//Storyboard Layer 2 (Pass)
//Storyboard Layer 3 (Foreground)
//Storyboard Sound Samples

[TimingPoints]
1504,382.165605095541,4,2,0,100,1,0
7618,-90.9090909090909,4,1,0,80,0,0
13733,-111.111111111111,4,1,0,80,0,0
19847,-125,4,2,0,30,0,0
24433,-125,4,1,0,60,0,0
25962,-125,4,2,0,30,0,0
30548,-125,4,1,0,60,0,0
32077,-100,4,1,0,75,0,0
44306,-125,4,2,0,30,0,0
48892,-125,4,1,0,60,0,0
50421,-125,4,2,0,30,0,0
55007,-111.111111111111,4,1,0,65,0,0
56535,-90.9090909090909,4,1,0,75,0,0
70293,-83.3333333333333,4,1,0,80,0,1
76408,-86.9565217391304,4,1,0,80,0,1
82523,-83.3333333333333,4,1,0,80,0,1
88637,-86.9565217391304,4,1,0,80,0,1
97427,-86.9565217391304,4,1,0,80,0,0
97809,-100,4,1,0,80,0,0
110039,-125,4,1,0,30,0,0
114625,-125,4,1,0,60,0,0
116153,-125,4,1,0,30,0,0
120739,-125,4,1,0,60,0,0
122268,-90.9090909090909,4,1,0,75,0,0
136026,-83.3333333333333,4,1,0,80,0,1
142141,-86.9565217391304,4,1,0,80,0,1
148256,-83.3333333333333,4,1,0,80,0,1
154370,-86.9565217391304,4,1,0,80,0,1
163160,-86.9565217391304,4,1,0,80,0,0
163542,-100,4,1,0,10,0,0
176535,-200,4,2,0,30,0,0
177300,-166.666666666667,4,2,0,80,0,0
177395,-166.666666666667,4,2,0,30,0,0
178828,-166.666666666667,4,2,0,80,0,0
178923,-166.666666666667,4,2,0,30,0,0
180357,-166.666666666667,4,2,0,80,0,0
180452,-166.666666666667,4,2,0,30,0,0
181886,-166.666666666667,4,2,0,80,0,0
181981,-166.666666666667,4,2,0,30,0,0
182650,-166.666666666667,4,2,0,80,0,0
182745,-166.666666666667,4,2,0,30,0,0
183414,-166.666666666667,4,2,0,80,0,0
183509,-166.666666666667,4,2,0,30,0,0
184943,-166.666666666667,4,2,0,80,0,0
185038,-166.666666666667,4,2,0,30,0,0
186472,-166.666666666667,4,2,0,80,0,0
186567,-166.666666666667,4,2,0,30,0,0
188000,-166.666666666667,4,2,0,80,0,0
188095,-166.666666666667,4,2,0,30,0,0
188765,-166.666666666667,4,2,0,80,0,0
188860,-166.666666666667,4,2,0,30,0,0
189529,-166.666666666667,4,2,0,80,0,0
189624,-166.666666666667,4,2,0,30,0,0
191058,-166.666666666667,4,2,0,80,0,0
191153,-166.666666666667,4,2,0,30,0,0
192586,-166.666666666667,4,2,0,80,0,0
192681,-166.666666666667,4,2,0,30,0,0
194115,-166.666666666667,4,2,0,80,0,0
194210,-166.666666666667,4,2,0,30,0,0
195644,-166.666666666667,4,2,0,80,0,0
195739,-166.666666666667,4,2,0,30,0,0
197172,-166.666666666667,4,2,0,80,0,0
197267,-166.666666666667,4,2,0,30,0,0
198701,-166.666666666667,4,2,0,80,0,0
198796,-166.666666666667,4,2,0,30,0,0
200230,-166.666666666667,4,2,0,50,0,0
200325,-166.666666666667,4,2,0,30,0,0
201758,-133.333333333333,4,1,0,40,0,0
202523,-111.111111111111,4,1,0,80,0,0
213988,-200,4,1,0,80,0,0
214752,-111.111111111111,4,1,0,80,0,0
220484,-166.666666666667,4,2,0,30,0,0
233096,-83.3333333333333,4,1,0,80,0,1
239211,-86.9565217391304,4,1,0,80,0,1
245326,-83.3333333333333,4,1,0,80,0,1
251440,-86.9565217391304,4,1,0,80,0,1
257554,-76.9230769230769,4,1,0,80,0,1
263669,-80,4,1,0,80,0,1
269784,-90.9090909090909,4,1,0,80,0,0
282013,-90.9090909090909,4,1,0,80,0,0

[HitObjects]
100,255,1504,6,0,P|92:203|139:56,1,198
225,98,2077,1,0,0:0:0:0:
317,132,2268,1,0,0:0:0:0:
287,226,2459,2,0,P|335:258|472:183,1,198
412,129,3032,6,0,P|420:181|373:328,1,198
287,286,3605,1,0,0:0:0:0:
195,252,3796,1,0,0:0:0:0:
225,158,3987,2,0,P|177:126|40:201,1,198
100,129,4561,6,0,P|92:181|139:328,1,198
225,286,5134,1,0,0:0:0:0:
317,252,5325,1,0,0:0:0:0:
287,158,5516,2,0,P|335:126|472:201,1,198
412,255,6089,6,0,P|420:203|373:56,1,198
287,98,6662,1,0,0:0:0:0:
195,132,6853,1,0,0:0:0:0:
225,226,7044,2,0,P|177:258|40:183,1,198
94,113,7618,5,0,0:0:0:0:
110,110,7714,1,0,0:0:0:0:
126,107,7809,1,0,0:0:0:0:
142,104,7905,1,0,0:0:0:0:
158,102,8000,1,0,0:0:0:0:
174,100,8096,1,0,0:0:0:0:
190,98,8191,1,0,0:0:0:0:
206,96,8287,1,0,0:0:0:0:
222,96,8382,5,0,0:0:0:0:
238,96,8478,1,0,0:0:0:0:
254,96,8574,1,0,0:0:0:0:
269,100,8669,1,0,0:0:0:0:
285,103,8765,2,0,P|344:125|499:88,2,217.800006646729
228,153,9720,5,0,0:0:0:0:
219,166,9816,1,0,0:0:0:0:
210,179,9911,1,0,0:0:0:0:
201,193,10007,1,0,0:0:0:0:
192,206,10102,1,0,0:0:0:0:
183,220,10198,1,0,0:0:0:0:
174,234,10293,1,0,0:0:0:0:
165,248,10389,1,0,0:0:0:0:
159,263,10484,5,0,0:0:0:0:
153,278,10580,1,0,0:0:0:0:
147,293,10675,2,0,B|131:348|163:356|280:351|443:260,1,326.700009970093
421,271,11344,1,0,0:0:0:0:
421,271,11440,2,0,P|466:212|475:157,1,108.900003323364
422,124,11822,2,0,P|388:191|364:252,1,108.900003323364
315,269,12204,6,0,P|250:284|97:262,1,217.800006646729
100,187,12777,1,0,0:0:0:0:
100,187,12873,1,0,0:0:0:0:
100,187,12968,2,0,P|167:180|322:199,1,217.800006646729
334,207,13446,2,0,L|407:244,2,54.4500016616822
322,198,13733,5,0,0:0:0:0:
310,192,13828,1,0,0:0:0:0:
298,184,13924,1,0,0:0:0:0:
286,176,14019,1,0,0:0:0:0:
274,168,14115,1,0,0:0:0:0:
262,160,14211,1,0,0:0:0:0:
250,153,14306,1,0,0:0:0:0:
238,145,14402,1,0,0:0:0:0:
225,140,14497,5,0,0:0:0:0:
212,135,14593,1,0,0:0:0:0:
199,130,14688,1,0,0:0:0:0:
186,124,14784,1,0,0:0:0:0:
173,119,14879,1,0,0:0:0:0:
160,114,14975,1,0,0:0:0:0:
147,109,15070,1,0,0:0:0:0:
133,107,15166,1,0,0:0:0:0:
120,103,15261,6,0,B|65:123|54:151|64:290|286:341,1,356.399989123536
337,233,16408,1,0,0:0:0:0:
367,112,16790,2,0,P|306:104|174:130,1,178.199994561768
183,184,17363,2,0,P|262:196|371:165,1,178.199994561768
163,291,18319,5,0,0:0:0:0:
163,291,18414,1,0,0:0:0:0:
163,291,18510,1,0,0:0:0:0:
163,291,18701,2,0,P|181:228|265:136,1,178.199994561768
253,143,19370,1,0,0:0:0:0:
253,143,19656,1,0,0:0:0:0:
284,70,19847,6,0,P|340:68|384:94,1,79.2
412,183,20230,2,0,P|378:234|372:281,1,79.2
266,302,20612,2,0,P|218:273|169:266,1,79.2
195,267,20898,1,0,0:0:0:0:
195,267,20994,1,0,0:0:0:0:
144,160,21185,1,0,0:0:0:0:
228,76,21376,6,0,P|185:113|181:149,1,79.2
287,80,21758,2,0,P|327:115|328:159,2,79.2
254,194,22332,1,0,0:0:0:0:
254,213,22427,1,0,0:0:0:0:
254,232,22523,1,0,0:0:0:0:
339,314,22714,1,0,0:0:0:0:
431,239,22905,6,0,P|437:175|430:143,1,79.2
342,86,23287,2,0,P|321:147|317:184,1,79.2
263,266,23669,1,0,0:0:0:0:
155,315,23860,1,0,0:0:0:0:
155,315,23956,1,0,0:0:0:0:
155,315,24051,1,0,0:0:0:0:
117,202,24242,1,0,0:0:0:0:
111,83,24433,6,0,P|168:77|213:81,1,79.2
373,135,24816,2,0,P|334:137|295:132,1,79.2
122,203,25198,2,0,P|161:207|201:204,1,79.2
212,203,25484,1,0,0:0:0:0:
223,203,25580,1,0,0:0:0:0:
341,203,25771,1,0,0:0:0:0:
383,313,25962,6,0,P|412:232|417:214,1,79.2
383,71,26344,2,0,P|401:107|413:145,1,79.2
304,193,26726,2,0,P|223:192|210:193,1,79.2
204,192,27013,1,0,0:0:0:0:
184,191,27109,1,0,0:0:0:0:
118,235,27300,1,0,0:0:0:0:
159,302,27491,6,0,P|212:294|247:273,1,79.2
346,242,27873,2,0,P|394:214|434:207,2,79.2
228,225,28446,1,0,0:0:0:0:
228,225,28542,1,0,0:0:0:0:
228,225,28637,1,0,0:0:0:0:
122,170,28828,1,0,0:0:0:0:
194,75,29019,6,0,P|252:77|282:81,1,79.2
370,148,29402,2,0,P|309:169|275:169,1,79.2
198,239,29784,2,0,P|245:259|288:260,1,79.2
272,261,30070,1,0,0:0:0:0:
272,261,30166,1,0,0:0:0:0:
391,256,30357,1,0,0:0:0:0:
352,143,30548,5,0,0:0:0:0:
264,262,30739,1,0,0:0:0:0:
226,116,30930,1,0,0:0:0:0:
315,98,31121,1,0,0:0:0:0:
216,211,31312,1,0,0:0:0:0:
363,241,31503,1,0,0:0:0:0:
246,144,31695,2,0,P|182:130|142:142,1,79.2
237,60,32077,5,0,0:0:0:0:
266,56,32172,1,0,0:0:0:0:
295,60,32268,1,0,0:0:0:0:
322,69,32363,1,0,0:0:0:0:
344,88,32459,5,0,0:0:0:0:
360,112,32554,1,0,0:0:0:0:
369,140,32650,1,0,0:0:0:0:
369,169,32746,1,0,0:0:0:0:
368,198,32841,5,0,0:0:0:0:
357,225,32937,1,0,0:0:0:0:
340,249,33032,1,0,0:0:0:0:
316,267,33128,1,0,0:0:0:0:
287,272,33223,5,0,0:0:0:0:
257,272,33319,1,0,0:0:0:0:
229,260,33414,1,0,0:0:0:0:
211,235,33510,1,0,0:0:0:0:
205,206,33605,6,0,P|206:147|357:212,1,297
357,216,34274,1,0,0:0:0:0:
354,245,34370,1,0,0:0:0:0:
345,273,34465,1,0,0:0:0:0:
325,295,34561,5,0,0:0:0:0:
297,306,34656,1,0,0:0:0:0:
267,303,34752,1,0,0:0:0:0:
238,295,34847,1,0,0:0:0:0:
223,269,34943,1,0,0:0:0:0:
214,234,35039,1,0,0:0:0:0:
210,204,35134,6,0,P|160:154|60:222,1,198
138,156,35707,5,0,0:0:0:0:
138,156,35803,1,0,0:0:0:0:
138,156,35898,1,0,0:0:0:0:
228,101,36089,2,0,P|294:89|337:96,2,99
165,178,36663,6,0,P|215:204|368:214,1,198
378,212,37140,1,0,0:0:0:0:
401,204,37236,1,0,0:0:0:0:
420,188,37332,1,0,0:0:0:0:
441,176,37427,2,0,P|466:124|338:55,1,198
359,44,37905,1,0,0:0:0:0:
339,48,38000,1,0,0:0:0:0:
319,51,38096,1,0,0:0:0:0:
299,55,38191,5,0,0:0:0:0:
284,56,38287,1,0,0:0:0:0:
271,63,38382,1,0,0:0:0:0:
261,74,38478,1,0,0:0:0:0:
255,87,38574,1,0,0:0:0:0:
250,101,38669,1,0,0:0:0:0:
253,115,38765,1,0,0:0:0:0:
253,129,38860,1,0,0:0:0:0:
261,141,38956,5,0,0:0:0:0:
272,149,39051,1,0,0:0:0:0:
283,158,39147,1,0,0:0:0:0:
297,161,39242,1,0,0:0:0:0:
311,165,39338,1,0,0:0:0:0:
325,166,39433,1,0,0:0:0:0:
339,168,39529,1,0,0:0:0:0:
353,170,39625,1,0,0:0:0:0:
366,172,39720,6,0,P|315:220|166:253,2,198
171,157,40867,1,0,0:0:0:0:
229,52,41249,2,0,P|248:106|211:261,1,198
171,157,41822,1,0,0:0:0:0:
334,44,42204,2,0,P|371:192|316:340,1,297
308,342,42873,1,0,0:0:0:0:
283,345,42968,1,0,0:0:0:0:
188,312,43160,2,0,L|188:106,1,198
56,45,43828,1,0,0:0:0:0:
75,192,44115,1,0,0:0:0:0:
158,268,44306,5,0,0:0:0:0:
193,285,44402,1,0,0:0:0:0:
228,303,44497,2,0,P|290:290|328:263,1,79.2
338,264,44784,1,0,0:0:0:0:
362,233,44879,2,0,P|382:181|379:133,1,79.2
360,125,45166,1,0,0:0:0:0:
328,101,45261,2,0,P|272:79|227:87,1,79.2
182,115,45644,1,0,0:0:0:0:
246,160,45835,5,0,0:0:0:0:
272,130,45930,1,0,0:0:0:0:
294,97,46026,2,0,P|346:96|368:133,1,79.2
373,151,46312,1,0,0:0:0:0:
374,190,46408,2,0,P|354:247|312:276,1,79.2
302,250,46695,2,0,L|250:288,1,39.6
216,224,46886,2,0,L|197:273,1,39.6
127,198,47077,2,0,L|131:263,2,39.6
116,159,47363,6,0,P|140:109|164:97,1,79.2
238,92,47746,2,0,L|247:133,1,39.6
324,131,47937,2,0,L|309:186,1,39.6
235,196,48128,2,0,P|252:245|286:257,1,79.2
357,244,48510,2,0,L|386:200,1,39.6
327,145,48701,2,0,L|368:97,1,39.6
324,87,48892,6,0,P|270:77|238:87,1,79.2
198,145,49274,2,0,P|242:153|283:146,1,79.2
338,196,49656,1,0,0:0:0:0:
253,217,49847,2,0,L|230:268,1,39.6
172,213,50039,2,0,L|153:271,1,39.6
99,205,50230,2,0,L|97:273,1,39.6
119,278,50421,6,0,P|160:302|211:313,1,79.2
228,302,50707,2,0,L|249:337,1,39.6
279,243,50898,2,0,L|301:298,1,39.6
331,175,51089,2,0,L|336:232,1,39.6
261,112,51376,2,0,L|235:171,1,39.6
190,72,51567,2,0,L|186:129,1,39.6
106,81,51758,2,0,L|121:134,1,39.6
91,149,51949,6,0,P|115:201|131:227,1,79.2
165,216,52236,2,0,L|159:273,1,39.6
236,195,52427,2,0,L|213:255,1,39.6
319,217,52618,2,0,L|271:257,1,39.6
431,194,52905,2,0,L|441:141,1,39.6
366,168,53096,2,0,L|361:120,1,39.6
293,153,53287,2,0,L|259:108,1,39.6
232,105,53478,6,0,P|174:88|129:95,1,79.2
117,100,53765,2,0,L|87:163,1,39.6
166,166,53956,2,0,L|143:220,1,39.6
226,211,54147,2,0,L|202:257,1,39.6
298,191,54433,2,0,L|314:246,1,39.6
343,148,54625,2,0,L|404:181,1,39.6
355,87,54816,2,0,L|411:77,1,39.6
356,55,55007,6,0,P|288:39|246:62,1,89.0999972808839
221,117,55389,2,0,P|167:147|130:127,1,89.0999972808839
82,202,55771,1,0,0:0:0:0:
100,215,55867,1,0,0:0:0:0:
120,222,55962,1,0,0:0:0:0:
141,228,56058,1,0,0:0:0:0:
162,231,56153,1,0,0:0:0:0:
184,229,56249,1,0,0:0:0:0:
206,227,56344,1,0,0:0:0:0:
228,226,56440,1,0,0:0:0:0:
254,218,56535,6,0,P|307:188|362:193,2,108.900003323364
345,278,57109,1,0,0:0:0:0:
368,291,57204,1,0,0:0:0:0:
394,296,57300,1,0,0:0:0:0:
417,282,57395,1,0,0:0:0:0:
434,260,57491,1,0,0:0:0:0:
447,152,57682,2,0,P|392:101|338:89,1,108.900003323364
256,124,58064,6,0,L|256:248,2,108.900003323364
171,193,58637,1,0,0:0:0:0:
154,215,58733,1,0,0:0:0:0:
138,237,58828,1,0,0:0:0:0:
115,252,58924,1,0,0:0:0:0:
88,258,59019,1,0,0:0:0:0:
65,152,59211,2,0,P|119:101|173:89,1,108.900003323364
257,115,59593,6,0,P|309:136|371:124,1,108.900003323364
360,254,59975,2,0,P|306:248|257:269,1,108.900003323364
237,287,60261,1,0,0:0:0:0:
214,301,60357,1,0,0:0:0:0:
187,306,60453,1,0,0:0:0:0:
160,302,60548,1,0,0:0:0:0:
70,239,60739,2,0,P|137:209|236:225,1,163.350004985047
249,230,61121,6,0,P|265:289|258:354,1,108.900003323364
333,253,61503,2,0,P|344:173|331:122,1,108.900003323364
266,64,61886,2,0,L|230:112,1,54.4500016616822
218,130,62077,1,0,0:0:0:0:
246,320,62268,2,0,L|282:272,1,54.4500016616822
297,257,62459,1,0,0:0:0:0:
346,191,62650,5,0,0:0:0:0:
332,155,62746,1,0,0:0:0:0:
308,125,62841,1,0,0:0:0:0:
279,99,62937,1,0,0:0:0:0:
244,83,63032,2,0,P|173:90|112:177,1,163.350004985047
124,194,63414,2,0,L|144:254,2,54.4500016616822
254,195,63796,1,0,0:0:0:0:
388,194,63988,2,0,L|368:254,2,54.4500016616822
212,65,64561,6,0,P|172:117|160:232,1,163.350004985047
145,236,64943,2,0,P|199:267|247:261,1,108.900003323364
254,237,65230,2,0,P|326:232|357:188,1,108.900003323364
373,197,65516,1,0,0:0:0:0:
327,100,65707,2,0,P|266:77|201:103,1,108.900003323364
154,168,66089,2,0,P|212:177|264:146,1,108.900003323364
253,313,66472,1,0,0:0:0:0:
253,71,66663,6,0,P|195:102|180:158,2,108.900003323364
336,141,67236,1,0,0:0:0:0:
335,168,67332,1,0,0:0:0:0:
333,195,67427,1,0,0:0:0:0:
321,219,67523,1,0,0:0:0:0:
303,239,67618,1,0,0:0:0:0:
276,246,67714,1,0,0:0:0:0:
250,237,67809,1,0,0:0:0:0:
233,215,67905,1,0,0:0:0:0:
213,196,68000,6,0,P|201:135|353:227,1,435.600013293457
349,249,68860,1,0,0:0:0:0:
326,272,68955,1,0,0:0:0:0:
294,280,69051,1,0,0:0:0:0:
261,283,69146,1,0,0:0:0:0:
228,278,69242,1,0,0:0:0:0:
197,266,69337,1,0,0:0:0:0:
174,241,69433,1,0,0:0:0:0:
161,210,69529,5,0,0:0:0:0:
160,177,69625,1,0,0:0:0:0:
171,146,69720,1,0,0:0:0:0:
190,119,69816,1,0,0:0:0:0:
213,96,69911,1,0,0:0:0:0:
241,78,70007,1,0,0:0:0:0:
271,65,70102,1,0,0:0:0:0:
303,58,70198,1,0,0:0:0:0:
332,57,70293,5,0,0:0:0:0:
361,63,70389,1,0,0:0:0:0:
387,77,70484,1,0,0:0:0:0:
410,95,70580,1,0,0:0:0:0:
426,119,70675,2,0,P|446:187|435:298,1,178.199994561768
409,279,71058,2,0,P|337:253|276:272,1,118.799996374512
206,337,71440,2,0,P|267:353|330:339,1,118.799996374512
276,233,71822,6,0,P|212:204|158:228,1,118.799996374512
139,222,72109,1,0,0:0:0:0:
110,214,72204,2,0,P|98:139|146:44,1,178.199994561768
170,47,72586,2,0,P|248:30|311:48,1,118.799996374512
376,112,72968,2,0,P|304:131|244:114,1,118.799996374512
147,87,73351,5,0,0:0:0:0:
149,104,73446,1,0,0:0:0:0:
155,120,73542,1,0,0:0:0:0:
161,136,73637,1,0,0:0:0:0:
169,152,73733,2,0,L|349:152,1,178.199994561768
388,156,74115,2,0,L|389:337,2,178.199994561768
124,228,74879,2,0,L|123:47,2,178.199994561768
205,248,75644,5,0,0:0:0:0:
218,209,75739,1,0,0:0:0:0:
253,187,75835,1,0,0:0:0:0:
294,188,75930,1,0,0:0:0:0:
316,155,76026,5,0,0:0:0:0:
341,123,76121,1,0,0:0:0:0:
382,116,76217,1,0,0:0:0:0:
419,133,76312,1,0,0:0:0:0:
431,145,76408,5,0,0:0:0:0:
429,161,76503,1,0,0:0:0:0:
420,175,76599,1,0,0:0:0:0:
405,183,76695,1,0,0:0:0:0:
388,185,76790,2,0,P|402:266|366:356,1,170.775003257275
344,351,77172,2,0,P|278:358|226:342,1,113.850002171516
207,332,77459,2,0,P|154:311|117:211,1,170.775003257275
135,82,77937,6,0,P|191:38|254:38,1,113.850002171516
246,57,78223,1,0,0:0:0:0:
266,76,78319,2,0,P|330:66|390:80,2,113.850002171516
273,246,78988,1,0,0:0:0:0:
312,80,79274,1,0,0:0:0:0:
413,128,79465,5,0,0:0:0:0:
367,233,79656,1,0,0:0:0:0:
309,135,79847,1,0,0:0:0:0:
413,181,80039,5,0,0:0:0:0:
309,228,80230,1,0,0:0:0:0:
309,115,80421,1,0,0:0:0:0:
364,215,80612,5,0,0:0:0:0:
250,217,80803,1,0,0:0:0:0:
313,123,80994,1,0,0:0:0:0:
380,281,81281,1,0,0:0:0:0:
209,284,81567,1,0,0:0:0:0:
106,235,81758,2,0,P|119:169|211:33,1,227.700004343033
440,80,82523,5,0,0:0:0:0:
435,109,82618,1,0,0:0:0:0:
433,138,82714,1,0,0:0:0:0:
421,165,82809,1,0,0:0:0:0:
397,180,82905,2,0,P|334:145|217:134,1,178.199994561768
240,104,83287,2,0,P|222:174|233:234,1,118.799996374512
300,311,83669,2,0,P|311:229|300:166,1,118.799996374512
220,275,84051,5,0,0:0:0:0:
202,250,84147,1,0,0:0:0:0:
197,220,84242,1,0,0:0:0:0:
188,195,84338,1,0,0:0:0:0:
172,170,84433,2,0,P|238:131|428:144,1,237.599992749024
397,248,85007,1,0,0:0:0:0:
278,248,85198,1,0,0:0:0:0:
278,129,85389,1,0,0:0:0:0:
349,34,85580,5,0,0:0:0:0:
378,39,85675,1,0,0:0:0:0:
406,48,85771,2,0,P|428:123|427:188,1,118.799996374512
458,170,86058,2,0,P|450:252|422:290,1,118.799996374512
401,281,86344,2,0,L|222:280,2,178.199994561768
113,107,87109,2,0,L|293:107,2,178.199994561768
99,266,87873,5,0,0:0:0:0:
88,227,87968,1,0,0:0:0:0:
90,186,88064,1,0,0:0:0:0:
121,159,88160,1,0,0:0:0:0:
138,122,88255,5,0,0:0:0:0:
179,115,88351,1,0,0:0:0:0:
219,125,88446,1,0,0:0:0:0:
255,146,88542,1,0,0:0:0:0:
290,164,88637,6,0,P|317:222|297:275,1,113.850002171516
275,274,88924,1,0,0:0:0:0:
249,286,89019,2,0,P|187:304|87:264,1,170.775003257275
114,251,89402,2,0,P|102:178|111:124,1,113.850002171516
135,135,89688,2,0,P|180:86|252:70,1,113.850002171516
251,67,89975,1,0,0:0:0:0:
364,60,90166,5,0,0:0:0:0:
380,82,90261,1,0,0:0:0:0:
375,110,90357,1,0,0:0:0:0:
360,134,90453,1,0,0:0:0:0:
332,139,90548,2,0,P|377:190|391:309,1,170.775003257275
384,315,90930,2,0,P|341:351|251:345,1,113.850002171516
256,359,91217,2,0,P|197:345|167:293,1,113.850002171516
170,274,91503,1,0,0:0:0:0:
151,191,91695,5,0,0:0:0:0:
174,92,91886,1,0,0:0:0:0:
244,166,92077,1,0,0:0:0:0:
184,250,92268,5,0,0:0:0:0:
168,149,92459,1,0,0:0:0:0:
263,187,92650,1,0,0:0:0:0:
241,288,92841,5,0,0:0:0:0:
203,193,93032,1,0,0:0:0:0:
305,193,93223,2,0,P|369:229|442:363,1,227.700004343033
343,333,93796,5,0,0:0:0:0:
257,276,93988,2,0,P|323:210|472:185,1,227.700004343033
379,109,94561,1,0,0:0:0:0:
256,192,94752,12,0,96281,0:0:0:0:
256,193,96472,5,0,0:0:0:0:
359,178,97045,2,0,P|255:139|153:182,1,227.700004343033
208,272,97809,5,0,0:0:0:0:
189,280,97905,1,0,0:0:0:0:
170,285,98000,1,0,0:0:0:0:
150,282,98096,1,0,0:0:0:0:
130,277,98191,1,0,0:0:0:0:
114,264,98287,1,0,0:0:0:0:
101,248,98382,1,0,0:0:0:0:
96,228,98478,1,0,0:0:0:0:
96,208,98574,1,0,0:0:0:0:
104,190,98669,1,0,0:0:0:0:
117,175,98765,1,0,0:0:0:0:
133,164,98860,1,0,0:0:0:0:
151,157,98956,1,0,0:0:0:0:
170,155,99051,1,0,0:0:0:0:
189,156,99147,1,0,0:0:0:0:
208,158,99242,1,0,0:0:0:0:
226,164,99338,6,0,P|278:175|188:331,1,297
208,340,100007,1,0,0:0:0:0:
190,330,100102,1,0,0:0:0:0:
178,313,100198,1,0,0:0:0:0:
171,294,100293,1,0,0:0:0:0:
176,274,100389,1,0,0:0:0:0:
189,259,100484,1,0,0:0:0:0:
207,250,100580,1,0,0:0:0:0:
225,243,100675,1,0,0:0:0:0:
244,241,100771,1,0,0:0:0:0:
263,241,100867,6,0,P|326:224|265:58,1,297
248,60,101535,1,0,0:0:0:0:
223,65,101631,2,0,P|163:96|106:76,1,99
245,161,102013,2,0,P|299:187|364:166,1,99
399,258,102395,6,0,P|334:294|216:257,1,198
164,180,102968,1,0,0:0:0:0:
182,196,103064,1,0,0:0:0:0:
211,218,103160,2,0,P|276:258|396:206,1,198
405,207,103637,1,0,0:0:0:0:
420,187,103733,1,0,0:0:0:0:
414,163,103828,1,0,0:0:0:0:
402,153,103924,5,0,0:0:0:0:
388,146,104019,1,0,0:0:0:0:
373,141,104115,1,0,0:0:0:0:
358,140,104211,1,0,0:0:0:0:
338,140,104306,1,0,0:0:0:0:
318,144,104402,1,0,0:0:0:0:
299,151,104497,1,0,0:0:0:0:
288,168,104593,1,0,0:0:0:0:
280,191,104688,1,0,0:0:0:0:
282,207,104784,1,0,0:0:0:0:
292,223,104879,1,0,0:0:0:0:
307,235,104975,1,0,0:0:0:0:
322,246,105070,1,0,0:0:0:0:
341,248,105166,1,0,0:0:0:0:
360,246,105261,1,0,0:0:0:0:
378,238,105357,1,0,0:0:0:0:
387,226,105453,6,0,P|410:175|229:200,1,396
253,281,106408,1,0,0:0:0:0:
226,193,106599,2,0,P|207:135|117:205,1,198
118,268,107172,2,0,P|141:317|204:331,2,99
121,168,107746,1,0,0:0:0:0:
147,72,107937,2,0,P|200:62|408:183,1,297
426,177,108605,1,0,0:0:0:0:
434,200,108701,1,0,0:0:0:0:
401,271,108892,2,0,P|326:259|281:278,1,99
258,328,109274,5,0,0:0:0:0:
127,112,109561,1,0,0:0:0:0:
385,112,109847,1,0,0:0:0:0:
420,183,110039,6,0,P|409:245|379:259,1,79.2
323,229,110421,2,0,L|304:297,1,39.6
243,232,110612,2,0,L|220:303,1,39.6
169,223,110803,2,0,P|123:244|69:238,1,79.2
252,225,111185,2,0,P|295:248|338:249,1,79.2
202,149,111567,6,0,P|210:94|208:54,1,79.2
367,76,111949,2,0,L|355:128,1,39.6
278,120,112140,2,0,L|263:180,1,39.6
192,185,112332,2,0,P|199:244|221:285,1,79.2
321,271,112714,2,0,L|354:203,1,39.6
412,194,112905,2,0,L|450:126,1,39.6
466,88,113096,6,0,P|416:79|373:101,1,79.2
274,83,113478,2,0,L|272:130,1,39.6
343,125,113669,2,0,L|338:188,1,39.6
297,231,113860,2,0,P|248:254|220:256,1,79.2
105,245,114242,2,0,P|160:209|189:208,1,79.2
233,105,114625,6,0,L|233:200,1,79.2
312,188,115007,1,0,0:0:0:0:
330,162,115102,1,0,0:0:0:0:
347,135,115198,1,0,0:0:0:0:
371,115,115293,1,0,0:0:0:0:
398,108,115389,2,0,L|398:203,1,79.2
331,230,115771,2,0,L|298:283,1,39.6
249,211,115962,2,0,L|207:268,1,39.6
154,207,116153,6,0,P|150:150|176:120,1,79.2
247,52,116535,2,0,L|253:96,1,39.6
330,103,116726,2,0,L|340:154,1,39.6
409,178,116918,2,0,P|401:231|376:272,1,79.2
285,310,117300,2,0,P|299:245|338:222,1,79.2
214,313,117682,6,0,L|129:289,1,79.2
249,252,118064,2,0,L|307:241,1,39.6
238,182,118255,2,0,L|287:173,1,39.6
225,114,118446,2,0,L|134:98,1,79.2
88,153,118828,1,0,0:0:0:0:
71,189,118924,1,0,0:0:0:0:
74,228,119019,1,0,0:0:0:0:
83,266,119115,1,0,0:0:0:0:
109,295,119211,6,0,P|153:328|195:323,1,79.2
290,301,119593,2,0,L|311:255,1,39.6
236,227,119784,2,0,L|260:181,1,39.6
229,116,119975,2,0,P|270:101|315:120,1,79.2
226,190,120357,2,0,P|182:200|142:185,1,79.2
126,298,120739,6,0,P|196:317|219:309,1,79.2
358,309,121121,2,0,P|320:273|279:273,1,79.2
256,116,121503,1,0,0:0:0:0:
256,139,121599,1,0,0:0:0:0:
256,162,121695,1,0,0:0:0:0:
257,185,121790,1,0,0:0:0:0:
257,208,121886,1,0,0:0:0:0:
258,231,121981,1,0,0:0:0:0:
258,254,122077,1,0,0:0:0:0:
260,277,122172,1,0,0:0:0:0:
258,309,122268,6,0,P|322:313|358:259,2,108.900003323364
149,313,122841,1,0,0:0:0:0:
126,297,122937,1,0,0:0:0:0:
112,273,123032,1,0,0:0:0:0:
111,245,123128,1,0,0:0:0:0:
121,219,123223,1,0,0:0:0:0:
65,152,123414,2,0,P|120:101|174:89,1,108.900003323364
256,124,123796,6,0,L|256:248,2,108.900003323364
341,193,124369,1,0,0:0:0:0:
358,215,124465,1,0,0:0:0:0:
374,237,124560,1,0,0:0:0:0:
397,252,124656,1,0,0:0:0:0:
424,258,124751,1,0,0:0:0:0:
447,152,124943,2,0,P|393:101|339:89,1,108.900003323364
255,115,125325,6,0,P|203:136|141:124,1,108.900003323364
152,254,125707,2,0,P|206:248|255:269,1,108.900003323364
275,287,125993,1,0,0:0:0:0:
298,301,126089,1,0,0:0:0:0:
325,306,126185,1,0,0:0:0:0:
352,302,126280,1,0,0:0:0:0:
442,239,126471,2,0,P|375:209|276:225,1,163.350004985047
263,230,126853,6,0,P|247:289|254:354,1,108.900003323364
179,253,127235,2,0,P|168:173|181:122,1,108.900003323364
246,64,127618,2,0,L|282:112,1,54.4500016616822
295,129,127809,1,0,0:0:0:0:
265,320,128000,2,0,L|229:272,1,54.4500016616822
216,254,128191,1,0,0:0:0:0:
166,191,128382,5,0,0:0:0:0:
180,155,128478,1,0,0:0:0:0:
204,125,128573,1,0,0:0:0:0:
233,99,128669,1,0,0:0:0:0:
268,83,128764,2,0,P|339:90|400:177,1,163.350004985047
388,194,129146,2,0,L|368:254,2,54.4500016616822
258,195,129528,1,0,0:0:0:0:
124,194,129720,2,0,L|144:254,2,54.4500016616822
300,65,130293,6,0,P|340:117|352:232,1,163.350004985047
352,238,130675,2,0,P|298:269|250:263,1,108.900003323364
234,244,130962,2,0,P|162:239|131:195,1,108.900003323364
145,188,131248,1,0,0:0:0:0:
185,100,131439,2,0,P|246:77|311:103,1,108.900003323364
358,168,131821,2,0,P|300:177|248:146,1,108.900003323364
259,313,132204,1,0,0:0:0:0:
259,71,132395,6,0,P|317:102|332:158,2,108.900003323364
176,141,132968,1,0,0:0:0:0:
177,168,133064,1,0,0:0:0:0:
179,195,133159,1,0,0:0:0:0:
191,219,133255,1,0,0:0:0:0:
209,239,133350,1,0,0:0:0:0:
236,246,133446,1,0,0:0:0:0:
262,237,133541,1,0,0:0:0:0:
279,215,133637,1,0,0:0:0:0:
299,196,133732,6,0,P|311:135|159:227,1,435.600013293457
163,249,134593,1,0,0:0:0:0:
186,272,134688,1,0,0:0:0:0:
218,280,134784,1,0,0:0:0:0:
251,283,134879,1,0,0:0:0:0:
284,278,134975,1,0,0:0:0:0:
315,266,135070,1,0,0:0:0:0:
338,241,135166,1,0,0:0:0:0:
351,210,135262,5,0,0:0:0:0:
352,177,135358,1,0,0:0:0:0:
341,146,135453,1,0,0:0:0:0:
322,119,135549,1,0,0:0:0:0:
299,96,135644,1,0,0:0:0:0:
271,78,135740,1,0,0:0:0:0:
241,65,135835,1,0,0:0:0:0:
209,58,135931,1,0,0:0:0:0:
180,57,136026,5,0,0:0:0:0:
151,63,136122,1,0,0:0:0:0:
125,77,136217,1,0,0:0:0:0:
102,95,136313,1,0,0:0:0:0:
86,119,136408,2,0,P|66:187|77:298,1,178.199994561768
103,279,136791,2,0,P|175:253|236:272,1,118.799996374512
306,337,137173,2,0,P|245:353|182:339,1,118.799996374512
236,233,137555,6,0,P|300:204|354:228,1,118.799996374512
373,222,137842,1,0,0:0:0:0:
402,214,137937,2,0,P|414:139|366:44,1,178.199994561768
342,47,138319,2,0,P|264:30|201:48,1,118.799996374512
136,112,138701,2,0,P|208:131|268:114,1,118.799996374512
365,87,139084,5,0,0:0:0:0:
363,104,139179,1,0,0:0:0:0:
357,120,139275,1,0,0:0:0:0:
351,136,139370,1,0,0:0:0:0:
343,152,139466,2,0,L|163:152,1,178.199994561768
124,156,139848,2,0,L|123:337,2,178.199994561768
388,228,140612,2,0,L|389:47,2,178.199994561768
307,248,141377,5,0,0:0:0:0:
294,209,141472,1,0,0:0:0:0:
259,187,141568,1,0,0:0:0:0:
218,188,141663,1,0,0:0:0:0:
196,155,141759,5,0,0:0:0:0:
171,123,141854,1,0,0:0:0:0:
130,116,141950,1,0,0:0:0:0:
93,133,142045,1,0,0:0:0:0:
81,145,142141,5,0,0:0:0:0:
83,161,142236,1,0,0:0:0:0:
92,175,142332,1,0,0:0:0:0:
107,183,142428,1,0,0:0:0:0:
124,185,142523,2,0,P|110:266|146:356,1,170.775003257275
167,351,142905,2,0,P|233:358|285:342,1,113.850002171516
302,330,143192,2,0,P|355:309|392:209,1,170.775003257275
377,82,143670,6,0,P|321:38|258:38,1,113.850002171516
266,57,143956,1,0,0:0:0:0:
246,76,144052,2,0,P|182:66|122:80,2,113.850002171516
239,246,144721,1,0,0:0:0:0:
200,80,145007,1,0,0:0:0:0:
99,128,145198,5,0,0:0:0:0:
145,233,145389,1,0,0:0:0:0:
203,135,145580,1,0,0:0:0:0:
99,181,145772,5,0,0:0:0:0:
203,228,145963,1,0,0:0:0:0:
203,115,146154,1,0,0:0:0:0:
148,215,146345,5,0,0:0:0:0:
262,217,146536,1,0,0:0:0:0:
199,123,146727,1,0,0:0:0:0:
132,281,147014,1,0,0:0:0:0:
303,284,147300,1,0,0:0:0:0:
406,235,147491,2,0,P|393:169|301:33,1,227.700004343033
72,80,148256,5,0,0:0:0:0:
77,109,148351,1,0,0:0:0:0:
79,138,148447,1,0,0:0:0:0:
91,165,148542,1,0,0:0:0:0:
115,180,148638,2,0,P|178:145|295:134,1,178.199994561768
272,104,149020,2,0,P|290:174|279:234,1,118.799996374512
212,311,149402,2,0,P|201:229|212:166,1,118.799996374512
292,275,149784,5,0,0:0:0:0:
310,250,149880,1,0,0:0:0:0:
315,220,149975,1,0,0:0:0:0:
324,195,150071,1,0,0:0:0:0:
340,170,150166,2,0,P|274:131|84:144,1,237.599992749024
115,248,150740,1,0,0:0:0:0:
234,248,150931,1,0,0:0:0:0:
234,129,151122,1,0,0:0:0:0:
163,34,151313,5,0,0:0:0:0:
134,39,151408,1,0,0:0:0:0:
106,48,151504,2,0,P|84:123|85:188,1,118.799996374512
54,170,151791,2,0,P|62:252|90:290,1,118.799996374512
111,281,152077,2,0,L|290:280,2,178.199994561768
399,107,152842,2,0,L|219:107,2,178.199994561768
413,266,153606,5,0,0:0:0:0:
424,227,153701,1,0,0:0:0:0:
422,186,153797,1,0,0:0:0:0:
391,159,153893,1,0,0:0:0:0:
374,122,153988,5,0,0:0:0:0:
333,115,154084,1,0,0:0:0:0:
293,125,154179,1,0,0:0:0:0:
257,146,154275,1,0,0:0:0:0:
222,164,154370,6,0,P|195:222|215:275,1,113.850002171516
237,274,154657,1,0,0:0:0:0:
263,286,154752,2,0,P|325:304|425:264,1,170.775003257275
398,251,155135,2,0,P|410:178|401:124,1,113.850002171516
377,135,155421,2,0,P|332:86|260:70,1,113.850002171516
261,67,155708,1,0,0:0:0:0:
148,60,155899,5,0,0:0:0:0:
132,82,155994,1,0,0:0:0:0:
137,110,156090,1,0,0:0:0:0:
152,134,156186,1,0,0:0:0:0:
180,139,156281,2,0,P|135:190|121:309,1,170.775003257275
128,315,156663,2,0,P|171:351|261:345,1,113.850002171516
256,359,156950,6,0,P|315:345|345:293,1,113.850002171516
342,274,157236,1,0,0:0:0:0:
361,191,157428,5,0,0:0:0:0:
338,92,157619,1,0,0:0:0:0:
268,166,157810,1,0,0:0:0:0:
328,250,158001,5,0,0:0:0:0:
344,149,158192,1,0,0:0:0:0:
249,187,158383,1,0,0:0:0:0:
271,288,158574,5,0,0:0:0:0:
309,193,158765,1,0,0:0:0:0:
207,193,158956,2,0,P|143:229|70:363,1,227.700004343033
169,333,159529,5,0,0:0:0:0:
255,276,159721,2,0,P|189:210|40:185,1,227.700004343033
133,109,160294,1,0,0:0:0:0:
256,192,160485,12,0,162014,0:0:0:0:
256,193,162205,5,0,0:0:0:0:
152,178,162778,2,0,P|256:139|359:182,1,227.700004343033
461,341,163542,6,0,P|462:234|117:354,1,693
213,350,165070,6,0,P|286:348|423:168,1,297
350,120,165835,2,0,P|296:98|154:266,1,297
51,341,166599,6,0,P|50:234|395:354,1,693
298,350,168127,6,0,P|158:316|89:189,1,297
188,179,168892,2,0,P|328:173|414:44,1,297
397,36,169656,6,0,P|228:280|51:43,1,693
150,49,171185,6,0,P|319:293|497:56,1,693
402,85,172714,6,0,P|183:100|431:206,1,693
256,192,174242,12,0,176535,0:0:0:0:
256,192,176822,5,0,0:0:0:0:
256,192,177109,1,0,0:0:0:0:
174,156,177300,6,0,P|206:113|384:201,1,296.99999093628
388,328,178542,1,0,0:0:0:0:
255,315,178828,6,0,P|190:301|260:139,1,296.99999093628
369,171,180070,1,0,0:0:0:0:
324,297,180357,6,0,P|272:331|110:193,1,296.99999093628
175,98,181599,1,0,0:0:0:0:
291,163,181886,6,0,P|349:149|427:231,1,178.199994561768
347,266,182650,2,0,P|267:260|188:168,1,178.199994561768
154,117,183414,6,0,P|175:87|392:146,1,296.99999093628
255,151,184656,1,0,0:0:0:0:
361,227,184943,6,0,P|315:270|125:169,1,296.99999093628
262,201,186185,1,0,0:0:0:0:
268,67,186472,6,0,P|312:82|178:284,1,415.799987310791
126,252,188000,2,0,P|95:235|152:140,1,178.199994561768
222,183,188765,2,0,P|286:154|246:75,1,178.199994561768
183,137,189529,6,0,P|126:139|165:306,1,296.99999093628
239,201,190771,1,0,0:0:0:0:
283,327,191058,6,0,P|346:339|458:276,1,178.199994561768
429,204,191822,2,0,P|392:203|255:264,1,178.199994561768
197,196,192586,6,0,P|182:234|201:322,1,118.799996374512
281,326,193160,2,0,P|329:339|421:306,1,148.49999546814
370,182,193924,1,0,0:0:0:0:
402,99,194115,6,0,P|350:79|220:104,1,178.199994561768
283,169,194879,2,0,P|237:190|110:160,1,178.199994561768
43,216,195644,6,0,P|71:261|303:306,1,296.99999093628
286,177,196886,1,0,0:0:0:0:
416,203,197172,2,0,L|269:43,1,207.899993655396
230,50,197937,2,0,L|94:202,1,178.199994561768
78,265,198701,6,0,P|122:309|470:215,1,475.199985498047
256,192,200325,12,0,201758,0:0:0:0:
254,191,202140,5,0,0:0:0:0:
411,275,202523,6,0,P|430:200|419:166,2,89.0999972808839
326,245,203096,1,0,0:0:0:0:
282,238,203191,1,0,0:0:0:0:
237,238,203287,1,0,0:0:0:0:
196,256,203382,1,0,0:0:0:0:
155,276,203478,1,0,0:0:0:0:
68,253,203669,2,0,L|68:142,1,89.0999972808839
141,113,204051,6,0,L|141:24,2,89.0999972808839
230,106,204625,1,0,0:0:0:0:
264,133,204720,1,0,0:0:0:0:
307,142,204816,1,0,0:0:0:0:
349,130,204911,1,0,0:0:0:0:
384,102,205007,1,0,0:0:0:0:
418,184,205198,1,0,0:0:0:0:
376,262,205389,1,0,0:0:0:0:
289,281,205580,6,0,P|262:321|209:344,2,89.0999972808839
257,151,206153,1,0,0:0:0:0:
233,199,206249,1,0,0:0:0:0:
196,237,206344,1,0,0:0:0:0:
144,250,206440,1,0,0:0:0:0:
90,250,206535,1,0,0:0:0:0:
120,147,206726,1,0,0:0:0:0:
190,65,206918,6,0,P|249:65|302:78,1,89.0999972808839
367,128,207300,2,0,P|288:132|256:133,1,89.0999972808839
189,192,207682,1,0,0:0:0:0:
175,234,207777,1,0,0:0:0:0:
175,278,207873,1,0,0:0:0:0:
196,316,207968,1,0,0:0:0:0:
235,336,208064,1,0,0:0:0:0:
323,347,208255,6,0,P|365:324|409:233,1,133.649995921326
408,229,208637,1,0,0:0:0:0:
410,206,208733,1,0,0:0:0:0:
412,183,208828,1,0,0:0:0:0:
413,160,208924,1,0,0:0:0:0:
407,138,209019,6,0,P|367:102|272:95,1,133.649995921326
255,101,209402,2,0,L|194:64,2,44.5499986404419
254,192,209784,1,0,0:0:0:0:
257,283,209975,2,0,L|318:320,2,44.5499986404419
123,290,210357,2,0,L|74:258,1,44.5499986404419
117,201,210548,2,0,L|77:171,1,44.5499986404419
112,109,210739,2,0,L|70:76,1,44.5499986404419
129,32,210930,6,0,P|180:29|254:40,1,89.0999972808839
225,58,211217,2,0,P|278:80|321:76,1,89.0999972808839
325,58,211503,2,0,P|378:63|410:87,1,89.0999972808839
434,151,211886,2,0,P|439:207|437:249,1,89.0999972808839
358,199,212268,2,0,P|347:144|365:109,1,89.0999972808839
257,147,212650,1,0,0:0:0:0:
153,174,212841,2,0,P|189:214|279:235,1,133.649995921326
308,236,213223,5,0,0:0:0:0:
349,220,213319,1,0,0:0:0:0:
378,187,213414,1,0,0:0:0:0:
387,143,213510,1,0,0:0:0:0:
373,100,213605,1,0,0:0:0:0:
338,70,213701,1,0,0:0:0:0:
295,57,213796,1,0,0:0:0:0:
250,52,213892,1,0,0:0:0:0:
206,63,213988,6,0,P|172:82|125:226,1,198
132,249,214847,1,0,0:0:0:0:
148,270,214943,1,0,0:0:0:0:
173,279,215039,1,0,0:0:0:0:
199,277,215134,1,0,0:0:0:0:
224,267,215230,1,0,0:0:0:0:
245,251,215325,1,0,0:0:0:0:
255,226,215421,1,0,0:0:0:0:
269,248,215516,5,0,0:0:0:0:
297,269,215612,1,0,0:0:0:0:
331,275,215707,1,0,0:0:0:0:
364,261,215803,1,0,0:0:0:0:
386,233,215898,1,0,0:0:0:0:
392,197,215994,1,0,0:0:0:0:
380,163,216089,1,0,0:0:0:0:
351,141,216185,1,0,0:0:0:0:
346,96,216281,5,0,0:0:0:0:
318,61,216376,1,0,0:0:0:0:
273,55,216472,1,0,0:0:0:0:
232,73,216567,1,0,0:0:0:0:
210,111,216663,1,0,0:0:0:0:
216,154,216758,1,0,0:0:0:0:
246,186,216854,1,0,0:0:0:0:
289,192,216949,1,0,0:0:0:0:
256,222,217045,5,0,0:0:0:0:
366,82,217427,1,0,0:0:0:0:
146,82,217809,1,0,0:0:0:0:
256,192,217905,12,0,220102,0:0:0:0:
94,81,220484,5,0,0:0:0:0:
111,76,220580,1,0,0:0:0:0:
128,76,220675,1,0,0:0:0:0:
145,77,220771,1,0,0:0:0:0:
162,78,220867,5,0,0:0:0:0:
240,300,233096,6,0,L|260:240,1,59.3999981872559
190,223,233287,2,0,L|219:151,1,59.3999981872559
161,109,233478,2,0,L|343:109,1,178.199994561768
416,111,233860,2,0,P|433:182|425:244,1,118.799996374512
306,320,234242,2,0,P|288:241|300:192,1,118.799996374512
240,59,234625,6,0,L|210:126,1,59.3999981872559
293,118,234816,2,0,L|262:188,1,59.3999981872559
342,196,235007,2,0,P|299:254|191:275,1,178.199994561768
124,258,235389,2,0,P|142:180|180:142,1,118.799996374512
306,88,235771,2,0,P|293:161|251:204,1,118.799996374512
402,124,236153,6,0,L|465:124,1,59.3999981872559
438,198,236344,2,0,L|516:197,1,59.3999981872559
475,271,236535,2,0,P|410:298|328:280,1,118.799996374512
323,280,236822,1,0,0:0:0:0:
291,252,236918,2,0,P|272:190|292:134,1,118.799996374512
306,110,237204,2,0,P|331:78|409:77,1,118.799996374512
437,89,237491,1,0,0:0:0:0:
221,132,237682,2,0,P|240:194|220:250,1,118.799996374512
205,273,237968,2,0,P|181:306|103:307,1,118.799996374512
75,294,238255,1,0,0:0:0:0:
81,209,238446,5,0,0:0:0:0:
94,156,238542,1,0,0:0:0:0:
133,120,238637,1,0,0:0:0:0:
186,114,238733,1,0,0:0:0:0:
225,150,238828,5,0,0:0:0:0:
278,148,238924,1,0,0:0:0:0:
324,122,239019,1,0,0:0:0:0:
344,72,239115,1,0,0:0:0:0:
366,25,239211,6,0,L|383:190,1,113.850002171516
383,188,239497,1,0,0:0:0:0:
385,239,239593,2,0,P|363:304|270:325,1,170.775003257275
272,291,239975,2,0,P|244:232|192:228,1,113.850002171516
195,258,240261,2,0,P|134:271|77:171,1,170.775003257275
121,102,240739,5,0,0:0:0:0:
157,74,240835,1,0,0:0:0:0:
201,64,240930,1,0,0:0:0:0:
241,85,241026,1,0,0:0:0:0:
278,110,241121,2,0,L|451:110,1,170.775003257275
494,114,241503,2,0,P|484:182|438:242,1,113.850002171516
440,247,241790,2,0,P|347:291|295:272,1,113.850002171516
308,279,242077,1,0,0:0:0:0:
274,196,242268,5,0,0:0:0:0:
191,256,242459,1,0,0:0:0:0:
290,281,242650,1,0,0:0:0:0:
176,169,242841,1,0,0:0:0:0:
230,342,243032,1,0,0:0:0:0:
354,209,243223,1,0,0:0:0:0:
123,286,243414,1,0,0:0:0:0:
349,311,243605,1,0,0:0:0:0:
265,119,243796,6,0,L|354:212,1,113.850002171516
483,352,244179,2,0,L|421:236,1,113.850002171516
343,65,244561,2,0,L|299:197,1,113.850002171516
254,355,244943,1,0,0:0:0:0:
83,204,245325,5,0,0:0:0:0:
119,156,245421,1,0,0:0:0:0:
175,137,245516,1,0,0:0:0:0:
233,147,245612,1,0,0:0:0:0:
284,175,245707,2,0,P|345:188|459:158,1,178.199994561768
489,148,246089,2,0,P|474:252|482:306,1,118.799996374512
331,325,246472,2,0,P|334:251|317:206,1,118.799996374512
429,204,246854,5,0,0:0:0:0:
393,156,246950,1,0,0:0:0:0:
337,137,247045,1,0,0:0:0:0:
279,147,247141,1,0,0:0:0:0:
228,175,247236,2,0,P|167:188|53:158,1,178.199994561768
21,167,247618,2,0,P|37:271|29:325,1,118.799996374512
181,325,248001,2,0,P|178:251|195:206,1,118.799996374512
266,117,248382,5,0,0:0:0:0:
294,169,248478,1,0,0:0:0:0:
293,228,248574,1,0,0:0:0:0:
273,283,248669,1,0,0:0:0:0:
247,336,248765,2,0,P|177:349|71:313,1,178.199994561768
79,281,249147,2,0,L|80:99,2,178.199994561768
436,89,249911,2,0,L|436:272,2,178.199994561768
246,40,250675,5,0,0:0:0:0:
223,88,250771,1,0,0:0:0:0:
215,141,250867,1,0,0:0:0:0:
234,190,250962,1,0,0:0:0:0:
276,223,251058,5,0,0:0:0:0:
297,271,251153,1,0,0:0:0:0:
293,324,251249,1,0,0:0:0:0:
254,360,251344,1,0,0:0:0:0:
202,363,251440,5,0,0:0:0:0:
154,344,251535,1,0,0:0:0:0:
127,300,251631,1,0,0:0:0:0:
129,249,251726,1,0,0:0:0:0:
148,201,251822,2,0,P|194:169|322:172,1,170.775003257275
339,158,252204,2,0,P|407:155|462:108,1,113.850002171516
478,131,252491,2,0,P|455:233|477:300,1,170.775003257275
308,329,252968,5,0,0:0:0:0:
264,302,253064,1,0,0:0:0:0:
245,253,253160,1,0,0:0:0:0:
269,208,253255,1,0,0:0:0:0:
318,184,253351,2,0,P|390:166|407:75,1,170.775003257275
380,52,253733,2,0,P|326:36|262:54,1,113.850002171516
240,73,254019,2,0,P|184:108|80:88,1,170.775003257275
144,38,254497,5,0,0:0:0:0:
122,172,254688,1,0,0:0:0:0:
93,305,254879,1,0,0:0:0:0:
224,343,255070,5,0,0:0:0:0:
253,210,255261,1,0,0:0:0:0:
275,76,255452,1,0,0:0:0:0:
411,64,255644,5,0,0:0:0:0:
389,198,255835,1,0,0:0:0:0:
360,331,256026,1,0,0:0:0:0:
242,260,256217,6,0,P|171:249|98:273,1,113.850002171516
231,165,256599,2,0,P|300:188|371:167,1,113.850002171516
251,77,256981,2,0,L|185:57,2,56.9250010857582
310,199,257363,1,0,0:0:0:0:
419,308,257554,5,0,0:0:0:0:
444,234,257650,1,0,0:0:0:0:
444,156,257746,1,0,0:0:0:0:
413,85,257841,1,0,0:0:0:0:
343,50,257937,6,0,P|267:46|143:86,1,193.049991162873
107,96,258319,2,0,P|109:179|119:244,1,128.699994108582
262,325,258701,2,0,P|251:233|235:187,1,128.699994108582
93,76,259083,5,0,0:0:0:0:
68,150,259179,1,0,0:0:0:0:
68,228,259275,1,0,0:0:0:0:
99,299,259370,1,0,0:0:0:0:
169,334,259466,6,0,P|245:338|369:298,1,193.049991162873
405,289,259848,2,0,P|404:207|394:142,1,128.699994108582
250,59,260230,2,0,P|261:151|277:197,1,128.699994108582
192,119,260612,5,0,0:0:0:0:
251,81,260707,1,0,0:0:0:0:
320,66,260803,1,0,0:0:0:0:
390,72,260898,1,0,0:0:0:0:
454,101,260994,2,0,L|454:296,1,193.049991162873
407,315,261376,2,0,P|336:340|276:325,1,128.699994108582
233,326,261663,2,0,P|138:348|46:304,1,193.049991162873
187,215,262140,2,0,L|122:19,2,193.049991162873
246,344,262905,5,0,0:0:0:0:
223,296,263001,1,0,0:0:0:0:
215,243,263097,1,0,0:0:0:0:
234,194,263192,1,0,0:0:0:0:
276,161,263288,5,0,0:0:0:0:
297,113,263383,1,0,0:0:0:0:
293,60,263479,1,0,0:0:0:0:
254,24,263574,1,0,0:0:0:0:
217,30,263669,6,0,P|144:44|77:119,1,123.75
83,93,263956,1,0,0:0:0:0:
71,119,264051,2,0,P|57:189|65:317,1,185.625
109,318,264433,2,0,P|154:232|246:232,2,185.625
233,313,265198,5,0,0:0:0:0:
199,298,265293,1,0,0:0:0:0:
185,263,265389,1,0,0:0:0:0:
193,227,265484,1,0,0:0:0:0:
211,194,265580,2,0,P|286:218|373:219,1,123.75
430,217,265962,2,0,L|448:24,2,185.625
307,198,266726,5,0,0:0:0:0:
257,84,266918,1,0,0:0:0:0:
218,201,267109,1,0,0:0:0:0:
305,180,267300,5,0,0:0:0:0:
204,58,267491,1,0,0:0:0:0:
223,213,267683,1,0,0:0:0:0:
298,163,267873,5,0,0:0:0:0:
139,60,268065,1,0,0:0:0:0:
232,223,268255,2,0,B|357:311|458:191,1,247.5
364,110,268828,1,0,0:0:0:0:
233,82,269019,2,0,P|169:62|37:168,1,247.5
129,247,269593,1,0,0:0:0:0:
253,196,269784,1,0,0:0:0:0:
256,192,269879,12,0,272077,0:0:0:0:
256,192,272459,5,0,0:0:0:0:
256,192,272841,12,0,274943,0:0:0:0:
225,165,275134,5,0,0:0:0:0:
208,165,275230,1,0,0:0:0:0:
191,165,275325,1,0,0:0:0:0:
174,164,275421,1,0,0:0:0:0:
159,134,275516,5,0,0:0:0:0:
142,134,275612,1,0,0:0:0:0:
125,134,275707,1,0,0:0:0:0:
108,134,275803,1,0,0:0:0:0:
86,164,275898,5,0,0:0:0:0:
256,121,276281,5,0,0:0:0:0:
287,219,276663,5,0,0:0:0:0:
304,219,276759,1,0,0:0:0:0:
321,219,276854,1,0,0:0:0:0:
338,220,276950,1,0,0:0:0:0:
353,250,277045,5,0,0:0:0:0:
370,250,277141,1,0,0:0:0:0:
387,250,277236,1,0,0:0:0:0:
404,250,277332,1,0,0:0:0:0:
426,220,277427,5,0,0:0:0:0:
255,296,277809,5,0,0:0:0:0:
225,219,278191,5,0,0:0:0:0:
208,219,278287,1,0,0:0:0:0:
191,219,278382,1,0,0:0:0:0:
174,220,278478,1,0,0:0:0:0:
159,250,278573,5,0,0:0:0:0:
142,250,278669,1,0,0:0:0:0:
125,250,278764,1,0,0:0:0:0:
108,250,278860,1,0,0:0:0:0:
84,219,278956,6,0,L|23:109,1,108.900003323364
103,148,279338,2,0,L|115:26,1,108.900003323364
150,106,279720,2,0,L|252:43,1,108.900003323364
236,124,280102,2,0,L|360:117,1,108.900003323364
303,181,280484,2,0,B|179:84|44:264|118:407|375:346|375:346|375:257|375:257|232:257|232:257,1,762.300023263551
168,300,282013,6,0,B|261:78|261:78|359:303|359:303|303:261|303:261|200:261,1,653.400019940186
77,54,283542,6,0,B|74:357|74:357|465:353,1,653.400019940186
407,136,285070,6,0,P|358:93|95:254,2,435.600013293457
255,265,286981,5,0,0:0:0:0:
283,161,287363,5,0,0:0:0:0:
283,144,287459,1,0,0:0:0:0:
283,127,287554,1,0,0:0:0:0:
284,110,287650,1,0,0:0:0:0:
314,95,287745,5,0,0:0:0:0:
314,78,287841,1,0,0:0:0:0:
314,61,287936,1,0,0:0:0:0:
314,44,288032,1,0,0:0:0:0:
284,22,288127,5,0,0:0:0:0:
143,192,288510,5,0,0:0:0:0:
269,214,288892,6,0,P|287:271|229:265,1,108.900003323364
198,279,289179,2,0,P|160:305|210:342,1,108.900003323364
244,357,289465,2,0,P|283:326|349:321,1,108.900003323364
367,192,290039,5,0,0:0:0:0:
217,183,290421,6,0,L|30:183,2,163.350004985047
324,163,291185,6,0,L|433:134,1,108.900003323364
334,189,291567,2,0,L|452:176,1,108.900003323364
338,209,291949,2,0,L|469:207,1,108.900003323364
341,236,292332,2,0,L|464:252,1,108.900003323364
341,265,292714,2,0,P|395:300|297:319,1,217.800006646729
171,265,293478,2,0,P|117:300|215:319,1,217.800006646729
257,126,294242,6,0,L|257:359,1,217.800006646729
257,258,295007,2,0,L|257:25,1,217.800006646729
412,193,295771,5,0,0:0:0:0:
412,193,295962,1,0,0:0:0:0:
100,193,296535,1,0,0:0:0:0:
100,193,296918,1,0,0:0:0:0:
