osu file format v14

[General]
AudioFilename: audio.mp3
AudioLeadIn: 0
PreviewTime: 226736
Countdown: 0
SampleSet: Soft
StackLeniency: 0.5
Mode: 0
LetterboxInBreaks: 0
WidescreenStoryboard: 1

[Editor]
Bookmarks: 25782,117562,242780,274084
DistanceSpacing: 0.6
BeatDivisor: 4
GridSize: 32
TimelineZoom: 1

[Metadata]
Title:Takane no Hanako-san
TitleUnicode:高嶺の花子さん
Artist:back number
ArtistUnicode:back number
Creator:Wanpachi
Version:Insane
Source:
Tags:バックナンバー ラブストーリー Love Story jpop j-pop japanese pop Takeneno Hanakosan Unattainable
BeatmapID:3630043
BeatmapSetID:1764659

[Difficulty]
HPDrainRate:6
CircleSize:4.2
OverallDifficulty:7
ApproachRate:8
SliderMultiplier:1.7
SliderTickRate:1

[Events]
//Background and Video events
0,0,"94777090_p0.jpg",0,0
//Break Periods
2,116205,118498
2,227496,233267
//Storyboard Layer 0 (Background)
//Storyboard Layer 1 (Fail)
//Storyboard Layer 2 (Pass)
//Storyboard Layer 3 (Foreground)
//Storyboard Layer 4 (Overlay)
//Storyboard Sound Samples

[TimingPoints]
320,659.340659340659,4,2,1,30,1,0
979,681.818181818182,4,2,1,30,1,0
979,-166.666666666667,4,2,1,30,0,0
2342,693.64161849711,4,2,1,30,1,0
2342,-125,4,2,1,30,0,0
3729,697.674418604651,4,2,1,30,1,0
3729,-166.666666666667,4,2,1,30,0,0
5124,681.818181818182,4,2,1,30,1,0
5124,-125,4,2,1,30,0,0
6487,689.655172413793,4,2,1,30,1,0
6487,-166.666666666667,4,2,1,30,0,0
9245,-125,4,2,1,30,0,0
9935,-100,4,2,1,30,0,0
10624,-83.3333333333333,4,2,1,30,0,0
11981,701.754385964912,4,2,1,40,1,0
11981,-125,4,2,1,40,0,0
14768,681.818181818182,4,2,1,40,1,0
14768,-125,4,2,1,40,0,0
18858,689.655172413793,4,2,1,40,1,0
18858,-125,4,2,1,40,0,0
20237,693.64161849711,4,2,1,40,1,0
20237,-100,4,2,1,40,0,0
20930,-83.3333333333333,4,2,1,40,0,0
21624,-71.4285714285714,4,2,1,40,0,0
25782,434.729055116399,4,2,0,40,1,0
25782,-100,4,2,1,50,0,0
35998,-90.9090909090909,4,2,1,50,0,0
37519,-90.9090909090909,4,2,1,70,0,0
39149,-90.9090909090909,4,2,1,40,0,0
39693,-125,4,2,1,40,0,0
53169,-100,4,2,1,40,0,0
53604,-125,4,2,1,40,0,0
66211,-111.111111111111,4,2,1,40,0,0
66646,-111.111111111111,4,2,1,40,0,0
67515,-111.111111111111,4,2,1,50,0,0
74471,-99.9999999999999,4,2,1,60,0,0
77514,-90.9090909090909,4,2,1,60,0,0
77949,-90.9090909090909,4,2,1,60,0,0
83383,-90.9090909090909,4,2,1,70,0,0
84905,-76.9230769230769,4,2,1,70,0,1
85013,-76.9230769230769,4,2,1,70,0,0
97077,-76.9230769230769,4,2,1,70,0,0
97512,-66.6666666666667,4,2,1,70,0,0
97947,-58.8235294117647,4,2,1,70,0,0
98381,-52.6315789473684,4,2,1,70,0,0
98816,-76.9230769230769,4,2,1,70,0,1
98925,-76.9230769230769,4,2,1,70,0,0
118596,-83.3333333333333,4,2,1,60,0,0
126639,-125,4,2,1,40,0,0
140115,-100,4,2,1,40,0,0
140550,-125,4,2,1,40,0,0
153157,-111.111111111111,4,2,1,40,0,0
153592,-111.111111111111,4,2,1,40,0,0
154461,-111.111111111111,4,2,1,50,0,0
161417,-99.9999999999999,4,2,1,60,0,0
164460,-90.9090909090909,4,2,1,60,0,0
164895,-90.9090909090909,4,2,1,60,0,0
170329,-90.9090909090909,4,2,1,70,0,0
171850,-76.9230769230769,4,2,1,70,0,1
171959,-76.9230769230769,4,2,1,70,0,0
184023,-76.9230769230769,4,2,1,70,0,0
184458,-66.6666666666667,4,2,1,70,0,0
184892,-58.8235294117647,4,2,1,70,0,0
185327,-52.6315789473684,4,2,1,70,0,0
185762,-76.9230769230769,4,2,1,70,0,1
185870,-76.9230769230769,4,2,1,70,0,0
199667,-100,4,2,1,50,0,0
225974,-100,4,2,1,70,0,0
234017,-125,4,2,1,40,0,0
234886,-62.5,4,2,1,60,0,0
237929,-76.9230769230769,4,2,1,60,0,0
239668,-76.9230769230769,4,2,1,60,0,0
240103,-71.4285714285714,4,2,1,60,0,0
240538,-66.6666666666667,4,2,1,60,0,0
240972,-62.5,4,2,1,60,0,0
241407,-76.9230769230769,4,2,1,70,0,1
241516,-76.9230769230769,4,2,1,70,0,0
253580,-76.9230769230769,4,2,1,70,0,0
254014,-66.6666666666667,4,2,1,70,0,0
254449,-58.8235294117647,4,2,1,70,0,0
254884,-52.6315789473684,4,2,1,70,0,0
255318,-76.9230769230769,4,2,1,70,0,1
255427,-76.9230769230769,4,2,1,70,0,0

[Colours]
Combo1 : 217,4,4
Combo2 : 45,166,144
Combo3 : 242,174,46
Combo4 : 242,135,5
Combo5 : 242,199,174

[HitObjects]
205,103,320,5,2,0:0:0:0:
271,73,649,1,2,0:0:0:0:
179,173,979,6,0,P|164:224|157:259,1,76.4999976654054,2|0,0:0|0:0,0:0:0:0:
16,299,1660,2,0,P|53:290|89:279,1,76.4999976654054,2|0,0:0|0:0,0:0:0:0:
218,297,2342,2,0,B|289:296|269:338|336:363,1,136,2|2,0:0|0:0,0:0:0:0:
476,200,3729,6,0,P|464:246|454:287,1,76.4999976654054,2|0,0:0|0:0,0:0:0:0:
427,136,4426,2,0,P|472:123|513:111,1,76.4999976654054,2|0,0:0|0:0,0:0:0:0:
359,185,5124,2,0,P|286:167|273:102,1,136,2|2,0:0|0:0,0:0:0:0:
325,59,6146,1,2,0:0:0:0:
120,110,6487,6,0,P|169:120|194:130,1,76.4999976654054,2|0,0:0|0:0,0:0:0:0:
49,74,7176,2,0,P|33:26|29:0,1,76.4999976654054,2|0,0:0|0:0,0:0:0:0:
100,187,7866,2,0,P|84:234|80:261,1,76.4999976654054,2|0,0:0|0:0,0:0:0:0:
0,358,8555,2,0,P|49:348|74:338,1,76.4999976654054,2|0,0:0|0:0,0:0:0:0:
160,248,9245,6,0,P|210:254|241:292,1,102,2|0,0:0|0:0,0:0:0:0:
318,339,9935,6,0,P|367:332|400:266,1,127.5,2|0,0:0|0:0,0:0:0:0:
395,127,10624,6,0,P|444:133|466:227,1,152.999995330811,2|0,0:0|0:0,0:0:0:0:
400,268,11314,1,2,0:0:0:0:
320,258,11659,1,2,0:0:0:0:
284,81,11981,6,0,P|305:127|323:174,1,102,2|0,0:0|0:0,0:0:0:0:
496,139,12682,2,0,P|445:135|394:126,1,102,2|0,0:0|0:0,0:0:0:0:
232,163,13384,2,0,P|183:165|143:248,1,136,2|2,0:0|0:0,0:0:0:0:
2,381,14768,6,0,P|50:362|99:347,1,102,2|0,0:0|0:0,0:0:0:0:
269,339,15449,2,0,P|220:324|172:305,1,102,2|0,0:0|0:0,0:0:0:0:
48,162,16131,2,0,P|113:173|140:233,1,136,2|2,0:0|0:0,0:0:0:0:
74,279,17154,1,2,0:0:0:0:
226,244,17495,6,0,P|273:225|322:210,1,102,2|0,0:0|0:0,0:0:0:0:
480,283,18177,2,0,P|457:244|377:232,1,102,2|0,0:0|0:0,0:0:0:0:
348,283,18858,2,0,P|362:331|381:379,1,102,2|0,0:0|0:0,0:0:0:0:
405,225,19547,2,0,P|420:177|462:150,1,102,2|0,0:0|0:0,0:0:0:0:
512,87,20237,6,0,B|447:53|444:83|388:64,1,127.5,2|0,0:0|0:0,0:0:0:0:
364,265,20930,6,0,B|417:218|388:197|461:150,1,152.999995330811,2|0,0:0|0:0,0:0:0:0:
326,13,21624,5,2,0:0:0:0:
256,192,21797,12,0,25612,0:0:0:0:
486,70,25782,6,0,P|472:110|461:151,1,85,4|0,3:2|0:0,0:0:0:0:
302,6,26216,2,0,P|288:46|277:87,1,85,0|0,3:0|0:0,0:0:0:0:
455,69,26651,6,0,P|441:109|430:150,1,85,0|0,3:0|0:0,0:0:0:0:
323,26,27086,2,0,P|309:66|298:107,1,85,0|0,3:0|0:0,0:0:0:0:
424,69,27520,6,0,P|410:109|399:150,1,85,0|0,3:0|0:0,0:0:0:0:
347,44,27955,2,0,P|333:84|322:125,1,85,0|0,3:0|0:0,0:0:0:0:
338,200,28390,5,0,3:0:0:0:
399,150,28607,1,8,0:3:0:0:
329,227,28825,5,0,3:0:0:0:
473,350,29042,1,0,1:0:0:0:
404,291,29259,6,0,P|353:311|322:340,1,85,4|0,3:2|0:0,0:0:0:0:
170,198,29694,2,0,P|210:184|243:158,1,85,0|0,3:0|0:0,0:0:0:0:
389,265,30129,6,0,P|338:285|307:314,1,85,0|0,3:0|0:0,0:0:0:0:
188,224,30564,2,0,P|228:210|261:184,1,85,0|0,3:0|0:0,0:0:0:0:
233,295,30998,5,0,3:0:0:0:
315,304,31216,1,0,0:0:0:0:
219,320,31433,5,0,3:0:0:0:
182,136,31650,2,0,P|175:93|167:52,1,85,0|0,1:0|3:0,0:0:0:0:
239,17,32085,1,8,0:3:0:0:
167,52,32302,5,0,3:0:0:0:
353,70,32520,1,0,1:0:0:0:
465,210,32737,5,4,3:2:0:0:
465,210,32955,1,0,3:0:0:0:
467,123,33172,2,0,P|431:199|416:283,1,170,0|0,1:0|3:0,0:0:0:0:
478,328,33824,1,0,3:0:0:0:
349,204,34041,1,0,1:0:0:0:
228,324,34259,5,4,0:3:0:0:
228,324,34367,1,4,0:3:0:0:
228,324,34476,2,0,B|271:335|320:293,1,85,0|0,3:0|3:0,0:0:0:0:
180,140,34911,1,0,1:0:0:0:
129,208,35128,1,4,0:3:0:0:
129,208,35237,1,4,0:3:0:0:
129,208,35346,2,0,P|135:255|139:316,1,85,0|0,3:0|3:0,0:0:0:0:
265,164,35780,1,0,1:0:0:0:
97,121,35998,5,4,0:3:0:0:
97,121,36106,1,4,0:3:0:0:
97,121,36215,2,0,P|33:110|24:28,1,140.25000428009,4|0,3:2|0:0,0:0:0:0:
29,28,36650,2,0,P|25:74|19:120,1,93.5000028533937,0|0,3:0|0:0,0:0:0:0:
189,47,37084,2,0,P|185:93|179:139,1,93.5000028533937,0|0,3:0|0:0,0:0:0:0:
349,66,37519,1,2,1:2:0:0:
347,89,37628,1,2,0:0:0:0:
345,112,37737,1,2,0:0:0:0:
342,135,37845,1,2,0:0:0:0:
339,158,37954,5,2,1:2:0:0:
409,367,38171,1,2,1:2:0:0:
512,215,38389,1,2,1:2:0:0:
306,227,38606,1,2,1:2:0:0:
277,352,38823,5,0,3:0:0:0:
43,320,39149,5,0,1:0:0:0:
88,309,39258,1,0,1:0:0:0:
132,293,39367,1,0,1:0:0:0:
173,272,39475,1,8,0:3:0:0:
62,36,39693,6,0,P|54:82|50:121,1,68,4|0,3:2|0:0,0:0:0:0:
46,51,40128,2,0,P|62:94|78:130,1,68,0|0,3:0|0:0,0:0:0:0:
58,64,40562,2,0,P|28:99|5:131,1,68,0|2,3:0|0:0,0:0:0:0:
119,176,40997,5,0,3:0:0:0:
256,102,41214,1,2,0:0:0:0:
332,138,41432,6,0,P|347:186|353:237,1,102,0|2,3:0|0:0,0:0:0:0:
372,257,41866,1,0,3:0:0:0:
324,120,42084,2,0,P|316:153|303:184,1,68,2|0,0:0|3:0,0:0:0:0:
391,85,42519,1,2,0:0:0:0:
304,128,42736,2,0,P|329:150|349:178,1,68,0|2,3:0|0:0,0:0:0:0:
381,340,43171,6,0,B|451:328|433:293|502:286,2,136,0|0|0,3:0|3:0|3:0,0:0:0:0:
232,303,44257,5,2,0:0:0:0:
314,292,44475,1,0,3:0:0:0:
219,316,44692,1,2,0:0:0:0:
164,384,44910,6,0,P|170:298|160:229,2,136,0|0|0,3:0|3:0|3:0,0:0:0:0:
10,203,46214,5,0,3:0:0:0:
83,238,46431,1,2,0:0:0:0:
195,96,46648,6,0,P|156:129|132:174,1,102,4|0,3:2|0:0,0:0:0:0:
113,155,47083,1,0,3:0:0:0:
206,112,47301,2,0,P|212:145|229:174,1,68,2|0,0:0|3:0,0:0:0:0:
179,123,47735,2,0,P|167:154|168:188,1,68,2|0,0:0|3:0,0:0:0:0:
162,210,48061,1,2,0:0:0:0:
162,210,48170,1,2,0:0:0:0:
282,116,48387,5,0,3:0:0:0:
386,30,48605,2,0,P|357:47|323:53,1,68,2|0,0:0|3:0,0:0:0:0:
396,43,49040,2,0,P|396:76|385:108,1,68,2|0,0:0|3:0,0:0:0:0:
486,6,49474,1,2,0:0:0:0:
375,54,49692,2,0,P|358:83|333:105,1,68,0|0,3:0|0:0,0:0:0:0:
372,258,50126,6,0,P|352:191|290:178,2,136,0|0|0,3:0|3:0|3:0,0:0:0:0:
360,377,51213,5,0,0:0:0:0:
314,314,51431,1,0,3:0:0:0:
375,384,51648,1,2,0:0:0:0:
256,372,51865,6,0,B|179:363|194:388|108:380,2,136,0|0|0,3:0|3:0|3:0,0:0:0:0:
236,294,52952,5,0,3:0:0:0:
265,67,53169,2,0,P|275:150|294:233,1,170,4|4,1:2|3:2,0:0:0:0:
96,153,54039,6,0,P|63:164|32:177,1,68,0|0,3:0|0:0,0:0:0:0:
83,137,54474,2,0,P|49:130|15:126,1,68,0|2,3:0|0:0,0:0:0:0:
184,181,54908,5,2,3:1:0:0:
307,64,55126,1,2,0:1:0:0:
400,98,55343,6,0,P|400:47|382:0,1,102,0|2,3:0|0:0,0:0:0:0:
366,18,55778,1,0,3:0:0:0:
410,112,55995,2,0,P|439:95|460:69,1,68,2|0,0:0|3:0,0:0:0:0:
501,7,56430,1,2,0:0:0:0:
482,161,56647,5,2,3:1:0:0:
512,238,56865,1,2,1:1:0:0:
347,384,57082,6,0,P|393:321|448:286,2,136,0|0|0,3:0|3:0|3:0,0:0:0:0:
298,249,58169,1,2,0:0:0:0:
256,316,58386,5,2,3:1:0:0:
377,241,58604,1,2,0:1:0:0:
261,180,58821,6,0,P|259:114|280:41,1,136,0|0,3:2|3:0,0:0:0:0:
356,23,59473,1,2,0:0:0:0:
277,46,59690,1,0,3:0:0:0:
138,22,59908,1,2,1:2:0:0:
201,72,60125,5,2,3:1:0:0:
38,127,60342,1,2,0:1:0:0:
117,174,60560,6,0,P|118:129|135:88,1,68,4|2,3:2|0:0,0:0:0:0:
184,217,60995,1,0,3:0:0:0:
128,158,61212,2,0,P|152:119|186:92,1,68,2|0,0:0|3:0,0:0:0:0:
248,101,61647,1,2,0:0:0:0:
117,268,61864,5,2,3:1:0:0:
133,348,62081,1,2,0:1:0:0:
56,324,62299,5,0,3:0:0:0:
199,298,62516,2,0,P|238:310|272:325,1,68,2|0,0:0|3:0,0:0:0:0:
212,313,62951,2,0,P|221:352|225:389,1,68,2|0,0:0|3:0,0:0:0:0:
285,243,63386,1,2,0:0:0:0:
422,329,63603,5,2,3:1:0:0:
346,366,63820,1,2,1:1:0:0:
427,247,64038,6,0,P|424:172|404:101,2,136,0|0|0,3:0|3:0|3:0,0:0:0:0:
505,272,65124,1,2,0:0:0:0:
345,189,65342,5,2,3:1:0:0:
275,218,65559,1,2,0:1:0:0:
231,362,65777,6,0,B|233:306|192:322|190:273,1,102,0|0,3:0|0:0,0:0:0:0:
175,249,66211,2,0,P|190:192|215:141,1,114.749996498108,0|0,3:0|0:0,0:0:0:0:
194,114,66646,5,0,3:0:0:0:
323,3,66863,1,0,1:0:0:0:
472,81,67081,1,8,0:3:0:0:
472,81,67189,1,8,0:3:0:0:
472,81,67298,1,4,0:3:0:0:
343,192,67515,5,4,3:2:0:0:
343,192,67950,1,0,3:0:0:0:
492,320,68168,2,0,P|496:281|500:244,1,76.4999976654053,0|0,1:0|0:0,0:0:0:0:
414,297,68602,2,0,P|418:258|422:221,1,76.4999976654053,8|0,0:3|0:0,0:0:0:0:
482,164,69037,5,4,0:3:0:0:
336,268,69254,2,0,B|264:261|264:316|171:317,1,152.999995330811,0|0,3:0|3:0,0:0:0:0:
121,268,69906,1,8,0:3:0:0:
22,377,70124,1,0,3:0:0:0:
22,377,70233,1,0,1:0:0:0:
22,377,70341,1,0,3:0:0:0:
96,347,70559,5,0,1:0:0:0:
53,217,70776,1,0,3:0:0:0:
183,57,70993,6,0,P|164:111|151:167,1,114.749996498108,0|0,3:0|0:0,0:0:0:0:
134,191,71428,1,0,3:0:0:0:
8,89,71645,2,0,B|46:113|94:118|94:118,1,76.4999976654053,0|0,1:0|0:0,0:0:0:0:
243,145,72080,1,8,0:3:0:0:
331,129,72515,5,4,0:3:0:0:
469,109,72732,2,0,P|422:140|398:192,1,114.749996498108,0|0,3:0|0:0,0:0:0:0:
414,211,73167,1,0,3:0:0:0:
280,290,73384,2,0,B|304:252|309:204|309:204,1,76.4999976654053,8|0,0:3|3:0,0:0:0:0:
306,218,73710,1,0,3:0:0:0:
268,227,73819,1,0,3:0:0:0:
231,236,73928,1,0,3:0:0:0:
194,245,74036,1,4,1:2:0:0:
120,263,74254,1,0,3:0:0:0:
172,321,74471,5,4,3:2:0:0:
140,187,74689,1,0,3:0:0:0:
258,39,74906,2,0,B|226:88|218:160,1,127.5,0|0,1:0|1:0,0:0:0:0:
202,137,75341,1,0,3:0:0:0:
356,127,75558,5,0,3:0:0:0:
356,127,75667,1,0,3:0:0:0:
356,127,75775,2,0,P|415:121|464:118,1,85,0|0,1:0|0:0,0:0:0:0:
440,119,76101,1,8,0:3:0:0:
440,119,76210,1,0,3:3:0:0:
422,291,76427,1,0,3:0:0:0:
484,346,76645,5,0,1:0:0:0:
434,208,76862,1,0,3:0:0:0:
434,208,76971,1,0,1:0:0:0:
434,208,77080,2,0,P|412:209|391:211,2,42.5,0|0|0,3:0|3:0|3:0,0:0:0:0:
244,311,77514,2,0,P|298:257|299:182,1,140.25000428009,4|0,1:2|0:0,0:0:0:0:
284,210,77949,6,0,P|237:206|190:201,1,93.5000028533936,4|0,3:2|0:0,0:0:0:0:
207,8,78384,2,0,P|254:14|301:17,1,93.5000028533936,0|2,1:0|0:0,0:0:0:0:
294,110,78818,6,0,P|247:106|200:101,1,93.5000028533936,0|2,3:0|0:0,0:0:0:0:
386,71,79253,1,0,1:0:0:0:
284,210,79471,1,2,0:0:0:0:
415,330,79688,6,0,P|405:284|387:241,1,93.5000028533936,0|2,3:0|0:0,0:0:0:0:
310,310,80123,2,0,P|265:295|219:289,1,93.5000028533936,0|2,1:0|0:0,0:0:0:0:
55,341,80557,1,0,3:0:0:0:
145,358,80775,5,2,0:0:0:0:
119,272,80992,2,0,P|99:180|64:94,1,187.000005706787,0|4,1:0|3:2,0:0:0:0:
26,11,81644,5,2,0:0:0:0:
75,77,81862,1,0,1:0:0:0:
155,93,82079,1,2,0:0:0:0:
235,30,82296,1,0,3:0:0:0:
235,30,82405,1,0,1:0:0:0:
235,30,82514,1,0,3:0:0:0:
347,23,82731,5,0,1:0:0:0:
471,119,82948,5,0,1:0:0:0:
430,270,83166,5,0,3:0:0:0:
509,356,83383,6,0,P|488:345|448:336,1,46.7500014266968,0|0,1:0|0:0,0:0:0:0:
284,257,83600,6,0,P|278:235|278:212,1,46.7500014266968,0|0,1:0|0:0,0:0:0:0:
471,119,83818,6,0,P|452:131|435:147,1,46.7500014266968,0|0,1:0|0:0,0:0:0:0:
18,358,84905,6,0,P|97:282|201:248,1,220.999989883423,4|0,3:1|1:0,0:0:0:0:
114,192,85557,1,2,0:3:0:0:
209,325,85774,1,0,3:0:0:0:
278,211,85991,1,2,0:3:0:0:
186,340,86209,5,0,1:0:0:0:
344,317,86426,1,2,0:3:0:0:
440,378,86644,6,0,P|424:319|421:202,1,165.749992412568,0|0,3:0|0:0,0:0:0:0:
396,226,87078,1,0,1:3:0:0:
512,35,87296,2,0,P|474:74|445:122,1,110.499994941712,2|0,0:3|3:0,0:0:0:0:
505,188,87730,5,2,0:3:0:0:
408,28,87948,1,0,1:0:0:0:
344,137,88165,2,0,P|281:150|224:164,1,110.499994941712,2|0,0:3|3:0,0:0:0:0:
160,121,88600,5,2,0:3:0:0:
187,36,88817,1,0,1:0:0:0:
310,229,89035,1,2,0:3:0:0:
270,73,89252,5,0,3:0:0:0:
339,244,89469,1,2,0:3:0:0:
156,210,89687,1,0,1:0:0:0:
57,354,89904,1,2,0:3:0:0:
139,319,90121,6,0,P|103:211|52:127,1,165.749992412568,0|0,3:0|0:0,0:0:0:0:
96,143,90556,1,0,1:0:0:0:
0,7,90773,2,0,P|47:40|106:54,1,110.499994941712,2|0,0:3|3:0,0:0:0:0:
243,170,91208,2,0,P|296:155|340:123,1,110.499994941712,2|0,0:3|1:0,0:0:0:0:
211,0,91643,6,0,P|198:45|183:107,1,110.499994941712,2|4,0:3|3:2,0:0:0:0:
240,264,92078,1,2,0:3:0:0:
96,143,92295,1,0,1:0:0:0:
263,252,92512,1,2,0:3:0:0:
79,318,92730,5,0,3:0:0:0:
153,224,92947,1,2,0:3:0:0:
288,336,93165,1,0,1:0:0:0:
207,369,93382,5,2,0:3:0:0:
352,272,93599,2,0,B|439:271|419:311|529:305,1,165.749992412568,0|0,3:0|0:0,0:0:0:0:
501,282,94034,1,0,1:0:0:0:
433,204,94251,2,0,P|440:149|457:96,1,110.499994941712,2|0,0:3|3:0,0:0:0:0:
499,0,94686,2,0,P|444:7|391:24,1,110.499994941712,2|0,0:3|1:0,0:0:0:0:
262,144,95121,5,2,0:3:0:0:
189,178,95338,2,0,P|107:158|116:18,1,220.999989883423,0|0,3:0|1:0,0:0:0:0:
341,155,95990,1,2,0:3:0:0:
355,234,96208,5,0,3:0:0:0:
193,99,96425,1,2,0:3:0:0:
271,63,96642,5,0,1:0:0:0:
260,226,96860,2,0,P|258:254|256:282,1,55.2499974708558,2|0,0:3|0:0,0:0:0:0:
320,347,97077,6,0,P|267:365|212:363,1,110.499994941712,2|2,3:1|0:3,0:0:0:0:
366,231,97512,6,0,P|353:293|319:347,1,127.500004863739,2|2,1:1|0:3,0:0:0:0:
278,119,97947,6,0,P|331:166|365:229,1,144.500002756119,2|2,3:1|0:3,0:0:0:0:
121,141,98381,6,0,P|197:115|277:118,1,161.499995687485,2|2,1:1|0:3,0:0:0:0:
493,195,98816,5,4,3:1:0:0:
343,32,99033,1,2,0:3:0:0:
460,56,99251,1,0,1:3:0:0:
354,182,99468,1,2,0:3:0:0:
512,214,99685,5,0,3:0:0:0:
375,167,99903,1,2,0:3:0:0:
316,268,100120,1,0,1:0:0:0:
159,384,100338,1,2,0:3:0:0:
148,298,100555,6,0,B|224:292|228:363|297:372,1,165.749992412568,0|0,3:0|0:0,0:0:0:0:
314,384,100990,1,0,1:0:0:0:
211,208,101207,2,0,P|195:147|199:83,1,110.499994941712,2|0,0:3|3:0,0:0:0:0:
0,159,101642,2,0,P|60:175|114:211,1,110.499994941712,2|0,0:3|1:0,0:0:0:0:
309,141,102076,6,0,P|369:124|423:88,1,110.499994941712,2|0,0:3|3:0,0:0:0:0:
499,13,102511,1,2,0:3:0:0:
396,84,102729,1,0,1:0:0:0:
446,202,102946,1,2,0:3:0:0:
491,109,103163,5,0,3:0:0:0:
424,223,103381,1,2,0:3:0:0:
511,325,103598,5,0,1:0:0:0:
330,226,103815,1,2,0:3:0:0:
217,0,104033,2,0,P|248:70|272:171,1,165.749992412568,0|0,3:0|0:0,0:0:0:0:
289,139,104467,5,0,1:0:0:0:
174,254,104685,1,2,0:3:0:0:
206,342,104902,1,0,3:0:0:0:
289,309,105120,5,2,0:3:0:0:
181,131,105337,1,0,1:0:0:0:
0,203,105554,1,2,0:3:0:0:
112,321,105772,6,0,P|124:214|209:147,1,220.999989883423,4|0,3:2|1:0,0:0:0:0:
330,226,106424,2,0,P|391:239|457:269,1,110.499994941712,2|0,0:3|3:0,0:0:0:0:
507,70,106858,2,0,P|465:116|406:158,1,110.499994941712,2|0,0:3|1:0,0:0:0:0:
357,324,107293,5,2,0:3:0:0:
238,261,107511,2,0,B|217:174|277:167|261:62,1,165.749992412568,0|0,3:0|0:0,0:0:0:0:
251,74,107945,1,0,1:0:0:0:
343,32,108163,5,2,0:3:0:0:
159,118,108380,1,0,3:0:0:0:
159,118,108489,1,0,1:0:0:0:
159,118,108597,2,0,P|98:105|32:75,1,110.499994941712,2|0,0:3|1:0,0:0:0:0:
103,258,109032,5,2,0:3:0:0:
180,210,109249,2,0,P|272:222|327:338,2,220.999989883423,0|0|0,3:0|1:0|3:0,0:0:0:0:
188,303,110336,5,2,0:3:0:0:
201,189,110554,1,0,1:0:0:0:
75,168,110771,5,2,0:3:0:0:
264,257,110988,1,0,3:0:0:0:
327,196,111206,2,0,P|322:168|317:141,1,55.2499974708558,0|0,1:0|0:0,0:0:0:0:
480,225,111423,5,0,3:0:0:0:
417,164,111640,2,0,P|421:136|426:109,1,55.2499974708558,0|0,1:0|0:0,0:0:0:0:
395,261,111858,5,0,3:0:0:0:
348,41,112075,1,0,1:0:0:0:
320,38,112184,1,0,1:0:0:0:
293,42,112293,1,0,1:0:0:0:
267,52,112401,1,0,1:0:0:0:
242,63,112510,1,0,1:0:0:0:
215,69,112619,1,0,1:0:0:0:
187,72,112727,1,4,3:2:0:0:
256,192,112836,12,0,115770,0:0:0:0:
153,31,119248,5,0,3:0:0:0:
153,31,119357,1,0,1:0:0:0:
153,31,119466,1,0,1:3:0:0:
41,85,119683,6,0,P|113:108|183:140,1,152.999995330811,4|0,3:2|0:0,0:0:0:0:
208,134,120118,2,0,P|203:184|179:229,1,101.999996887207,0|2,1:0|0:3,0:0:0:0:
64,261,120552,2,0,P|158:255|199:351,1,203.999993774414,0|0,3:0|1:0,0:0:0:0:
133,383,121205,5,2,0:3:0:0:
266,247,121422,2,0,P|319:256|374:266,1,101.999996887207,0|2,3:0|0:3,0:0:0:0:
349,70,121857,2,0,P|340:123|330:178,1,101.999996887207,0|2,1:0|0:3,0:0:0:0:
440,363,122291,2,0,P|453:283|468:201,1,152.999995330811,0|0,3:0|0:0,0:0:0:0:
487,198,122726,5,0,1:0:0:0:
366,264,122943,1,2,0:3:0:0:
287,345,123161,6,0,P|280:294|264:246,1,101.999996887207,0|2,3:0|0:3,0:0:0:0:
209,55,123596,2,0,P|215:105|231:153,1,101.999996887207,0|2,1:0|0:3,0:0:0:0:
173,226,124030,5,0,3:0:0:0:
298,82,124248,1,2,0:3:0:0:
173,226,124465,2,0,P|120:217|65:207,1,101.999996887207,0|2,1:0|0:3,0:0:0:0:
327,168,124900,6,0,B|424:148|401:206|505:185,1,152.999995330811,0|0,3:0|0:0,0:0:0:0:
496,209,125334,2,0,P|451:144|486:70,1,152.999995330811,0|0,1:0|0:0,0:0:0:0:
468,219,125769,2,0,P|444:283|431:342,1,101.999996887207,0|2,3:0|0:3,0:0:0:0:
499,373,126204,2,0,P|427:344|354:324,1,152.999995330811,4|0,1:2|0:0,0:0:0:0:
341,313,126639,6,0,P|359:348|364:383,1,68,4|0,3:2|0:0,0:0:0:0:
328,297,127073,2,0,P|306:330|278:351,1,68,0|0,3:0|0:0,0:0:0:0:
356,287,127508,2,0,P|354:326|340:359,1,68,0|2,3:0|0:0,0:0:0:0:
246,266,127943,5,2,3:1:0:0:
274,178,128160,1,2,0:1:0:0:
146,40,128378,6,0,P|159:85|200:150,1,102,0|2,3:2|0:0,0:0:0:0:
208,138,128812,1,0,3:0:0:0:
135,58,129030,2,0,P|127:91|128:124,1,68,2|0,0:0|3:0,0:0:0:0:
228,59,129464,1,2,0:0:0:0:
291,122,129682,5,2,3:1:0:0:
135,58,129899,1,2,1:1:0:0:
30,172,130116,6,0,B|105:165|91:207|169:203,2,136,0|0|0,3:0|3:0|3:0,0:0:0:0:
66,325,131203,1,2,0:0:0:0:
13,257,131421,5,2,3:1:0:0:
135,370,131638,1,2,0:1:0:0:
144,285,131855,6,0,P|195:274|302:263,2,136,0|0|0,3:0|3:0|3:0,0:0:0:0:
349,222,132942,1,0,1:0:0:0:
284,341,133160,5,2,3:1:0:0:
352,301,133377,1,2,0:1:0:0:
273,182,133594,6,0,P|251:133|236:76,1,102,4|0,3:2|0:0,0:0:0:0:
221,69,134029,1,0,3:0:0:0:
285,169,134246,2,0,P|303:142|328:117,1,68,2|0,0:0|3:0,0:0:0:0:
302,40,134681,1,2,0:0:0:0:
174,155,134898,5,2,3:1:0:0:
95,138,135116,1,2,0:1:0:0:
221,230,135333,5,0,3:0:0:0:
153,355,135551,2,0,P|156:322|165:288,1,68,2|0,0:0|3:0,0:0:0:0:
138,369,135985,2,0,P|124:339|115:305,1,68,2|0,0:0|3:0,0:0:0:0:
116,223,136420,1,2,0:0:0:0:
234,340,136637,5,2,3:1:0:0:
382,274,136855,1,2,1:1:0:0:
509,384,137072,6,0,P|458:368|369:347,2,136,0|0|0,3:0|3:0|3:0,0:0:0:0:
460,295,138159,1,0,0:0:0:0:
496,156,138376,5,2,3:1:0:0:
512,233,138594,1,2,0:1:0:0:
382,274,138811,6,0,P|310:258|288:177,1,136,0|0,3:0|3:0,0:0:0:0:
333,141,139463,1,0,0:0:0:0:
253,21,139681,2,0,P|276:58|292:97,1,68,0|0,3:0|1:2,0:0:0:0:
208,214,140115,1,2,3:1:0:0:
208,214,140224,1,0,3:0:0:0:
208,214,140333,1,2,3:1:0:0:
119,329,140550,6,0,P|143:293|179:272,1,68,4|0,3:2|0:0,0:0:0:0:
132,342,140985,2,0,P|175:344|211:365,1,68,0|0,3:0|0:0,0:0:0:0:
147,315,141419,2,0,P|185:295|227:295,1,68,0|2,3:0|0:0,0:0:0:0:
80,242,141854,5,2,3:1:0:0:
125,176,142072,1,2,0:1:0:0:
0,28,142289,6,0,P|45:59|104:80,1,102,0|2,3:0|0:0,0:0:0:0:
109,92,142724,1,0,3:0:0:0:
13,38,142941,2,0,P|10:70|17:107,1,68,2|0,0:0|3:0,0:0:0:0:
45,175,143376,1,2,0:0:0:0:
192,117,143593,5,2,3:1:0:0:
111,0,143810,1,2,1:1:0:0:
184,33,144028,5,0,3:0:0:0:
201,201,144245,2,0,P|210:251|213:287,1,68,2|0,0:0|3:0,0:0:0:0:
270,151,144680,1,2,0:0:0:0:
214,213,144897,2,0,P|196:260|181:293,1,68,0|2,3:0|0:0,0:0:0:0:
56,358,145332,5,2,3:1:0:0:
110,300,145549,1,2,0:1:0:0:
260,319,145767,6,0,B|337:325|302:344|405:352,1,136,0|0,3:0|3:0,0:0:0:0:
463,292,146419,1,2,0:0:0:0:
410,366,146636,1,0,3:0:0:0:
502,376,146854,1,0,1:0:0:0:
376,269,147071,5,2,3:1:0:0:
510,168,147288,1,2,0:1:0:0:
484,0,147506,6,0,P|465:47|453:97,1,102,4|0,3:2|0:0,0:0:0:0:
436,116,147940,1,0,3:0:0:0:
500,11,148158,2,0,P|466:16|433:26,1,68,2|0,0:0|3:0,0:0:0:0:
362,75,148592,1,2,0:0:0:0:
296,25,148810,5,2,3:1:0:0:
355,161,149027,1,2,0:1:0:0:
273,296,149245,5,0,3:0:0:0:
341,247,149462,1,2,0:0:0:0:
262,310,149679,1,0,3:0:0:0:
375,384,149897,2,0,P|359:349|335:315,1,68,2|0,0:0|3:0,0:0:0:0:
419,286,150331,1,2,0:0:0:0:
288,384,150549,5,2,3:1:0:0:
223,230,150766,1,2,1:1:0:0:
48,338,150983,6,0,P|112:315|178:301,2,136,0|0|0,3:0|3:0|3:0,0:0:0:0:
137,384,152070,1,0,0:0:0:0:
93,242,152288,5,2,3:1:0:0:
127,164,152505,1,2,0:1:0:0:
7,46,152722,5,0,3:0:0:0:
69,102,152940,2,0,P|103:89|140:54,1,68,0|0,0:0|3:0,0:0:0:0:
223,156,153374,2,0,P|251:178|300:193,1,76.4999976654053,0|0,0:0|3:0,0:0:0:0:
361,150,153809,1,0,1:0:0:0:
222,261,154027,1,2,3:1:0:0:
222,261,154135,1,0,3:0:0:0:
222,261,154244,1,2,3:1:0:0:
214,72,154461,5,4,3:2:0:0:
214,72,154896,1,0,3:0:0:0:
416,4,155113,2,0,P|405:52|396:101,1,76.4999976654053,0|0,1:0|0:0,0:0:0:0:
313,29,155548,2,0,P|302:77|293:126,1,76.4999976654053,8|0,0:3|0:0,0:0:0:0:
361,150,155983,1,4,0:3:0:0:
512,270,156200,6,0,B|433:272|443:230|360:231,1,152.999995330811,0|0,3:0|3:0,0:0:0:0:
291,375,156852,1,8,0:3:0:0:
373,327,157070,1,0,3:0:0:0:
373,327,157178,1,0,1:0:0:0:
373,327,157287,1,0,3:0:0:0:
195,236,157504,5,0,1:0:0:0:
195,331,157722,1,0,3:0:0:0:
284,179,157939,6,0,P|269:93|266:45,1,114.749996498108,0|0,3:0|0:0,0:0:0:0:
251,45,158374,1,0,3:0:0:0:
402,43,158591,2,0,P|377:86|335:111,1,76.4999976654053,0|0,1:0|0:0,0:0:0:0:
197,138,159026,1,8,0:3:0:0:
121,92,159461,5,4,0:3:0:0:
1,252,159678,2,0,P|31:190|73:140,1,114.749996498108,0|0,3:0|0:0,0:0:0:0:
47,135,160113,1,0,3:0:0:0:
134,219,160330,2,0,P|152:256|177:286,1,76.4999976654053,8|0,0:3|3:0,0:0:0:0:
174,283,160656,1,0,3:0:0:0:
211,276,160765,1,0,3:0:0:0:
249,269,160874,1,0,3:0:0:0:
286,260,160982,1,4,1:2:0:0:
439,308,161200,1,0,3:0:0:0:
349,324,161417,5,4,3:2:0:0:
378,233,161634,1,0,3:0:0:0:
497,51,161852,2,0,P|458:104|436:168,1,127.5,0|0,1:0|1:0,0:0:0:0:
457,182,162286,1,0,3:0:0:0:
368,57,162504,5,0,3:0:0:0:
368,57,162612,1,0,3:0:0:0:
368,57,162721,2,0,P|314:47|270:39,1,85,0|0,1:0|0:0,0:0:0:0:
284,41,163047,1,8,0:3:0:0:
284,41,163156,1,0,3:0:0:0:
308,137,163373,1,0,3:0:0:0:
208,8,163591,5,0,1:0:0:0:
131,42,163808,1,0,3:0:0:0:
131,42,163917,1,0,1:0:0:0:
131,42,164025,2,0,P|127:21|123:1,3,42.5,0|0|0|0,3:0|3:0|3:0|3:0,0:0:0:0:
47,61,164460,6,0,B|125:60|108:93|181:128,1,140.25000428009,4|0,1:2|0:0,0:0:0:0:
168,121,164895,6,0,P|118:123|82:160,1,93.5000028533936,4|2,3:2|0:0,0:0:0:0:
144,309,165330,2,0,P|189:308|224:278,1,93.5000028533936,0|2,1:0|0:0,0:0:0:0:
248,182,165764,2,0,P|204:197|160:215,1,93.5000028533936,0|2,3:0|0:0,0:0:0:0:
71,245,166199,1,0,1:0:0:0:
168,121,166416,1,2,0:0:0:0:
248,182,166634,6,0,P|258:138|262:89,1,93.5000028533936,0|2,3:0|0:0,0:0:0:0:
356,50,167068,2,0,P|399:37|443:16,1,93.5000028533936,0|2,1:0|0:0,0:0:0:0:
439,117,167503,1,0,3:0:0:0:
304,267,167721,1,2,0:0:0:0:
409,320,167938,2,0,P|383:233|342:145,1,187.000005706787,0|4,1:0|3:2,0:0:0:0:
259,144,168590,5,2,0:0:0:0:
193,203,168807,1,0,1:0:0:0:
173,314,169025,1,2,0:0:0:0:
72,349,169242,1,0,3:0:0:0:
72,349,169351,1,0,1:0:0:0:
72,349,169459,1,0,3:0:0:0:
0,235,169677,5,0,1:0:0:0:
56,101,169894,5,0,1:0:0:0:
205,65,170112,5,0,3:0:0:0:
285,185,170329,6,0,P|275:163|268:141,1,46.7500014266968,0|0,1:0|0:0,0:0:0:0:
122,138,170546,6,0,P|145:140|167:145,1,46.7500014266968,0|0,1:0|0:0,0:0:0:0:
329,13,170764,6,0,P|315:32|299:49,1,46.7500014266968,0|0,1:0|0:0,0:0:0:0:
205,65,170981,5,0,1:2:0:0:
362,122,171198,1,0,1:0:0:0:
402,143,171307,1,0,1:0:0:0:
426,183,171416,1,0,1:0:0:0:
427,229,171524,1,0,1:0:0:0:
405,269,171633,1,0,1:0:0:0:
365,293,171742,1,0,1:0:0:0:
319,294,171850,6,0,B|199:252|232:334|101:348,1,220.999989883423,4|0,3:1|1:0,0:0:0:0:
17,187,172503,1,2,0:3:0:0:
34,288,172720,1,0,3:0:0:0:
0,168,172937,1,2,0:3:0:0:
120,216,173155,5,0,1:0:0:0:
297,129,173372,1,2,0:3:0:0:
257,32,173589,6,0,P|220:112|209:217,1,165.749992412568,0|0,3:0|0:0,0:0:0:0:
190,170,174024,1,0,1:0:0:0:
360,332,174241,2,0,P|331:286|312:204,1,110.499994941712,2|0,0:3|3:0,0:0:0:0:
122,345,174676,2,0,P|168:316|250:297,1,110.499994941712,2|0,0:3|1:0,0:0:0:0:
427,244,175111,6,0,P|443:191|472:144,1,110.499994941712,2|0,0:3|3:0,0:0:0:0:
512,34,175546,1,2,0:3:0:0:
362,120,175763,1,0,1:0:0:0:
493,11,175980,1,2,0:3:0:0:
472,144,176198,5,0,3:0:0:0:
310,35,176415,1,2,0:3:0:0:
286,203,176632,1,0,1:0:0:0:
402,321,176850,1,2,0:3:0:0:
468,278,177067,6,0,P|376:288|278:358,1,165.749992412568,0|0,3:0|0:0,0:0:0:0:
289,317,177502,1,0,1:0:0:0:
151,371,177719,2,0,P|176:322|180:267,1,110.499994941712,2|0,0:3|3:0,0:0:0:0:
42,107,178154,2,0,P|67:155|71:210,1,110.499994941712,2|0,0:3|1:0,0:0:0:0:
271,174,178589,6,0,P|338:159|391:147,1,110.499994941712,2|4,0:3|3:2,0:0:0:0:
476,153,179023,1,2,0:3:0:0:
334,70,179241,1,0,1:0:0:0:
495,171,179458,1,2,0:3:0:0:
349,248,179676,5,0,3:0:0:0:
431,70,179893,1,2,0:3:0:0:
457,272,180110,1,0,1:0:0:0:
271,174,180328,1,2,0:3:0:0:
175,205,180545,6,0,P|167:120|146:39,1,165.749992412568,0|0,3:0|0:0,0:0:0:0:
163,16,180980,1,0,1:0:0:0:
81,132,181197,2,0,P|32:130|-11:81,1,110.499994941712,2|0,0:3|3:0,0:0:0:0:
246,72,181632,2,0,P|295:70|338:21,1,110.499994941712,2|0,0:3|1:0,0:0:0:0:
488,197,182067,5,2,0:3:0:0:
512,49,182284,2,0,B|418:68|429:141|325:174,1,220.999989883423,0|0,3:0|1:0,0:0:0:0:
222,300,182936,1,2,0:3:0:0:
357,301,183153,1,0,3:0:0:0:
229,194,183371,5,2,0:3:0:0:
373,319,183588,1,0,1:0:0:0:
332,171,183806,2,0,P|330:138|321:100,1,55.2499974708558,2|0,0:3|0:0,0:0:0:0:
334,26,184023,6,0,P|281:30|245:70,1,110.499994941712,2|2,3:1|0:3,0:0:0:0:
430,91,184458,6,0,P|394:39|334:26,1,127.500004863739,2|2,1:1|0:3,0:0:0:0:
420,221,184892,6,0,P|450:157|429:90,1,144.500002756119,2|2,3:1|0:3,0:0:0:0:
288,285,185327,6,0,P|366:279|418:221,1,161.499995687485,2|2,1:1|0:3,0:0:0:0:
175,125,185762,5,4,3:1:0:0:
220,257,185979,1,2,0:3:0:0:
111,295,186197,1,0,1:0:0:0:
252,377,186414,1,2,0:3:0:0:
200,243,186631,1,0,3:0:0:0:
161,384,186849,5,2,0:3:0:0:
34,234,187066,1,0,1:0:0:0:
147,102,187283,1,2,0:3:0:0:
105,15,187501,6,0,P|179:86|286:107,1,165.749992412568,0|0,3:0|0:0,0:0:0:0:
254,128,187935,1,0,1:0:0:0:
444,27,188153,2,0,P|406:67|355:87,1,110.499994941712,2|0,0:3|3:0,0:0:0:0:
246,231,188588,2,0,P|195:210|157:170,1,110.499994941712,2|0,0:3|1:0,0:0:0:0:
344,188,189022,6,0,P|397:183|461:176,1,110.499994941712,2|0,0:3|3:0,0:0:0:0:
511,103,189457,1,2,0:3:0:0:
393,281,189674,1,0,1:0:0:0:
503,322,189892,1,2,0:3:0:0:
407,263,190109,5,0,3:0:0:0:
271,326,190326,1,2,0:3:0:0:
355,365,190544,5,0,1:0:0:0:
246,231,190761,1,2,0:3:0:0:
365,15,190979,2,0,P|333:91|316:172,1,165.749992412568,0|0,3:0|0:0,0:0:0:0:
338,195,191413,1,0,1:0:0:0:
228,84,191631,2,0,P|174:96|121:110,1,110.499994941712,2|0,0:3|3:0,0:0:0:0:
54,46,192065,5,2,0:3:0:0:
197,179,192283,1,0,1:0:0:0:
116,340,192500,1,2,0:3:0:0:
67,277,192717,6,0,B|130:232|163:295|244:277,1,165.749992412568,4|0,3:2|0:0,0:0:0:0:
211,293,193152,1,0,1:0:0:0:
421,355,193370,2,0,P|373:327|319:316,1,110.499994941712,2|0,0:3|3:0,0:0:0:0:
244,106,193804,2,0,P|271:153|282:207,1,110.499994941712,2|0,0:3|1:0,0:0:0:0:
403,10,194239,5,2,0:3:0:0:
512,55,194456,2,0,P|401:45|292:33,1,220.999989883423,0|0,3:0|1:0,0:0:0:0:
208,4,195108,5,2,0:3:0:0:
16,125,195326,1,0,3:0:0:0:
16,125,195435,1,0,1:0:0:0:
16,125,195543,2,0,P|63:97|117:86,1,110.499994941712,2|0,0:3|1:0,0:0:0:0:
296,189,195978,5,2,0:3:0:0:
226,307,196195,2,0,P|216:196|204:87,2,220.999989883423,0|0|0,3:0|1:0|3:0,0:0:0:0:
191,384,197282,5,2,0:3:0:0:
324,288,197499,1,0,1:0:0:0:
135,313,197717,1,2,0:3:0:0:
342,275,197934,6,0,P|409:290|459:323,1,110.499994941712,0|2,3:0|0:3,0:0:0:0:
471,93,198369,2,0,P|456:160|423:210,1,110.499994941712,4|2,1:2|0:3,0:0:0:0:
226,307,198804,6,0,P|171:297|123:271,1,110.499994941712,0|2,3:0|0:3,0:0:0:0:
36,194,199238,1,0,1:0:0:0:
59,179,199347,1,0,1:0:0:0:
84,168,199456,1,0,1:0:0:0:
111,160,199564,1,0,1:0:0:0:
138,158,199673,5,4,3:2:0:0:
138,158,200108,2,0,P|147:72|160:-15,1,170,0|0,1:0|3:0,0:0:0:0:
142,6,200651,1,0,1:0:0:0:
142,6,200760,1,0,3:0:0:0:
231,88,200977,5,0,1:0:0:0:
302,132,201195,2,0,P|343:103|393:88,1,85,2|0,0:0|3:0,0:0:0:0:
376,180,201629,2,0,P|421:201|459:236,1,85,2|0,0:0|1:0,0:0:0:0:
371,272,202064,2,0,P|375:322|363:372,1,85,2|0,0:0|3:0,0:0:0:0:
349,378,202390,1,0,1:0:0:0:
349,378,202499,1,0,3:0:0:0:
149,289,202716,1,0,1:0:0:0:
236,353,202934,5,2,0:0:0:0:
63,341,203151,2,0,P|60:265|87:166,1,170,0|0,3:0|1:0,0:0:0:0:
208,57,203803,2,0,P|209:95|196:144,1,85,2|0,0:0|3:0,0:0:0:0:
181,165,204129,1,0,1:0:0:0:
181,165,204238,1,0,3:0:0:0:
83,174,204455,1,0,1:0:0:0:
114,93,204673,1,2,0:0:0:0:
288,129,204890,6,0,P|365:118|465:104,2,170,0|0|0,3:0|1:0|3:0,0:0:0:0:
270,117,205868,1,0,1:0:0:0:
270,117,205977,1,0,3:0:0:0:
390,197,206194,1,0,1:0:0:0:
369,24,206411,1,2,0:0:0:0:
189,110,206629,5,0,3:0:0:0:
122,156,206846,2,0,P|117:67|180:4,1,170,2|2,0:0|0:0,0:0:0:0:
216,195,207498,1,0,3:0:0:0:
216,195,207607,1,0,1:0:0:0:
216,195,207716,2,0,P|210:233|203:283,1,85,0|0,3:0|1:0,0:0:0:0:
115,309,208150,6,0,B|207:291|193:336|312:315,1,170,2|2,0:0|0:0,0:0:0:0:
351,259,208802,1,0,1:0:0:0:
512,384,209020,2,0,P|473:343|443:297,1,85,2|0,0:0|3:0,0:0:0:0:
442,291,209346,1,0,1:0:0:0:
442,291,209455,1,0,3:0:0:0:
376,343,209672,1,0,1:0:0:0:
264,233,209889,5,2,0:0:0:0:
330,172,210107,2,0,P|354:122|353:66,1,85,0|2,3:0|0:0,0:0:0:0:
213,35,210541,2,0,P|246:61|267:97,1,85,0|2,1:0|0:0,0:0:0:0:
443,174,210976,1,0,3:0:0:0:
443,174,211085,1,0,1:0:0:0:
443,174,211193,1,0,3:0:0:0:
356,93,211411,5,0,1:0:0:0:
264,233,211628,1,2,0:0:0:0:
233,309,211846,2,0,P|223:264|186:171,1,127.5,2|0,3:1|0:0,0:0:0:0:
184,113,212280,2,0,P|140:98|41:84,1,127.5,2|0,1:1|0:0,0:0:0:0:
4,138,212715,5,2,3:1:0:0:
4,138,212824,1,0,1:0:0:0:
4,138,212932,1,0,3:0:0:0:
143,19,213150,1,2,1:1:0:0:
266,101,213367,5,0,3:0:0:0:
266,101,213476,1,0,1:0:0:0:
266,101,213584,2,0,B|357:95|334:152|423:180,1,170,4|0,3:2|1:0,0:0:0:0:
440,197,214454,5,0,3:0:0:0:
440,197,214563,1,0,1:0:0:0:
440,197,214671,1,0,3:0:0:0:
333,239,214889,1,0,1:0:0:0:
493,334,215106,6,0,P|450:308|408:288,1,85,2|0,0:0|3:0,0:0:0:0:
336,329,215432,1,2,0:0:0:0:
336,329,215541,2,0,P|291:353|253:379,1,85,2|0,0:0|1:0,0:0:0:0:
183,243,215975,2,0,P|227:218|265:192,1,85,2|0,0:0|3:0,0:0:0:0:
245,180,216302,1,0,1:0:0:0:
245,180,216410,2,0,P|246:129|242:83,1,85,0|0,3:0|1:0,0:0:0:0:
335,134,216845,5,2,0:0:0:0:
156,146,217062,2,0,P|94:173|96:288,1,170,0|0,3:0|1:0,0:0:0:0:
123,333,217714,1,2,0:0:0:0:
61,384,217932,1,0,3:0:0:0:
61,384,218040,1,0,1:0:0:0:
61,384,218149,1,0,3:0:0:0:
207,295,218366,5,0,1:0:0:0:
289,330,218584,2,0,B|363:321|353:268|457:261,1,170,2|2,0:0|0:0,0:0:0:0:
276,234,219236,2,0,P|196:209|177:146,1,127.5,0|0,1:0|0:0,0:0:0:0:
198,163,219671,1,0,3:0:0:0:
198,163,219779,1,0,1:0:0:0:
198,163,219888,1,0,3:0:0:0:
354,44,220105,6,0,P|328:95|309:159,1,85,0|0,1:0|0:0,0:0:0:0:
293,106,220431,1,0,1:0:0:0:
293,106,220540,2,0,P|236:75|177:52,1,127.5,4|0,3:2|0:0,0:0:0:0:
196,36,220975,1,0,1:0:0:0:
27,174,221192,2,0,P|67:141|123:132,1,85,2|0,0:0|3:0,0:0:0:0:
113,114,221518,1,0,1:0:0:0:
113,114,221627,1,0,3:0:0:0:
12,78,221844,5,0,1:0:0:0:
114,228,222062,1,0,3:0:0:0:
114,228,222170,1,0,1:0:0:0:
114,228,222279,1,0,3:0:0:0:
3,355,222496,6,0,P|14:290|21:255,1,85,2|0,0:0|1:0,0:0:0:0:
95,326,222931,2,0,P|136:317|178:310,1,85,2|0,0:0|3:0,0:0:0:0:
198,293,223257,1,0,1:0:0:0:
198,293,223366,1,0,3:0:0:0:
468,376,223583,2,0,P|418:347|309:305,1,170,0|4,1:0|3:2,0:0:0:0:
244,369,224235,5,2,0:0:0:0:
301,286,224453,1,0,1:0:0:0:
257,193,224670,1,2,0:0:0:0:
138,184,224887,1,0,3:0:0:0:
138,184,224996,1,0,1:0:0:0:
138,184,225105,1,0,3:0:0:0:
41,283,225322,5,0,1:0:0:0:
163,187,225540,5,0,1:0:0:0:
147,34,225757,5,0,3:0:0:0:
31,173,225974,6,0,P|46:158|63:145,1,42.5,0|0,1:2|0:0,0:0:0:0:
290,133,226192,6,0,P|271:125|251:119,1,42.5,0|0,1:2|0:0,0:0:0:0:
146,33,226409,6,0,P|148:54|153:75,1,42.5,0|0,1:2|0:0,0:0:0:0:
320,256,234017,6,0,P|336:258|353:260,3,34,2|2|2|2,0:0|0:0|0:0|0:0,0:0:0:0:
411,313,234451,1,0,3:0:0:0:
411,313,234886,6,0,P|445:185|377:12,1,272,4|0,1:2|3:0,0:0:0:0:
101,71,235756,6,0,P|67:199|135:372,1,272,4|0,1:2|3:0,0:0:0:0:
408,53,236625,6,0,P|287:36|138:1,1,272,4|0,1:2|3:0,0:0:0:0:
103,331,237495,6,0,P|204:345|304:369,1,204,4|0,1:2|0:0,0:0:0:0:
317,384,237929,6,0,P|259:323|279:248,1,165.749992412568,4|0,3:2|0:0,0:0:0:0:
263,234,238364,2,0,P|344:214|399:269,1,165.749992412568,4|0,3:2|0:0,0:0:0:0:
419,262,238799,2,0,P|395:342|320:362,1,165.749992412568,4|0,3:2|0:0,0:0:0:0:
317,384,239233,2,0,P|305:301|288:220,1,165.749992412568,4|0,3:2|0:0,0:0:0:0:
219,175,239668,6,0,B|142:176|153:227|63:240,1,165.749992412568,2|0,3:1|0:0,0:0:0:0:
278,119,240103,6,0,B|362:120|350:176|449:190,1,178.499994552612,2|0,3:1|0:0,0:0:0:0:
441,104,240538,5,2,1:1:0:0:
380,124,240646,1,0,1:0:0:0:
327,158,240755,1,0,1:0:0:0:
282,203,240864,1,0,1:0:0:0:
272,218,240972,5,2,1:0:0:0:
239,206,241081,1,0,1:0:0:0:
211,188,241190,1,0,1:0:0:0:
187,164,241298,1,0,1:0:0:0:
175,175,241407,6,0,P|133:236|-9:282,1,220.999989883423,4|0,3:1|1:0,0:0:0:0:
25,203,242059,1,2,0:3:0:0:
154,324,242277,1,0,3:0:0:0:
9,187,242494,5,2,0:3:0:0:
207,207,242711,1,0,1:0:0:0:
327,42,242929,1,2,0:3:0:0:
232,50,243146,6,0,B|322:44|302:98|389:127,1,165.749992412568,0|0,3:0|0:0,0:0:0:0:
397,115,243581,1,0,1:3:0:0:
459,304,243798,2,0,P|439:243|394:187,1,110.499994941712,2|0,0:3|3:0,0:0:0:0:
494,145,244233,5,2,0:3:0:0:
358,294,244450,1,0,1:0:0:0:
273,255,244668,2,0,P|206:246|143:235,1,110.499994941712,2|0,0:3|3:0,0:0:0:0:
66,283,245102,5,2,0:3:0:0:
169,144,245320,1,0,1:0:0:0:
48,301,245537,1,2,0:3:0:0:
21,191,245754,1,0,3:0:0:0:
146,337,245972,5,2,0:3:0:0:
0,209,246189,1,0,1:0:0:0:
121,62,246406,1,2,0:3:0:0:
47,33,246624,6,0,P|103:79|218:93,1,165.749992412568,0|0,3:0|0:0,0:0:0:0:
210,114,247059,1,0,1:0:0:0:
345,33,247276,2,0,P|311:76|302:130,1,110.499994941712,2|0,0:3|3:0,0:0:0:0:
150,187,247711,2,0,P|159:240|192:284,1,110.499994941712,2|0,0:3|1:0,0:0:0:0:
275,356,248145,6,0,P|221:368|169:384,1,110.499994941712,2|4,0:3|3:2,0:0:0:0:
353,263,248580,1,2,0:3:0:0:
461,340,248798,1,0,1:0:0:0:
338,285,249015,1,2,0:3:0:0:
472,215,249232,5,0,3:0:0:0:
373,365,249450,1,2,0:3:0:0:
196,284,249667,1,0,1:0:0:0:
258,205,249884,5,2,0:3:0:0:
104,0,250102,2,0,P|125:61|198:185,1,165.749992412568,0|0,3:0|0:0,0:0:0:0:
204,155,250536,1,0,1:0:0:0:
16,225,250754,2,0,P|31:171|54:121,1,110.499994941712,2|0,0:3|3:0,0:0:0:0:
210,45,251189,2,0,P|263:60|313:83,1,110.499994941712,2|0,0:3|1:0,0:0:0:0:
487,210,251623,5,2,0:3:0:0:
508,132,251841,2,0,P|412:157|385:287,1,220.999989883423,0|0,3:0|1:0,0:0:0:0:
338,340,252493,1,2,0:3:0:0:
464,289,252710,5,0,3:0:0:0:
288,228,252927,1,2,0:3:0:0:
168,373,253145,1,0,1:0:0:0:
258,384,253362,2,0,P|253:352|238:296,1,55.2499974708558,2|0,0:3|0:0,0:0:0:0:
146,223,253580,6,0,P|111:266|97:319,1,110.499994941712,2|2,3:1|0:3,0:0:0:0:
269,216,254014,6,0,P|206:205|146:222,1,127.500004863739,2|2,1:1|0:3,0:0:0:0:
332,91,254449,6,0,P|286:146|268:216,1,144.500002756119,2|2,3:1|0:3,0:0:0:0:
488,81,254884,6,0,P|409:68|332:89,1,161.499995687485,2|2,1:1|0:3,0:0:0:0:
212,109,255318,5,4,3:1:0:0:
374,198,255536,1,2,0:3:0:0:
332,91,255753,1,0,1:0:0:0:
472,175,255971,5,2,0:3:0:0:
360,221,256188,1,0,3:0:0:0:
260,171,256405,1,2,0:3:0:0:
176,39,256623,5,0,1:0:0:0:
353,111,256840,1,2,0:3:0:0:
258,279,257057,2,0,P|176:297|79:326,1,165.749992412568,0|0,3:0|0:0,0:0:0:0:
77,340,257492,1,0,1:0:0:0:
88,129,257709,6,0,P|119:153|147:237,1,110.499994941712,2|0,0:3|3:0,0:0:0:0:
302,371,258144,2,0,P|333:347|361:263,1,110.499994941712,2|0,0:3|1:0,0:0:0:0:
442,205,258579,6,0,P|388:193|335:177,1,110.499994941712,2|0,0:3|3:0,0:0:0:0:
289,117,259014,1,2,0:3:0:0:
434,91,259231,1,0,1:0:0:0:
266,131,259448,1,2,0:3:0:0:
172,6,259666,5,0,3:0:0:0:
352,63,259883,1,2,0:3:0:0:
378,274,260100,1,0,1:0:0:0:
192,169,260318,5,2,0:3:0:0:
9,208,260535,2,0,P|80:201|179:86,1,220.999989883423,0|0,3:0|1:0,0:0:0:0:
110,34,261187,1,2,0:3:0:0:
39,89,261405,1,0,3:0:0:0:
28,3,261622,5,2,0:3:0:0:
269,107,261839,1,0,1:0:0:0:
120,278,262057,1,2,0:3:0:0:
33,283,262274,6,0,B|118:272|91:327|183:354,1,165.749992412568,4|0,3:2|0:0,0:0:0:0:
201,338,262709,1,0,1:0:0:0:
404,383,262926,2,0,P|346:358|257:336,1,110.499994941712,2|0,0:3|3:0,0:0:0:0:
432,164,263361,2,0,P|407:222|385:311,1,110.499994941712,2|0,0:3|1:0,0:0:0:0:
498,247,263796,5,2,0:3:0:0:
320,187,264013,2,0,P|252:150|287:13,1,220.999989883423,0|0,3:0|1:0,0:0:0:0:
342,66,264665,1,2,0:3:0:0:
160,150,264882,5,0,3:0:0:0:
160,150,264991,1,0,1:0:0:0:
160,150,265100,2,0,P|102:125|13:103,1,110.499994941712,2|0,0:3|1:0,0:0:0:0:
155,42,265535,5,2,0:3:0:0:
307,237,265752,2,0,B|316:152|246:125|270:12,2,220.999989883423,0|0|0,3:0|1:0|3:0,0:0:0:0:
206,372,266839,1,2,0:3:0:0:
345,313,267056,1,0,1:0:0:0:
220,232,267273,5,2,0:3:0:0:
366,326,267491,1,0,3:0:0:0:
448,232,267708,2,0,P|421:238|386:245,1,55.2499974708558,0|0,1:0|0:0,0:0:0:0:
319,55,267926,5,0,3:0:0:0:
401,149,268143,2,0,P|374:143|339:136,1,55.2499974708558,0|0,1:0|0:0,0:0:0:0:
474,66,268360,5,0,1:0:0:0:
433,75,268469,1,0,1:0:0:0:
393,84,268578,1,0,1:0:0:0:
352,93,268686,1,0,1:0:0:0:
312,101,268795,1,0,1:0:0:0:
271,110,268904,1,0,1:0:0:0:
231,118,269012,1,0,1:0:0:0:
190,126,269121,1,0,1:0:0:0:
149,134,269230,1,4,3:2:0:0:
256,192,269338,12,0,272708,0:0:0:0:
