osu file format v14

[General]
AudioFilename: audio.mp3
AudioLeadIn: 0
PreviewTime: 57069
Countdown: 0
SampleSet: Soft
StackLeniency: 0.7
Mode: 0
LetterboxInBreaks: 0
EpilepsyWarning: 1
WidescreenStoryboard: 1

[Editor]
DistanceSpacing: 1.4
BeatDivisor: 4
GridSize: 4
TimelineZoom: 1

[Metadata]
Title:Happy End
TitleUnicode:ハッピーエンド
Artist:back number
ArtistUnicode:back number
Creator:bossandy
Version:Insane
Source:ぼくは明日、昨日のきみとデートする
Tags:バックナンバー Tomorrow I Will Date With Yesterday's You Boku ha Asu Kinou no Kimi to date suru こまつ なな 福士 蒼汰 小松 菜奈 ふくし そうた boss
BeatmapID:1435761
BeatmapSetID:679053

[Difficulty]
HPDrainRate:6
CircleSize:4
OverallDifficulty:7
ApproachRate:8.2
SliderMultiplier:3.2
SliderTickRate:1

[Events]
//Background and Video events
0,0,"BG.jpg",0,0
Video,-3050,"video.avi"
//Break Periods
//Storyboard Layer 0 (Background)
//Storyboard Layer 1 (Fail)
//Storyboard Layer 2 (Pass)
//Storyboard Layer 3 (Foreground)
Sprite,Foreground,Centre,"SB\ring.png",320,240 M,0,382,771,164,204 F,0,382,771,1,0 S,0,382,771,0.5,1.5 C,0,382,771,255,255,255 P,0,382,771,A
Sprite,Foreground,Centre,"SB\ring.png",320,240 M,0,1161,1550,248,244 F,0,1161,1550,1,0 S,0,1161,1550,0.5,1.5 C,0,1161,1550,255,255,255 P,0,1161,1550,A
Sprite,Foreground,Centre,"SB\ring.png",320,240 M,0,1940,2329,264,152 F,0,1940,2329,1,0 S,0,1940,2329,0.5,1.5 C,0,1940,2329,255,255,255 P,0,1940,2329,A
Sprite,Foreground,Centre,"SB\ring.png",320,240 M,0,58043,58433,192,404 F,0,58043,58433,1,0 S,0,58043,58433,0.5,1.5 C,0,58043,58433,255,255,255 P,0,58043,58433,A
Sprite,Foreground,Centre,"SB\ring.png",320,240 M,0,70511,70901,312,164 F,0,70511,70901,1,0 S,0,70511,70901,0.5,1.5 C,0,70511,70901,255,255,255 P,0,70511,70901,A
Sprite,Foreground,Centre,"SB\ring.png",320,240 M,0,76745,77134,448,388 F,0,76745,77134,1,0 S,0,76745,77134,0.5,1.5 C,0,76745,77134,255,255,255 P,0,76745,77134,A
Sprite,Foreground,Centre,"SB\ring.png",320,240 M,0,79862,80251,164,224 F,0,79862,80251,1,0 S,0,79862,80251,0.5,1.5 C,0,79862,80251,255,255,255 P,0,79862,80251,A
Sprite,Foreground,Centre,"SB\ring.png",320,240 M,0,81615,82004,500,264 F,0,81615,82004,1,0 S,0,81615,82004,0.5,1.5 C,0,81615,82004,255,255,255 P,0,81615,82004,A
Sprite,Foreground,Centre,"SB\ring.png",320,240 M,0,81712,82102,492,300 F,0,81712,82102,1,0 S,0,81712,82102,0.5,1.5 C,0,81712,82102,255,255,255 P,0,81712,82102,A
Sprite,Foreground,Centre,"SB\ring.png",320,240 M,0,81810,82199,468,328 F,0,81810,82199,1,0 S,0,81810,82199,0.5,1.5 C,0,81810,82199,255,255,255 P,0,81810,82199,A
Sprite,Foreground,Centre,"SB\ring.png",320,240 M,0,82004,82394,320,392 F,0,82004,82394,1,0 S,0,82004,82394,0.5,1.5 C,0,82004,82394,255,255,255 P,0,82004,82394,A
Sprite,Foreground,Centre,"SB\ring.png",320,240 M,0,82394,82784,368,188 F,0,82394,82784,1,0 S,0,82394,82784,0.5,1.5 C,0,82394,82784,255,255,255 P,0,82394,82784,A
Sprite,Foreground,Centre,"SB\ring.png",320,240 M,0,82589,82978,172,304 F,0,82589,82978,1,0 S,0,82589,82978,0.5,1.5 C,0,82589,82978,255,255,255 P,0,82589,82978,A
Sprite,Foreground,Centre,"SB\ring.png",320,240 M,0,82784,83173,168,76 F,0,82784,83173,1,0 S,0,82784,83173,0.5,1.5 C,0,82784,83173,255,255,255 P,0,82784,83173,A
Sprite,Foreground,Centre,"SB\ring.png",320,240 M,0,82978,83368,268,248 F,0,82978,83368,1,0 S,0,82978,83368,0.5,1.5 C,0,82978,83368,255,255,255 P,0,82978,83368,A
Sprite,Foreground,Centre,"SB\ring.png",320,240 M,0,95446,95836,332,364 F,0,95446,95836,1,0 S,0,95446,95836,0.5,1.5 C,0,95446,95836,255,255,255 P,0,95446,95836,A
Sprite,Foreground,Centre,"SB\highlight.png",320,240 M,0,58043,58141,192,404,155,377 C,0,58043,59601,147,196,255 F,0,58043,101484,0.8 S,0,58043,101484,0.2 R,0,58043,101484,0,157 P,0,58043,101484,A M,0,58141,58238,155,377,137,349 M,0,58238,58336,137,349,128,313 M,0,58336,58433,128,313,132,269 M,0,58433,58628,132,269,188,140 M,0,58628,58823,188,140,260,300 M,0,58823,58920,260,300,299,295 M,0,58920,59017,299,295,339,290 M,0,59017,59115,339,290,379,285 M,0,59115,59212,379,285,418,280 M,0,59212,59407,418,280,448,420 M,0,59407,59602,448,420,536,308 C,0,59601,61159,192,192,192 M,0,59602,59699,536,308,542,268 M,0,59699,59796,542,268,533,230 M,0,59796,59894,533,230,508,199 M,0,59894,59991,508,199,473,181 M,0,59991,60186,473,181,332,156 M,0,60186,60381,332,156,220,372 M,0,60381,60478,220,372,180,372 M,0,60478,60575,180,372,141,369 M,0,60575,60673,141,369,112,341 M,0,60673,60770,112,341,82,314 M,0,60770,60965,82,314,192,224 M,0,60965,61160,192,224,132,96 C,0,61159,62717,255,162,162 M,0,61160,61257,132,96,169,82 M,0,61257,61354,169,82,209,82 M,0,61354,61452,209,82,247,93 M,0,61452,61549,247,93,280,116 M,0,61549,61745,280,116,192,224 M,0,61745,61939,192,224,336,248 M,0,61939,62036,336,248,374,256 M,0,62036,62133,374,256,413,252 M,0,62133,62231,413,252,452,245 M,0,62231,62328,452,245,491,251 M,0,62328,62524,491,251,368,176 M,0,62524,62719,368,176,252,260 C,0,62717,64275,255,255,157 M,0,62719,62816,252,260,262,297 M,0,62816,62913,262,297,293,322 M,0,62913,63011,293,322,332,332 M,0,63011,63108,332,332,371,340 M,0,63108,63303,371,340,512,372 M,0,63303,63498,512,372,336,236 M,0,63498,63595,336,236,320,199 M,0,63595,63692,320,199,289,174 M,0,63692,63790,289,174,251,167 M,0,63790,63887,251,167,213,179 M,0,63887,64082,213,179,156,312 M,0,64082,64277,156,312,324,380 C,0,64275,65833,147,196,255 M,0,64277,64374,324,380,362,390 M,0,64374,64471,362,390,400,379 M,0,64471,64569,400,379,437,369 M,0,64569,64666,437,369,476,380 M,0,64666,64764,476,380,437,369 M,0,64764,64862,437,369,400,379 M,0,64862,64959,400,379,362,390 M,0,64959,65056,362,390,324,380 M,0,65056,65251,324,380,336,236 M,0,65251,65446,336,236,348,92 M,0,65446,65641,348,92,220,160 M,0,65641,65836,220,160,468,176 C,0,65833,67391,192,192,192 M,0,65836,65933,468,176,487,211 M,0,65933,66030,487,211,506,246 M,0,66030,66225,506,246,400,316 M,0,66225,66322,400,316,380,280 M,0,66322,66419,380,280,361,245 M,0,66419,66615,361,245,468,176 M,0,66615,66712,468,176,486,211 M,0,66712,66809,486,211,492,249 M,0,66809,66907,492,249,495,289 M,0,66907,67004,495,289,511,325 M,0,67004,67199,511,325,408,424 M,0,67199,67394,408,424,224,304 C,0,67391,68949,255,162,162 M,0,67394,67491,224,304,192,328 M,0,67491,67588,192,328,156,345 M,0,67588,67686,156,345,117,354 M,0,67686,67783,117,354,77,354 M,0,67783,67881,77,354,117,354 M,0,67881,67979,117,354,156,345 M,0,67979,68076,156,345,192,328 M,0,68076,68173,192,328,224,304 M,0,68173,68368,224,304,116,212 M,0,68368,68465,116,212,94,178 M,0,68465,68562,94,178,89,139 M,0,68562,68660,89,139,94,178 M,0,68660,68757,94,178,116,212 M,0,68757,68952,116,212,224,304 C,0,68949,70507,255,255,157 M,0,68952,69147,224,304,252,164 M,0,69147,69342,252,164,360,260 M,0,69342,69732,360,260 M,0,69732,69927,360,260,492,276 M,0,69927,70121,492,276,384,80 M,0,70121,70316,384,80,516,96 M,0,70316,70511,516,96,312,164 C,0,70507,72065,147,196,255 M,0,70511,70705,312,164,236,136 M,0,70705,70901,236,136,292,396 M,0,70901,71095,292,396,367,423 M,0,71095,71290,367,423,224,280 M,0,71290,71484,224,280,148,252 M,0,71484,71680,148,252,380,280 M,0,71680,71874,380,280,455,307 M,0,71874,72069,455,307,436,192 C,0,72065,73623,192,192,192 M,0,72069,72264,436,192,522,115 M,0,72264,72459,522,115,567,339 M,0,72459,72654,567,339,544,227 M,0,72654,72849,544,227,346,268 M,0,72849,73043,346,268,455,307 M,0,73043,73238,455,307,522,115 M,0,73238,73433,522,115,436,192 M,0,73433,73628,436,192,544,368 C,0,73623,75181,255,162,162 M,0,73628,73725,544,368,506,379 M,0,73725,73822,506,379,466,376 M,0,73822,73920,466,376,430,358 M,0,73920,74017,430,358,404,329 M,0,74017,74212,404,329,292,236 M,0,74212,74407,292,236,248,100 M,0,74407,74504,248,100,285,88 M,0,74504,74601,285,88,325,91 M,0,74601,74699,325,91,361,108 M,0,74699,74796,361,108,387,138 M,0,74796,74991,387,138,264,380 M,0,74991,75186,264,380,128,424 C,0,75181,76739,255,255,157 M,0,75186,75283,128,424,107,389 M,0,75283,75380,107,389,88,354 M,0,75380,75478,88,354,88,314 M,0,75478,75575,88,314,88,274 M,0,75575,75771,88,274,92,132 M,0,75771,75965,92,132,212,208 M,0,75965,76159,212,208,292,208 M,0,76159,76355,292,208,412,92 M,0,76355,76549,412,92,371,161 M,0,76549,76745,371,161,448,388 C,0,76739,78297,147,196,255 M,0,76745,76939,448,388,407,318 M,0,76939,77134,407,318,367,249 M,0,77134,77329,367,249,304,120 M,0,77329,77524,304,120,188,208 M,0,77524,77621,188,208,149,219 M,0,77621,77718,149,219,110,215 M,0,77718,77914,110,215,268,276 M,0,77914,78011,268,276,251,312 M,0,78011,78108,251,312,223,340 M,0,78108,78303,223,340,367,249 C,0,78297,79855,192,192,192 M,0,78303,78400,367,249,387,283 M,0,78400,78497,387,283,402,320 M,0,78497,78595,402,320,409,359 M,0,78595,78692,409,359,408,399 M,0,78692,78888,408,399,300,172 M,0,78888,79082,300,172,432,112 M,0,79082,79179,432,112,470,123 M,0,79179,79276,470,123,508,111 M,0,79276,79472,508,111,376,171 M,0,79472,79569,376,171,337,159 M,0,79569,79666,337,159,299,171 M,0,79666,79862,299,171,164,224 C,0,79855,81413,255,162,162 M,0,79862,80056,164,224,280,312 M,0,80056,80251,280,312,408,256 M,0,80251,80446,408,256,299,171 M,0,80446,80641,299,171,280,312 M,0,80641,80738,280,312,251,339 M,0,80738,80835,251,339,215,355 M,0,80835,80933,215,355,175,356 M,0,80933,81030,175,356,138,342 M,0,81030,81225,138,342,299,171 M,0,81225,81322,299,171,338,173 M,0,81322,81419,338,173,371,195 C,0,81413,82971,255,255,157 M,0,81419,81615,371,195,500,264 M,0,81615,81712,500,264,492,300 M,0,81712,81810,492,300,468,328 M,0,81810,82004,468,328,320,392 M,0,82004,82101,320,392,302,356 M,0,82101,82198,302,356,304,316 M,0,82198,82394,304,316,368,188 C,0,82394,82498,147,196,255 M,0,82394,82589,368,188,172,304 C,0,82394,82978,147,196,255 M,0,82589,82784,172,304,168,76 M,0,82784,82978,168,76,268,248 C,0,82948,84506,192,192,192 M,0,82978,83075,268,248,289,281 M,0,83075,83172,289,281,321,305 M,0,83172,83270,321,305,359,316 M,0,83270,83367,359,316,398,313 M,0,83367,83563,398,313,488,200 M,0,83563,83758,488,200,276,104 M,0,83758,83855,276,104,236,99 M,0,83855,83952,236,99,197,108 M,0,83952,84050,197,108,164,130 M,0,84050,84147,164,130,140,162 M,0,84147,84342,140,162,268,248 M,0,84342,84537,268,248,280,380 C,0,84506,86064,255,162,162 M,0,84537,84634,280,380,303,411 M,0,84634,84731,303,411,334,436 M,0,84731,84927,334,436,452,352 M,0,84927,85024,452,352,428,319 M,0,85024,85121,428,319,397,294 M,0,85121,85316,397,294,264,236 M,0,85316,85413,264,236,257,196 M,0,85413,85510,257,196,270,159 M,0,85510,85608,270,159,300,133 M,0,85608,85705,300,133,338,124 M,0,85705,85901,338,124,468,192 M,0,85901,86095,468,192,380,304 C,0,86064,87622,255,255,157 M,0,86095,86192,380,304,341,312 M,0,86192,86289,341,312,303,302 M,0,86289,86387,303,302,275,274 M,0,86387,86484,275,274,264,236 M,0,86484,86680,264,236,324,104 M,0,86680,86875,324,104,68,156 M,0,86875,86972,68,156,107,160 M,0,86972,87069,107,160,144,148 M,0,87069,87167,144,148,181,136 M,0,87167,87264,181,136,220,141 M,0,87264,87459,220,141,188,284 M,0,87459,87654,188,284,343,314 C,0,87622,89180,147,196,255 M,0,87654,87751,343,314,381,306 M,0,87751,87848,381,306,414,283 M,0,87848,88043,414,283,292,111 M,0,88043,88140,292,111,252,117 M,0,88140,88237,252,117,220,139 M,0,88237,88433,220,139,217,284 M,0,88433,88628,217,284,166,62 M,0,88628,88823,166,62,92,235 M,0,88823,89017,92,235,292,111 M,0,89017,89212,292,111,428,236 C,0,89180,90738,192,192,192 M,0,89212,89309,428,236,465,250 M,0,89309,89406,465,250,502,265 M,0,89406,89504,502,265,541,260 M,0,89504,89601,541,260,580,251 M,0,89601,89699,580,251,541,260 M,0,89699,89797,541,260,502,265 M,0,89797,89894,502,265,465,250 M,0,89894,89991,465,250,428,236 M,0,89991,90186,428,236,297,172 M,0,90186,90381,297,172,420,96 M,0,90381,90576,420,96,308,316 M,0,90576,90771,308,316,184,100 C,0,90738,92296,255,162,162 M,0,90771,90868,184,100,164,134 M,0,90868,90965,164,134,156,173 M,0,90965,91063,156,173,160,213 M,0,91063,91160,160,213,178,248 M,0,91160,91355,178,248 M,0,91355,91550,178,248,373,157 M,0,91550,91745,373,157,297,171 M,0,91745,91939,297,171,322,353 M,0,91939,92134,322,353,348,280 M,0,92134,92329,348,280,440,436 C,0,92296,93854,255,255,157 M,0,92329,92426,440,436,463,403 M,0,92426,92523,463,403,479,367 M,0,92523,92621,479,367,488,328 M,0,92621,92718,488,328,489,288 M,0,92718,92914,489,288,452,148 M,0,92914,93108,452,148,264,288 M,0,93108,93205,264,288,224,295 M,0,93205,93302,224,295,185,303 M,0,93302,93400,185,303,146,296 M,0,93400,93497,146,296,107,287 M,0,93497,93693,107,287,283,435 M,0,93693,93790,283,435,322,427 M,0,93790,93887,322,427,361,419 C,0,93854,95412,147,196,255 M,0,93887,93985,361,419,400,426 M,0,93985,94082,400,426,439,435 M,0,94082,94277,439,435,516,312 M,0,94277,94471,516,312,489,236 M,0,94471,94667,489,236,356,176 M,0,94667,94861,356,176,329,100 M,0,94861,95056,329,100,224,284 M,0,95056,95250,224,284,197,208 M,0,95250,95446,197,208,332,364 C,0,95412,96970,192,192,192 M,0,95446,95543,332,364,305,394 M,0,95543,95640,305,394,271,414 M,0,95640,95738,271,414,233,424 M,0,95738,95835,233,424,193,422 M,0,95835,95933,193,422,233,424 M,0,95933,96031,233,424,271,414 M,0,96031,96128,271,414,305,394 M,0,96128,96225,305,394,332,364 M,0,96225,96615,332,364,100,192 M,0,96615,96810,100,192,212,100 M,0,96810,96907,212,100,250,88 M,0,96907,97004,250,88,289,84 C,0,96970,98528,255,162,162 M,0,97004,97102,289,84,329,88 M,0,97102,97199,329,88,367,100 M,0,97199,97394,367,100,496,164 M,0,97394,97589,496,164,376,248 M,0,97589,97784,376,248,367,100 M,0,97784,97978,367,100,456,240 M,0,97978,98173,456,240,336,324 M,0,98173,98368,336,324,327,176 M,0,98368,98563,327,176,416,308 C,0,98528,100086,255,255,157 M,0,98563,98660,416,308,414,347 M,0,98660,98757,414,347,394,381 M,0,98757,98855,394,381,360,401 M,0,98855,98952,360,401,320,401 M,0,98952,99147,320,401,188,340 M,0,99147,99342,188,340,109,219 M,0,99342,99536,109,219,128,141 M,0,99536,99731,128,141,148,63 M,0,99731,99927,148,63,220,192 M,0,99927,100121,220,192,403,259 C,0,100086,101644,147,196,255 M,0,100121,100315,403,259,482,253 M,0,100315,100511,482,253,283,315 M,0,100511,100705,283,315,220,364 M,0,100705,100901,220,364,355,195 M,0,100901,101095,355,195,375,117 M,0,101095,101290,375,117,364,332 M,0,101290,101484,364,332,392,406
//Storyboard Sound Samples

[TimingPoints]
382,779.220779220779,4,2,1,60,1,0
382,-200,4,2,1,60,0,0
1940,779.220779220779,4,2,1,60,1,0
1940,-133.333333333333,4,2,1,60,0,0
58043,-100,4,2,2,80,0,1
81420,-100,4,2,2,80,0,0
82978,-100,4,2,2,80,0,1
101680,-100,4,2,2,60,0,0
125836,-100,4,2,2,40,0,0
126030,-100,4,2,2,60,0,0
135965,-100,4,2,2,50,0,0
136745,-100,4,2,2,40,0,0
137524,-100,4,2,2,30,0,0
137719,-100,4,2,1,10,0,0

[Colours]
Combo1 : 255,162,162
Combo2 : 255,255,157
Combo3 : 147,196,255
Combo4 : 192,192,192

[HitObjects]
100,148,382,6,0,L|78:71,1,80,2|0,0:0|0:0,0:0:0:0:
184,188,1161,2,0,L|127:244,1,80,2|0,0:0|0:0,0:0:0:0:
200,96,1940,6,0,B|256:120|256:120|310:96,1,120.000004577637,4|0,0:0|0:0,0:0:0:0:
404,40,2524,1,0,0:0:0:0:
476,156,2719,2,0,B|476:220|476:220|449:269,1,120.000004577637,2|0,0:0|0:0,0:0:0:0:
231,275,3498,6,0,P|173:263|115:278,1,120.000004577637,2|0,0:0|0:0,0:0:0:0:
44,360,4082,1,0,0:0:0:0:
8,228,4277,2,0,L|42:113,1,120.000004577637,2|0,0:0|0:0,0:0:0:0:
42,112,5056,6,0,P|100:104|155:127,1,120.000004577637,2|0,0:0|0:0,0:0:0:0:
196,216,5641,1,0,0:0:0:0:
316,176,5836,2,0,B|376:159|376:159|431:177,2,120.000004577637,2|0|2,0:0|0:0|0:0,0:0:0:0:
180,344,7004,5,0,0:0:0:0:
248,260,7199,1,0,0:0:0:0:
340,356,7394,2,0,P|395:375|454:364,1,120.000004577637,2|0,0:0|0:0,0:0:0:0:
448,116,8173,6,0,B|392:96|392:96|331:99,1,120.000004577637,4|0,0:0|0:0,0:0:0:0:
224,104,8758,1,0,0:0:0:0:
280,224,8952,2,0,B|300:280|300:280|297:341,2,120.000004577637,2|0|2,0:0|0:0|0:0,0:0:0:0:
280,224,10121,5,0,0:0:0:0:
196,292,10316,1,0,0:0:0:0:
88,208,10511,2,0,P|71:152|88:95,2,120.000004577637,2|0|2,0:0|0:0|0:0,0:0:0:0:
260,328,11680,6,0,L|320:320,1,60.0000022888184
448,379,12069,2,0,P|468:323|450:266,1,120.000004577637,2|0,0:0|0:0,0:0:0:0:
376,192,12654,1,0,0:0:0:0:
428,96,12849,6,0,L|424:36,1,60.0000022888184,2|0,0:0|0:0,0:0:0:0:
336,96,13238,2,0,L|302:46,1,60.0000022888184
268,148,13628,2,0,L|214:121,1,60.0000022888184,2|0,0:0|0:0,0:0:0:0:
232,228,14017,2,0,L|172:231,1,60.0000022888184
292,312,14407,6,0,P|328:264|328:196,1,120.000004577637,4|0,0:0|0:0,0:0:0:0:
296,104,14991,1,0,0:0:0:0:
188,192,15186,2,0,P|129:192|82:156,2,120.000004577637,2|0|2,0:0|0:0|0:0,0:0:0:0:
440,52,16355,5,0,0:0:0:0:
476,152,16550,1,0,0:0:0:0:
380,264,16745,2,0,L|260:240,2,120.000004577637,2|0|2,0:0|0:0|0:0,0:0:0:0:
256,192,17719,12,4,19082,0:0:0:0:
336,72,20446,5,0,0:0:0:0:
336,72,20641,2,0,L|216:76,1,120.000004577637,2|0,0:0|0:0,0:0:0:0:
136,148,21225,1,0,0:0:0:0:
224,208,21420,2,0,P|236:266|222:324,2,120.000004577637,2|0|2,0:0|0:0|0:0,0:0:0:0:
76,52,22589,5,0,0:0:0:0:
136,148,22784,1,0,0:0:0:0:
244,112,22978,2,0,L|308:108,2,60.0000022888184,2|0|0,0:0|0:0|0:0,0:0:0:0:
496,184,23758,6,0,B|432:192|432:192|384:224,1,120.000004577637,2|0,0:0|0:0,0:0:0:0:
292,280,24342,1,0,0:0:0:0:
272,172,24537,2,0,L|263:108,1,60.0000022888184,2|0,0:0|0:0,0:0:0:0:
236,257,24927,2,0,L|295:281,1,60.0000022888184
172,192,25316,6,0,P|140:256|164:308,1,120.000004577637,2|0,0:0|0:0,0:0:0:0:
272,172,25901,1,0,0:0:0:0:
224,76,26095,2,0,L|80:60,1,120.000004577637,2|0,0:0|0:0,0:0:0:0:
272,172,26680,1,0,0:0:0:0:
372,132,26875,6,0,L|396:68,1,60.0000022888184,6|0,0:0|0:0,0:0:0:0:
500,80,27264,2,0,L|478:136,1,60.0000022888184
396,272,27654,2,0,L|417:215,2,60.0000022888184,2|0|0,0:0|0:0|0:0,0:0:0:0:
308,336,28238,1,0,0:0:0:0:
256,192,28433,6,0,L|308:48,1,120.000004577637,2|0,0:0|0:0,0:0:0:0:
204,24,29017,1,0,0:0:0:0:
96,20,29212,2,0,L|55:132,1,120.000004577637,2|0,0:0|0:0,0:0:0:0:
16,236,29797,1,0,0:0:0:0:
84,320,29991,6,0,P|132:354|191:354,1,120.000004577637,2|0,0:0|0:0,0:0:0:0:
16,236,30576,1,0,0:0:0:0:
123,209,30771,2,0,P|180:209|229:243,1,120.000004577637,2|0,0:0|0:0,0:0:0:0:
297,329,31355,1,0,0:0:0:0:
356,188,31550,6,0,L|336:44,2,120.000004577637,2|0|2,0:0|0:0|0:0,0:0:0:0:
356,188,32719,1,0,0:0:0:0:
460,152,32914,1,0,0:0:0:0:
339,69,33108,6,0,P|279:73|221:58,1,120.000004577637,6|0,0:0|0:0,0:0:0:0:
124,8,33693,1,0,0:0:0:0:
80,108,33888,2,0,L|12:80,1,60.0000022888184,2|0,0:0|0:0,0:0:0:0:
116,212,34277,6,0,P|172:180|196:116,2,120.000004577637,0|2|0,0:0|0:0|0:0,0:0:0:0:
80,108,35251,1,0,0:0:0:0:
36,208,35446,2,0,P|40:240|72:272,1,60.0000022888184,2|0,0:0|0:0,0:0:0:0:
80,108,35836,1,0,0:0:0:0:
80,108,36225,6,0,B|136:128|136:128|200:128,1,120.000004577637,2|0,0:0|0:0,0:0:0:0:
304,128,36810,1,0,0:0:0:0:
392,68,37004,2,0,L|441:33,1,60.0000022888184,2|0,0:0|0:0,0:0:0:0:
400,168,37394,2,0,L|404:227,1,60.0000022888184
304,128,37784,6,0,L|195:76,1,120.000004577637,2|0,0:0|0:0,0:0:0:0:
392,68,38368,1,0,0:0:0:0:
400,168,38563,2,0,B|406:206|384:225|384:225|362:244|368:283,1,120.000004577637,2|0,0:0|0:0,0:0:0:0:
448,348,39147,1,0,0:0:0:0:
492,152,39342,6,0,L|464:80,1,60.0000022888184,6|0,0:0|0:0,0:0:0:0:
356,24,39732,2,0,L|384:96,1,60.0000022888184
288,220,40121,2,0,P|220:232|148:184,1,120.000004577637,2|0,0:0|0:0,0:0:0:0:
124,116,40706,1,0,0:0:0:0:
44,192,40901,6,0,L|60:310,1,120.000004577637,2|0,0:0|0:0,0:0:0:0:
124,116,41485,1,0,0:0:0:0:
204,44,41680,2,0,L|276:52,1,60.0000022888184,2|0,0:0|0:0,0:0:0:0:
320,144,42069,2,0,L|392:152,1,60.0000022888184
484,316,42459,6,0,L|364:303,1,120.000004577637,2|0,0:0|0:0,0:0:0:0:
256,292,43043,1,0,0:0:0:0:
196,200,43238,2,0,B|168:148|168:148|168:88,1,120.000004577637,2|0,0:0|0:0,0:0:0:0:
256,24,43823,1,0,0:0:0:0:
344,87,44017,1,2,0:0:0:0:
344,88,45381,5,0,0:0:0:0:
256,152,45576,2,0,L|285:268,1,120.000004577637,2|0,0:0|0:0,0:0:0:0:
392,268,46160,1,0,0:0:0:0:
344,88,46355,2,0,P|304:56|232:48,1,120.000004577637,2|0,0:0|0:0,0:0:0:0:
144,100,46939,1,0,0:0:0:0:
144,252,47134,6,0,B|196:288|196:288|276:288,1,120.000004577637,2|0,0:0|0:0,0:0:0:0:
360,284,47719,1,0,0:0:0:0:
400,184,47914,2,0,L|420:124,1,60.0000022888184,2|0,0:0|0:0,0:0:0:0:
500,200,48303,2,0,L|480:260,1,60.0000022888184
324,116,48693,6,0,L|364:-4,1,120.000004577637,2|0,0:0|0:0,0:0:0:0:
361,2,49277,1,0,0:0:0:0:
232,84,49472,1,2,0:0:0:0:
144,116,49667,2,0,B|88:132|88:132|28:116,1,120.000004577637
124,216,50251,6,0,L|180:198,1,60.0000022888184,2|0,0:0|0:0,0:0:0:0:
154,305,50641,2,0,L|211:285,1,60.0000022888184
416,296,51030,2,0,P|370:260|311:257,1,120.000004577637,2|0,0:0|0:0,0:0:0:0:
335,365,51615,1,0,0:0:0:0:
508,240,51810,6,0,L|483:122,1,120.000004577637,6|0,0:0|0:0,0:0:0:0:
404,48,52394,1,0,0:0:0:0:
372,152,52589,1,2,0:0:0:0:
220,72,52784,2,0,P|160:52|104:72,1,120.000004577637
164,164,53368,6,0,L|100:284,1,120.000004577637,2|0,0:0|0:0,0:0:0:0:
52,364,53952,1,0,0:0:0:0:
208,296,54147,2,0,L|272:304,1,60.0000022888184,2|0,0:0|0:0,0:0:0:0:
332,216,54537,2,0,L|396:224,1,60.0000022888184
280,148,54927,6,0,P|240:196|256:268,1,120.000004577637,2|0,0:0|0:0,0:0:0:0:
408,248,55511,1,0,0:0:0:0:
328,320,55706,1,2,0:0:0:0:
372,148,55901,1,0,0:0:0:0:
408,248,56095,1,2,0:0:0:0:
280,148,56290,1,0,0:0:0:0:
328,320,56485,1,2,0:0:0:0:
124,344,58043,6,0,P|69:287|65:209,1,160,6|0,0:0|0:0,0:0:0:0:
120,80,58628,1,0,0:0:0:0:
192,240,58823,2,0,L|384:216,1,160,8|0,0:0|0:0,0:0:0:0:
380,360,59407,1,2,0:0:0:0:
468,248,59602,6,0,P|464:168|400:120,1,160,0|2,0:0|0:0,0:0:0:0:
264,96,60186,1,0,0:0:0:0:
152,312,60381,2,8,B|76:312|76:312|4:244,1,160,8|0,0:0|0:0,0:0:0:0:
124,164,60965,1,0,0:0:0:0:
64,36,61160,6,0,P|152:24|220:64,1,160,2|0,0:0|0:0,0:0:0:0:
124,164,61745,1,0,0:0:0:0:
268,188,61939,2,0,B|320:200|320:200|376:184|376:184|452:196,1,160,8|0,0:0|0:0,0:0:0:0:
300,116,62524,1,2,0:0:0:0:
184,200,62719,6,0,B|184:244|228:264|228:264|336:288,1,160,0|2,0:0|0:0,0:0:0:0:
444,312,63303,1,0,0:0:0:0:
268,176,63498,2,0,P|216:112|134:128,1,160,8|0,0:0|0:0,0:0:0:0:
88,252,64082,1,0,0:0:0:0:
256,320,64277,6,0,B|342:357|320:282|407:320,2,160,2|0|8,0:0|0:0|0:0,0:0:0:0:
268,176,65251,1,0,0:0:0:0:
280,32,65446,1,2,0:0:0:0:
152,100,65641,1,2,0:0:0:0:
400,116,65836,6,0,L|438:186,1,80
332,256,66225,2,0,L|293:185,1,80,2|0,0:0|0:0,0:0:0:0:
400,116,66615,2,0,B|425:163|425:163|424:221|424:221|444:266,1,160,8|0,0:0|0:0,0:0:0:0:
340,364,67199,1,0,0:0:0:0:
156,244,67394,6,0,P|82:288|-8:292,2,160,2|0|8,0:0|0:0|0:0,0:0:0:0:
48,152,68368,2,0,P|24:112|24:64,2,80,0|2|2,0:0|0:0|0:0,0:0:0:0:
156,244,68952,5,0,0:0:0:0:
184,104,69147,1,0,0:0:0:0:
292,200,69342,1,2,0:0:0:0:
292,200,69732,1,8,0:0:0:0:
424,216,69927,1,0,0:0:0:0:
316,20,70121,1,0,0:0:0:0:
448,36,70316,1,0,0:0:0:0:
244,104,70511,6,0,L|144:68,1,80,6|0,0:0|0:0,0:0:0:0:
224,336,70901,2,0,L|324:372,1,80
156,220,71290,2,0,L|56:184,1,80,8|0,0:0|0:0,0:0:0:0:
312,220,71680,2,0,L|412:256,1,80,0|2,0:0|0:0,0:0:0:0:
368,132,72069,5,0,0:0:0:0:
454,55,72264,1,0,0:0:0:0:
499,279,72459,1,2,0:0:0:0:
476,167,72654,1,0,0:0:0:0:
278,208,72849,1,8,0:0:0:0:
387,247,73043,1,0,0:0:0:0:
454,55,73238,1,0,0:0:0:0:
368,132,73433,1,0,0:0:0:0:
476,308,73628,6,0,P|396:316|336:268,1,160,2|0,0:0|0:0,0:0:0:0:
224,176,74212,1,0,0:0:0:0:
180,40,74407,2,0,P|257:31|319:78,1,160,8|0,0:0|0:0,0:0:0:0:
196,320,74991,1,2,0:0:0:0:
60,364,75186,6,0,B|20:296|20:296|20:212,1,160,0|2,0:0|0:0,0:0:0:0:
24,72,75771,1,0,0:0:0:0:
144,148,75965,2,0,L|228:148,1,80,8|0,0:0|0:0,0:0:0:0:
344,32,76355,2,0,L|302:104,1,80
380,328,76745,6,0,L|299:189,1,160,6|0,0:0|0:0,0:0:0:0:
236,60,77329,1,0,0:0:0:0:
120,148,77524,2,0,P|72:160|16:144,1,80,8|0,0:0|0:0,0:0:0:0:
200,216,77914,2,0,P|178:260|130:293,1,80,0|2,0:0|0:0,0:0:0:0:
299,189,78303,6,0,P|334:260|341:339,1,160,0|2,0:0|0:0,0:0:0:0:
232,112,78888,1,0,0:0:0:0:
364,52,79082,2,0,B|404:64|404:64|440:52,1,80,8|0,0:0|0:0,0:0:0:0:
308,111,79472,2,0,B|268:99|268:99|232:111,1,80
96,164,79862,5,6,0:0:0:0:
212,252,80056,1,0,0:0:0:0:
340,196,80251,1,0,0:0:0:0:
231,111,80446,1,0,0:0:0:0:
212,252,80641,2,0,P|144:296|56:272,1,160,8|0,0:0|0:0,0:0:0:0:
231,111,81225,2,0,P|284:120|320:164,1,80,2|4,0:0|0:0,0:0:0:0:
432,204,81615,5,0,0:0:0:0:
424,240,81712,1,8,0:0:0:0:
400,268,81810,1,10,0:0:0:0:
252,332,82004,2,0,P|233:281|253:228,1,80,8|8,0:0|0:0,0:0:0:0:
300,128,82394,5,2,0:0:0:0:
104,244,82589,1,8,0:0:0:0:
100,16,82784,1,8,0:0:0:0:
200,188,82978,6,0,P|252:245|330:254,1,160,6|0,0:0|0:0,0:0:0:0:
420,140,83563,1,0,0:0:0:0:
208,44,83758,2,0,P|132:48|72:104,1,160,8|0,0:0|0:0,0:0:0:0:
200,188,84342,1,2,0:0:0:0:
212,320,84537,6,0,P|235:351|288:388,1,80
384,292,84927,2,0,P|360:259|329:234,1,80,2|0,0:0|0:0,0:0:0:0:
196,176,85316,2,0,P|200:104|272:64,1,160,8|0,0:0|0:0,0:0:0:0:
400,132,85901,1,0,0:0:0:0:
312,244,86095,6,0,P|248:248|196:176,1,160,2|0,0:0|0:0,0:0:0:0:
256,44,86680,1,0,0:0:0:0:
0,96,86875,2,0,B|49:102|49:102|102:75|102:75|157:82,1,160,8|0,0:0|0:0,0:0:0:0:
120,224,87459,1,2,0:0:0:0:
275,254,87654,6,0,P|310:248|349:221,1,80
224,51,88043,2,0,P|188:56|149:83,1,80,2|0,0:0|0:0,0:0:0:0:
149,224,88433,1,8,0:0:0:0:
98,2,88628,1,0,0:0:0:0:
24,175,88823,1,0,0:0:0:0:
224,51,89017,1,0,0:0:0:0:
360,176,89212,6,8,B|440:208|440:208|512:192,2,160,2|0|8,0:0|0:0|0:0,0:0:0:0:
229,112,90186,1,0,0:0:0:0:
352,36,90381,1,0,0:0:0:0:
240,256,90576,1,2,0:0:0:0:
116,40,90771,6,0,P|88:117|132:213,1,160,0|2,0:0|0:0,0:0:0:0:
110,188,91355,1,0,0:0:0:0:
305,97,91550,2,0,P|265:96|229:111,1,80,8|0,0:0|0:0,0:0:0:0:
254,293,91939,2,0,P|275:259|280:220,1,80
372,376,92329,6,0,P|412:307|422:229,1,160,2|0,0:0|0:0,0:0:0:0:
384,88,92914,1,0,0:0:0:0:
196,228,93108,2,0,B|116:244|116:244|40:228,1,160,8|2,0:0|0:0,0:0:0:0:
215,375,93693,2,0,B|295:359|295:359|371:375,1,160,2|0,0:0|0:0,0:0:0:0:
448,252,94277,6,0,L|416:160,1,80,2|0,0:0|0:0,0:0:0:0:
288,116,94667,2,0,L|261:40,1,80,8|0,0:0|0:0,0:0:0:0:
156,224,95056,2,0,L|124:132,1,80
264,304,95446,6,0,P|201:356|116:360,2,160,6|0|8,0:0|0:0|0:0,0:0:0:0:
32,132,96615,1,0,0:0:0:0:
144,40,96810,2,0,P|224:24|316:48,1,160,2|0,0:0|0:0,0:0:0:0:
428,104,97394,5,2,0:0:0:0:
308,188,97589,1,0,0:0:0:0:
299,40,97784,1,8,0:0:0:0:
388,180,97978,1,0,0:0:0:0:
268,264,98173,1,0,0:0:0:0:
259,116,98368,1,0,0:0:0:0:
348,248,98563,6,0,P|324:324|248:340,1,160,2|0,0:0|0:0,0:0:0:0:
120,280,99147,1,0,0:0:0:0:
41,159,99342,2,0,L|80:4,1,160,8|0,0:0|0:0,0:0:0:0:
152,132,99927,1,2,0:0:0:0:
335,199,100121,6,0,L|429:193,1,80
215,255,100511,2,0,L|141:314,1,80,2|0,0:0|0:0,0:0:0:0:
287,135,100901,2,0,L|311:43,1,80,12|0,0:0|0:0,0:0:0:0:
296,272,101290,2,0,L|330:360,1,80,8|8,0:0|0:0,0:0:0:0:
216,176,101680,6,0,L|81:89,1,160,6|0,0:0|0:0,0:0:0:0:
16,216,102264,1,0,0:0:0:0:
140,288,102459,2,0,B|207:331|207:331|292:328,1,160,8|0,0:0|0:0,0:0:0:0:
432,316,103043,1,2,0:0:0:0:
348,200,103238,6,0,P|324:128|372:64,2,160,0|2|8,0:0|0:0|0:0,0:0:0:0:
348,200,104407,1,0,0:0:0:0:
480,144,104602,1,0,0:0:0:0:
256,56,104797,6,0,L|96:76,1,160,2|0,0:0|0:0,0:0:0:0:
40,208,105381,1,0,0:0:0:0:
184,196,105576,2,0,P|152:312|76:336,1,160,8|0,0:0|0:0,0:0:0:0:
40,208,106160,1,2,0:0:0:0:
140,104,106355,6,0,L|248:72,1,80
356,208,106745,2,0,L|248:240,1,80,2|0,0:0|0:0,0:0:0:0:
72,256,107134,2,0,L|148:233,1,80,8|0,0:0|0:0,0:0:0:0:
288,360,107524,2,0,L|211:382,1,80
279,230,107914,6,0,B|325:216|325:216|383:225|383:225|433:207,1,160,2|0,0:0|0:0,0:0:0:0:
324,300,108498,1,0,0:0:0:0:
496,268,108693,2,0,P|520:196|476:132,1,160,8|0,0:0|0:0,0:0:0:0:
332,104,109277,1,2,0:0:0:0:
212,180,109472,6,0,P|100:200|16:156,2,160,0|2|8,0:0|0:0|0:0,0:0:0:0:
212,180,110641,1,0,0:0:0:0:
132,60,110836,1,0,0:0:0:0:
60,184,111030,6,0,B|36:260|36:260|60:336,1,160,2|0,0:0|0:0,0:0:0:0:
184,260,111615,1,0,0:0:0:0:
308,336,111810,2,0,B|332:260|332:260|308:184,1,160,8|0,0:0|0:0,0:0:0:0:
268,44,112394,1,2,0:0:0:0:
132,92,112589,6,0,L|36:84,1,80
192,176,112978,2,0,L|96:184,1,80,2|0,0:0|0:0,0:0:0:0:
272,252,113368,2,0,L|179:277,1,80,8|0,0:0|0:0,0:0:0:0:
357,310,113757,2,0,L|269:350,1,80
464,376,114147,6,0,P|484:312|448:224,1,160,6|0,0:0|0:0,0:0:0:0:
308,204,114732,1,0,0:0:0:0:
168,172,114927,2,0,P|136:100|155:24,2,160,8|0|0,0:0|0:0|0:0,0:0:0:0:
168,172,116095,5,2,0:0:0:0:
264,64,116290,1,0,0:0:0:0:
308,204,116485,2,0,B|384:232|384:232|460:204,1,160,8|0,0:0|0:0,0:0:0:0:
184,300,117264,6,0,B|108:272|108:272|32:300,1,160,2|2,0:0|0:0,0:0:0:0:
164,368,117849,1,0,0:0:0:0:
204,228,118043,2,0,L|244:72,1,160,8|0,0:0|0:0,0:0:0:0:
108,20,118628,1,2,0:0:0:0:
36,144,118823,6,0,L|68:244,1,80
267,149,119212,2,0,L|243:73,1,80,6|0,0:0|0:0,0:0:0:0:
140,112,119602,2,0,L|172:212,1,80,10|8,0:0|0:0,0:0:0:0:
371,117,119991,2,0,L|346:40,1,80,4|0,0:0|0:0,0:0:0:0:
169,22,120381,6,0,B|266:148,1,160,14|2,0:0|0:0,0:0:0:0:
388,296,120965,1,0,0:0:0:0:
394,208,121160,2,0,L|235:228,1,160,8|2,0:0|0:0,0:0:0:0:
48,264,121745,1,0,0:0:0:0:
120,310,121940,6,0,L|180:162,1,160,8|2,0:0|0:0,0:0:0:0:
256,16,122524,1,0,0:0:0:0:
256,16,122719,2,0,L|266:94,1,80,8|8,0:0|0:0,0:0:0:0:
472,160,123108,2,0,L|461:80,1,80,2|0,0:0|0:0,0:0:0:0:
364,252,123498,6,0,P|288:272|208:236,1,160,8|2,0:0|0:0,0:0:0:0:
472,160,124082,1,0,0:0:0:0:
368,57,124277,2,0,P|296:28|220:48,1,160,8|2,0:0|0:0,0:0:0:0:
472,160,124862,1,0,0:0:0:0:
364,252,125056,6,0,P|325:268|288:272,1,80,8|0,0:0|0:0,0:0:0:0:
168,352,125446,2,0,P|173:310|188:276,1,80,2|0,0:0|0:0,0:0:0:0:
180,132,125836,2,0,P|213:157|235:187,1,80,12|0,0:0|0:0,0:0:0:0:
364,252,126225,2,0,P|325:268|288:272,1,80,10|8,0:0|0:0,0:0:0:0:
456,304,126615,6,0,P|472:208|414:152,1,160,12|2,0:0|0:0,0:0:0:0:
292,160,127199,1,0,0:0:0:0:
156,204,127394,2,0,P|140:300|198:356,1,160,8|2,0:0|0:0,0:0:0:0:
292,160,127978,1,0,0:0:0:0:
188,60,128173,6,0,L|92:56,1,80,8|0,0:0|0:0,0:0:0:0:
104,200,128563,2,0,L|100:296,1,80,2|0,0:0|0:0,0:0:0:0:
244,280,128952,2,0,L|340:284,1,80,8|8,0:0|0:0,0:0:0:0:
327,140,129342,2,0,L|331:44,1,80,2|0,0:0|0:0,0:0:0:0:
188,60,129732,6,0,L|28:53,1,160,8|2,0:0|0:0,0:0:0:0:
108,172,130316,1,0,0:0:0:0:
184,292,130511,2,0,L|343:298,1,160,8|2,0:0|0:0,0:0:0:0:
488,304,131095,1,0,0:0:0:0:
420,176,131290,6,0,P|413:137|424:80,1,80,8|0,0:0|0:0,0:0:0:0:
320,184,131680,2,0,P|295:153|275:98,1,80,2|0,0:0|0:0,0:0:0:0:
244,248,132069,2,0,P|207:233|162:196,1,80,8|8,0:0|0:0,0:0:0:0:
224,348,132459,2,0,P|185:354|128:343,1,80,2|0,0:0|0:0,0:0:0:0:
174,209,132849,6,0,B|180:160|180:160|153:107|153:107|160:52,1,160,12|2,0:0|0:0,0:0:0:0:
300,24,133433,1,0,0:0:0:0:
276,168,133628,2,0,B|270:217|270:217|297:270|297:270|290:325,1,160,8|2,0:0|0:0,0:0:0:0:
150,353,134212,1,0,0:0:0:0:
100,220,134407,6,0,B|84:173|84:173|101:115|101:115|85:67,1,160,8|2,0:0|0:0,0:0:0:0:
228,36,134991,1,0,0:0:0:0:
372,60,135186,2,0,B|356:106|356:106|373:164|373:164|357:212,1,160,8|2,0:0|0:0,0:0:0:0:
97,289,135965,5,8,0:0:0:0:
326,20,136355,1,2,0:0:0:0:
299,371,136745,1,12,0:0:0:0:
113,70,137134,1,2,0:0:0:0:
440,206,137524,1,12,0:0:0:0:
256,192,137719,12,0,143368,0:0:0:0:
