osu file format v14

[General]
AudioFilename: audio.mp3
AudioLeadIn: 0
PreviewTime: 57069
Countdown: 0
SampleSet: Soft
StackLeniency: 0.7
Mode: 0
LetterboxInBreaks: 0
EpilepsyWarning: 1
WidescreenStoryboard: 1

[Editor]
DistanceSpacing: 1.6
BeatDivisor: 4
GridSize: 4
TimelineZoom: 1

[Metadata]
Title:Happy End
TitleUnicode:ハッピーエンド
Artist:back number
ArtistUnicode:back number
Creator:bossandy
Version:Hard
Source:ぼくは明日、昨日のきみとデートする
Tags:バックナンバー Tomorrow I Will Date With Yesterday's You Boku ha Asu Kinou no Kimi to date suru こまつ なな 福士 蒼汰 小松 菜奈 ふくし そうた boss
BeatmapID:1436726
BeatmapSetID:679053

[Difficulty]
HPDrainRate:5
CircleSize:4
OverallDifficulty:5
ApproachRate:7
SliderMultiplier:2.5
SliderTickRate:1

[Events]
//Background and Video events
0,0,"BG.jpg",0,0
Video,-3050,"video.avi"
//Break Periods
//Storyboard Layer 0 (Background)
//Storyboard Layer 1 (Fail)
//Storyboard Layer 2 (Pass)
//Storyboard Layer 3 (Foreground)
Sprite,Foreground,Centre,"SB\ring.png",320,240 M,0,382,771,148,388 F,0,382,771,1,0 S,0,382,771,0.5,1.5 C,0,382,771,255,255,255 P,0,382,771,A
Sprite,Foreground,Centre,"SB\ring.png",320,240 M,0,1161,1550,212,268 F,0,1161,1550,1,0 S,0,1161,1550,0.5,1.5 C,0,1161,1550,255,255,255 P,0,1161,1550,A
Sprite,Foreground,Centre,"SB\ring.png",320,240 M,0,1940,2329,128,132 F,0,1940,2329,1,0 S,0,1940,2329,0.5,1.5 C,0,1940,2329,255,255,255 P,0,1940,2329,A
Sprite,Foreground,Centre,"SB\ring.png",320,240 M,0,58043,58433,292,108 F,0,58043,58433,1,0 S,0,58043,58433,0.5,1.5 C,0,58043,58433,255,255,255 P,0,58043,58433,A
Sprite,Foreground,Centre,"SB\ring.png",320,240 M,0,70511,70901,216,396 F,0,70511,70901,1,0 S,0,70511,70901,0.5,1.5 C,0,70511,70901,255,255,255 P,0,70511,70901,A
Sprite,Foreground,Centre,"SB\ring.png",320,240 M,0,76745,77134,244,76 F,0,76745,77134,1,0 S,0,76745,77134,0.5,1.5 C,0,76745,77134,255,255,255 P,0,76745,77134,A
Sprite,Foreground,Centre,"SB\ring.png",320,240 M,0,79862,80251,160,412 F,0,79862,80251,1,0 S,0,79862,80251,0.5,1.5 C,0,79862,80251,255,255,255 P,0,79862,80251,A
Sprite,Foreground,Centre,"SB\ring.png",320,240 M,0,81615,82004,188,124 F,0,81615,82004,1,0 S,0,81615,82004,0.5,1.5 C,0,81615,82004,255,255,255 P,0,81615,82004,A
Sprite,Foreground,Centre,"SB\ring.png",320,240 M,0,81712,82102,158,116 F,0,81712,82102,1,0 S,0,81712,82102,0.5,1.5 C,0,81712,82102,255,255,255 P,0,81712,82102,A
Sprite,Foreground,Centre,"SB\ring.png",320,240 M,0,81810,82199,188,124 F,0,81810,82199,1,0 S,0,81810,82199,0.5,1.5 C,0,81810,82199,255,255,255 P,0,81810,82199,A
Sprite,Foreground,Centre,"SB\ring.png",320,240 M,0,82004,82394,252,184 F,0,82004,82394,1,0 S,0,82004,82394,0.5,1.5 C,0,82004,82394,255,255,255 P,0,82004,82394,A
Sprite,Foreground,Centre,"SB\ring.png",320,240 M,0,82199,82589,332,144 F,0,82199,82589,1,0 S,0,82199,82589,0.5,1.5 C,0,82199,82589,255,255,255 P,0,82199,82589,A
Sprite,Foreground,Centre,"SB\ring.png",320,240 M,0,82589,82978,396,280 F,0,82589,82978,1,0 S,0,82589,82978,0.5,1.5 C,0,82589,82978,255,255,255 P,0,82589,82978,A
Sprite,Foreground,Centre,"SB\ring.png",320,240 M,0,82978,83368,516,108 F,0,82978,83368,1,0 S,0,82978,83368,0.5,1.5 C,0,82978,83368,255,255,255 P,0,82978,83368,A
Sprite,Foreground,Centre,"SB\ring.png",320,240 M,0,95446,95836,204,296 F,0,95446,95836,1,0 S,0,95446,95836,0.5,1.5 C,0,95446,95836,255,255,255 P,0,95446,95836,A
Sprite,Foreground,Centre,"SB\highlight.png",320,240 M,0,58043,58140,292,116,262,105 C,0,58043,59601,255,255,157 F,0,58043,101484,0.8 S,0,58043,101484,0.2 R,0,58043,101484,0,157 P,0,58043,101484,A M,0,58140,58237,262,105,231,104 M,0,58237,58335,231,104,201,112 M,0,58335,58432,201,112,175,129 M,0,58432,58628,175,129,120,196 M,0,58628,58823,120,196,268,280 M,0,58823,58920,268,280,297,289 M,0,58920,59017,297,289,328,290 M,0,59017,59115,328,290,358,282 M,0,59115,59212,358,282,385,266 M,0,59212,59407,385,266,380,180 M,0,59407,59602,380,180,516,152 C,0,59601,61159,147,196,255 M,0,59602,59699,516,152,539,172 M,0,59699,59796,539,172,555,199 M,0,59796,59894,555,199,564,229 M,0,59894,59991,564,229,565,260 M,0,59991,60089,565,260,557,290 M,0,60089,60186,557,290,542,317 M,0,60186,60381,542,317,488,388 M,0,60381,60478,488,388,467,364 M,0,60478,60575,467,364,456,335 M,0,60575,60673,456,335,456,304 M,0,60673,60770,456,304,466,274 M,0,60770,61160,466,274,292,244 C,0,61159,62717,192,192,192 M,0,61160,61257,292,244,263,257 M,0,61257,61354,263,257,235,270 M,0,61354,61452,235,270,204,268 M,0,61452,61549,204,268,173,264 M,0,61549,61745,173,264,88,252 M,0,61745,61939,88,252,124,404 M,0,61939,62036,124,404,152,390 M,0,62036,62133,152,390,180,377 M,0,62133,62231,180,377,211,379 M,0,62231,62328,211,379,242,383 M,0,62328,62524,242,383,325,424 M,0,62524,62719,325,424,400,372 C,0,62717,64275,255,162,162 M,0,62719,62816,400,372,412,343 M,0,62816,62913,412,343,412,312 M,0,62913,63011,412,312,401,283 M,0,63011,63108,401,283,379,262 M,0,63108,63303,379,262,296,232 M,0,63303,63498,296,232,324,148 M,0,63498,63693,324,148,408,176 M,0,63693,63888,408,176,492,148 M,0,63888,63985,492,148,518,132 M,0,63985,64082,518,132,548,123 M,0,64082,64277,548,123,564,260 C,0,64275,65833,255,255,157 M,0,64277,64374,564,260,567,291 M,0,64374,64471,567,291,566,322 M,0,64471,64569,566,322,561,353 M,0,64569,64666,561,353,552,382 M,0,64666,64764,552,382,561,353 M,0,64764,64862,561,353,566,322 M,0,64862,64959,566,322,567,291 M,0,64959,65056,567,291,564,260 M,0,65056,65251,564,260,524,180 M,0,65251,65446,524,180,448,220 M,0,65446,65641,448,220,368,184 M,0,65641,65836,368,184,296,232 C,0,65833,67391,147,196,255 M,0,65836,65933,296,232,265,237 M,0,65933,66030,265,237,234,236 M,0,66030,66128,234,236,204,226 M,0,66128,66225,204,226,178,209 M,0,66225,66420,178,209,152,128 M,0,66420,66615,152,128,88,188 M,0,66615,66712,88,188,90,219 M,0,66712,66809,90,219,93,250 M,0,66809,66907,93,250,96,281 M,0,66907,67004,96,281,99,312 M,0,67004,67394,99,312,264,372 C,0,67391,68949,192,192,192 M,0,67394,67491,264,372,294,379 M,0,67491,67588,294,379,324,387 M,0,67588,67686,324,387,354,395 M,0,67686,67783,354,395,381,380 M,0,67783,67881,381,380,408,364 M,0,67881,67978,408,364,435,348 M,0,67978,68173,435,348,508,300 M,0,68173,68368,508,300,448,236 M,0,68368,68465,448,236,421,251 M,0,68465,68562,421,251,394,267 M,0,68562,68660,394,267,367,283 M,0,68660,68757,367,283,340,299 M,0,68757,68952,340,299,304,220 C,0,68949,70507,255,162,162 M,0,68952,69147,304,220,264,140 M,0,69147,69342,264,140,216,212 M,0,69342,69732,216,212,320,68 M,0,69732,70121,320,68,392,228 M,0,70121,70511,392,228,216,404 C,0,70507,72065,255,255,157 M,0,70511,70608,216,404,186,412 M,0,70608,70705,186,412,156,421 M,0,70705,70901,156,421,133,338 M,0,70901,70998,133,338,102,330 M,0,70998,71095,102,330,72,323 M,0,71095,71290,72,323,115,249 M,0,71290,71387,115,249,92,227 M,0,71387,71484,92,227,69,206 M,0,71484,71680,69,206,151,172 M,0,71680,71777,151,172,141,142 M,0,71777,71874,141,142,132,112 M,0,71874,71972,132,112,141,142 M,0,71972,72069,141,142,151,172 C,0,72065,73623,147,196,255 M,0,72069,72264,151,172,240,180 M,0,72264,72361,240,180,269,190 M,0,72361,72458,269,190,298,199 M,0,72458,72556,298,199,328,189 M,0,72556,72653,328,189,358,180 M,0,72653,72849,358,180,436,224 M,0,72849,72946,436,224,467,221 M,0,72946,73043,467,221,495,210 M,0,73043,73238,495,210,506,126 M,0,73238,73335,506,126,474,125 M,0,73335,73432,474,125,446,137 M,0,73432,73628,446,137,568,256 C,0,73623,75181,192,192,192 M,0,73628,73725,568,256,571,286 M,0,73725,73822,571,286,568,317 M,0,73822,73920,568,317,558,347 M,0,73920,74017,558,347,541,373 M,0,74017,74212,541,373,472,428 M,0,74212,74407,472,428,420,284 M,0,74407,74504,420,284,393,268 M,0,74504,74601,393,268,363,259 M,0,74601,74699,363,259,331,259 M,0,74699,74796,331,259,301,267 M,0,74796,74991,301,267,220,396 M,0,74991,75186,220,396 C,0,75181,76739,255,162,162 M,0,75186,75283,220,396,189,389 M,0,75283,75380,189,389,161,375 M,0,75380,75478,161,375,138,354 M,0,75478,75575,138,354,122,327 M,0,75575,75673,122,327,112,298 M,0,75673,75770,112,298,111,267 M,0,75770,75965,111,267,164,196 M,0,75965,76160,164,196,180,128 M,0,75965,76355,180,128,284,236 M,0,76355,76550,284,236,224,244 M,0,76550,76745,224,244,244,84 C,0,76739,78297,255,255,157 M,0,76745,76842,244,84,263,108 M,0,76842,76939,263,108,284,131 M,0,76939,77037,284,131,307,152 M,0,77037,77134,307,152,332,171 M,0,77134,77329,332,171,416,192 M,0,77329,77524,416,192,504,192 M,0,77524,77621,504,192,522,217 M,0,77621,77718,522,217,535,245 M,0,77718,77816,535,245,543,275 M,0,77816,77913,543,275,536,305 M,0,77913,78011,536,305,523,333 M,0,78011,78108,523,333,504,359 M,0,78108,78303,504,359,420,380 C,0,78297,79855,147,196,255 M,0,78303,78400,420,380,390,369 M,0,78400,78497,390,369,361,358 M,0,78497,78693,361,358,236,384 M,0,78693,78790,236,384,265,394 M,0,78790,78887,265,394,294,404 M,0,78887,79082,294,404,420,380 M,0,79082,79179,420,380,390,368 M,0,79179,79276,390,368,363,355 M,0,79276,79374,363,355,349,327 M,0,79374,79471,349,327,335,299 M,0,79471,79569,335,299,308,285 M,0,79569,79666,308,285,279,274 M,0,79666,79862,279,274,160,420 C,0,79855,81413,192,192,192 M,0,79862,79959,160,420,152,389 M,0,79959,80056,152,389,155,358 M,0,80056,80251,155,358,68,344 M,0,80251,80348,68,344,76,313 M,0,80348,80445,76,313,93,288 M,0,80445,80641,93,288,155,358 M,0,80641,80738,155,358,183,369 M,0,80738,80835,183,369,214,368 M,0,80835,80933,214,368,243,357 M,0,80933,81030,243,357,265,335 M,0,81030,81128,265,335,278,306 M,0,81128,81225,278,306,278,275 M,0,81225,81420,278,275,252,192 C,0,81413,82971,255,162,162 M,0,81420,81615,252,192,188,132 M,0,81615,81712,188,132,158,123 M,0,81712,81810,158,123,188,132 M,0,81810,82004,188,132,252,192 M,0,82004,82199,252,192,332,152 M,0,82199,82296,332,152,361,144 M,0,82296,82393,361,144,391,151 M,0,82393,82589,391,151,396,288 M,0,82589,82686,396,288,374,266 M,0,82686,82783,374,266,366,236 M,0,82783,82978,366,236,516,116 C,0,82971,84529,255,255,157 M,0,82978,83075,516,116,511,146 M,0,83075,83172,511,146,499,175 M,0,83172,83270,499,175,480,200 M,0,83270,83367,480,200,455,219 M,0,83367,83563,455,219,366,236 M,0,83563,83758,366,236,280,212 M,0,83758,83855,280,212,248,210 M,0,83855,83952,248,210,217,208 M,0,83952,84050,217,208,188,219 M,0,84050,84147,188,219,159,230 M,0,84147,84342,159,230,80,272 M,0,84342,84537,80,272,148,324 C,0,84529,86087,147,196,255 M,0,84537,84634,148,324,151,355 M,0,84634,84731,151,355,154,386 M,0,84731,84927,154,386,224,272 M,0,84927,85024,224,272,220,240 M,0,85024,85121,220,240,217,209 M,0,85121,85316,217,209,147,323 M,0,85316,85413,147,323,167,346 M,0,85413,85510,167,346,194,361 M,0,85510,85608,194,361,225,365 M,0,85608,85705,225,365,255,358 M,0,85705,85901,255,358,336,320 M,0,85901,86095,336,320,520,315 C,0,86087,87645,192,192,192 M,0,86095,86192,520,315,499,291 M,0,86192,86289,499,291,472,276 M,0,86289,86387,472,276,441,272 M,0,86387,86484,441,272,411,280 M,0,86484,86680,411,280,336,320 M,0,86680,86875,336,320,224,224 M,0,86875,86972,224,224,210,195 M,0,86972,87069,210,195,209,164 M,0,87069,87167,209,164,219,135 M,0,87167,87264,219,135,239,112 M,0,87264,87459,239,112,300,176 M,0,87459,87654,300,176,380,140 C,0,87645,89203,255,162,162 M,0,87654,87751,380,140,408,127 M,0,87751,87848,408,127,437,114 M,0,87848,88043,437,114,432,204 M,0,88043,88140,432,204,428,235 M,0,88140,88237,428,235,424,266 M,0,88237,88433,424,266,350,212 M,0,88433,88530,350,212,324,193 M,0,88530,88627,324,193,299,175 M,0,88627,88823,299,175,380,140 M,0,88823,88920,380,140,408,127 M,0,88920,89017,408,127,437,114 M,0,89017,89212,437,114,425,266 C,0,89203,90761,255,255,157 M,0,89212,89309,425,266,421,297 M,0,89309,89406,421,297,417,328 M,0,89406,89504,417,328,414,359 M,0,89504,89601,414,359,410,390 M,0,89601,89797,410,390,332,432 M,0,89797,89991,332,432,328,340 M,0,89991,90186,328,340,252,388 M,0,90186,90381,252,388,172,348 M,0,90381,90478,172,348,141,355 M,0,90478,90575,141,355,111,362 M,0,90575,90771,111,362,252,388 C,0,90761,92319,147,196,255 M,0,90771,90868,252,388,265,360 M,0,90868,90965,265,360,267,329 M,0,90965,91063,267,329,256,300 M,0,91063,91160,256,300,235,277 M,0,91160,91355,235,277,152,256 M,0,91355,91550,152,256,112,180 M,0,91550,91647,112,180,111,148 M,0,91647,91744,111,148,120,119 M,0,91744,91939,120,119,200,160 M,0,91939,92036,200,160,214,132 M,0,92036,92133,214,132,237,111 M,0,92133,92329,237,111,324,216 C,0,92319,93877,192,192,192 M,0,92329,92426,324,216,348,234 M,0,92426,92523,348,234,378,243 M,0,92523,92621,378,243,409,241 M,0,92621,92718,409,241,437,228 M,0,92718,92816,437,228,409,241 M,0,92816,92914,409,241,378,243 M,0,92914,93011,378,243,348,234 M,0,93011,93108,348,234,324,216 M,0,93108,93303,324,216,194,215 M,0,93303,93400,194,215,187,184 M,0,93400,93497,187,184,193,154 M,0,93497,93595,193,154,210,128 M,0,93595,93692,210,128,236,111 M,0,93692,93888,236,111,324,100 C,0,93877,95435,255,162,162 M,0,93888,94082,324,100,288,184 M,0,94082,94277,288,184,237,111 M,0,94277,94667,237,111 M,0,94667,94861,237,111,178,134 M,0,94861,95056,178,134,288,184 M,0,95056,95250,288,184,346,207 M,0,95250,95446,346,207,204,304 C,0,95435,96993,255,255,157 M,0,95446,95640,204,304,145,326 M,0,95640,95835,145,326,87,349 M,0,95835,96030,87,349,145,326 M,0,96030,96224,145,326,204,304 M,0,96224,96615,204,304,324,412 M,0,96615,96810,324,412,400,368 M,0,96810,96907,400,368,428,355 M,0,96907,97004,428,355,457,344 C,0,96993,98551,147,196,255 M,0,97004,97102,457,344,486,356 M,0,97102,97199,486,356,515,367 M,0,97199,97394,515,367,548,288 M,0,97394,97784,548,288,444,236 M,0,97784,97978,444,236,427,175 M,0,97978,98173,427,175,504,132 M,0,98173,98367,504,132,487,71 M,0,98367,98563,487,71,427,175 C,0,98551,100109,192,192,192 M,0,98563,98660,427,175,398,187 M,0,98660,98757,398,187,367,192 M,0,98757,98855,367,192,336,191 M,0,98855,98952,336,191,306,183 M,0,98952,99147,306,183,232,136 M,0,99147,99342,232,136,144,268 M,0,99342,99439,144,268,136,298 M,0,99439,99536,136,298,140,328 M,0,99536,99634,140,328,155,355 M,0,99634,99731,155,355,179,375 M,0,99731,99927,179,375,268,384 M,0,99927,100121,268,384,336,324 C,0,100109,101680,255,162,162 M,0,100121,100218,336,324,343,293 M,0,100218,100315,343,293,339,263 M,0,100315,100413,339,263,324,236 M,0,100413,100510,324,236,300,216 M,0,100510,100706,300,216,212,208 M,0,100706,100901,212,208,179,375 M,0,100901,100998,179,375,200,396 M,0,100998,101095,200,396,229,408 M,0,101095,101193,229,408,260,409 M,0,101193,101290,260,409,289,397 M,0,101290,101485,289,397,336,324 M,0,101485,101680,336,324,396,156
//Storyboard Sound Samples

[TimingPoints]
382,779.220779220779,4,2,1,60,1,0
382,-200,4,2,1,60,0,0
1940,779.220779220779,4,2,1,60,1,0
1940,-133.333333333333,4,2,1,60,0,0
58043,-100,4,2,2,80,0,1
81420,-100,4,2,2,80,0,0
82978,-100,4,2,2,80,0,1
101680,-100,4,2,2,60,0,0
125836,-100,4,2,2,40,0,0
126030,-100,4,2,2,60,0,0
135965,-100,4,2,2,50,0,0
136745,-100,4,2,2,40,0,0
137524,-100,4,2,2,30,0,0
137719,-100,4,2,1,10,0,0

[Colours]
Combo1 : 255,162,162
Combo2 : 255,255,157
Combo3 : 147,196,255
Combo4 : 192,192,192

[HitObjects]
80,328,382,6,0,L|64:264,1,62.5,2|0,0:0|0:0,0:0:0:0:
144,208,1161,2,0,L|128:136,1,62.5,2|0,0:0|0:0,0:0:0:0:
60,72,1940,6,0,P|132:128|240:112,1,187.500007152558,4|2,0:0|0:0,0:0:0:0:
312,68,3108,1,0,0:0:0:0:
340,168,3498,2,0,L|316:268,1,93.7500035762788,2|0,0:0|0:0,0:0:0:0:
420,244,4277,2,0,L|444:144,1,93.7500035762788,2|0,0:0|0:0,0:0:0:0:
464,320,5056,6,0,B|412:348|376:320|376:320|340:292|288:320,1,187.500007152558,2|2,0:0|0:0,0:0:0:0:
196,368,6225,1,0,0:0:0:0:
96,348,6615,2,0,P|71:303|79:246,1,93.7500035762788,2|0,0:0|0:0,0:0:0:0:
148,192,7394,1,2,0:0:0:0:
96,104,7784,1,0,0:0:0:0:
152,16,8173,6,0,P|224:88|312:96,1,187.500007152558,4|2,0:0|0:0,0:0:0:0:
404,60,9342,1,0,0:0:0:0:
496,108,9732,2,0,L|480:212,1,93.7500035762788,2|0,0:0|0:0,0:0:0:0:
396,256,10511,1,2,0:0:0:0:
464,336,10901,1,0,0:0:0:0:
304,280,11290,6,0,L|332:92,1,187.500007152558,2|2,0:0|0:0,0:0:0:0:
248,32,12459,1,0,0:0:0:0:
88,148,12849,2,0,L|69:266,1,93.7500035762788,2|0,0:0|0:0,0:0:0:0:
316,186,13628,2,0,L|331:94,1,93.7500035762788,2|0,0:0|0:0,0:0:0:0:
196,264,14407,6,0,P|280:328|364:320,1,187.500007152558,4|2,0:0|0:0,0:0:0:0:
424,244,15576,1,0,0:0:0:0:
452,144,15965,2,0,P|440:92|408:48,2,93.7500035762788,2|0|2,0:0|0:0|0:0,0:0:0:0:
424,244,17134,1,0,0:0:0:0:
256,192,17524,12,4,19082,0:0:0:0:
316,312,20446,5,0,0:0:0:0:
316,312,20641,2,0,L|416:332,1,93.7500035762788,2|0,0:0|0:0,0:0:0:0:
450,236,21420,2,0,L|358:220,1,93.7500035762788,2|0,0:0|0:0,0:0:0:0:
264,180,22199,6,0,L|272:80,1,93.7500035762788,2|0,0:0|0:0,0:0:0:0:
220,37,22784,1,0,0:0:0:0:
172,92,22978,2,0,P|144:96|116:96,2,46.8750017881394,2|0|0,0:0|0:0|0:0,0:0:0:0:
140,236,23758,5,2,0:0:0:0:
228,292,24147,2,0,P|280:298|344:272,1,93.7500035762788,0|2,0:0|0:0,0:0:0:0:
464,180,24927,1,0,0:0:0:0:
464,180,25121,1,0,0:0:0:0:
464,180,25316,6,0,P|411:173|348:200,1,93.7500035762788,2|0,0:0|0:0,0:0:0:0:
339,247,25901,1,0,0:0:0:0:
292,192,26095,2,0,L|264:68,1,93.7500035762788,2|0,0:0|0:0,0:0:0:0:
172,104,26875,6,0,P|108:96|56:56,2,93.7500035762788,6|0|2,0:0|0:0|0:0,0:0:0:0:
156,4,28043,1,0,0:0:0:0:
28,172,28433,6,0,P|91:201|161:204,1,140.625005364418,2|0,0:0|0:0,0:0:0:0:
214,156,29212,2,0,L|278:132,1,46.8750017881394,2|0,0:0|0:0,0:0:0:0:
307,192,29602,2,0,L|375:208,1,46.8750017881394
331,271,29991,6,0,P|371:296|417:305,2,93.7500035762788,2|0|2,0:0|0:0|0:0,0:0:0:0:
388,184,31160,1,0,0:0:0:0:
276,364,31550,6,0,L|176:348,1,93.7500035762788,2|0,0:0|0:0,0:0:0:0:
64,195,32329,2,0,L|156:209,1,93.7500035762788,2|0,0:0|0:0,0:0:0:0:
227,222,32914,1,0,0:0:0:0:
203,154,33108,6,0,P|255:154|290:184,1,93.7500035762788,6|0,0:0|0:0,0:0:0:0:
368,20,33888,2,0,P|342:65|301:81,1,93.7500035762788,2|0,0:0|0:0,0:0:0:0:
400,232,34667,6,0,P|374:186|380:140,1,93.7500035762788,2|0,0:0|0:0,0:0:0:0:
444,174,35251,1,0,0:0:0:0:
470,241,35446,2,0,P|462:269|442:289,2,46.8750017881394,2|0|0,0:0|0:0|0:0,0:0:0:0:
292,220,36225,5,2,0:0:0:0:
200,176,36615,2,0,L|136:168,1,46.8750017881394
88,199,37004,2,0,P|68:143|80:91,2,93.7500035762788,2|0|2,0:0|0:0|0:0,0:0:0:0:
4,256,38173,5,0,0:0:0:0:
4,256,38368,1,0,0:0:0:0:
4,256,38563,2,0,P|96:300|148:284,1,140.625005364418,2|0,0:0|0:0,0:0:0:0:
195,323,39342,6,0,L|235:299,1,46.8750017881394,6|0,0:0|0:0,0:0:0:0:
306,314,39732,2,0,L|322:254,1,46.8750017881394
385,242,40121,2,0,B|373:174|373:174|397:106,1,140.625005364418,2|0,0:0|0:0,0:0:0:0:
467,90,40901,6,0,P|423:41|340:62,1,140.625005364418,2|0,0:0|0:0,0:0:0:0:
320,112,41680,1,2,0:0:0:0:
260,73,41875,2,0,P|212:77|144:61,1,93.7500035762788
103,37,42459,6,0,L|86:129,1,93.7500035762788,2|0,0:0|0:0,0:0:0:0:
117,194,43043,1,0,0:0:0:0:
147,259,43238,2,0,L|130:351,2,93.7500035762788,2|0|2,0:0|0:0|0:0,0:0:0:0:
392,208,45381,6,0,L|408:256,1,46.8750017881394,0|6,0:0|0:0,0:0:0:0:
348,336,45965,1,0,0:0:0:0:
308,240,46355,2,0,P|304:188|352:128,1,93.7500035762788,2|0,0:0|0:0,0:0:0:0:
276,60,47134,6,0,L|172:56,1,93.7500035762788,2|0,0:0|0:0,0:0:0:0:
127,11,47719,1,0,0:0:0:0:
99,78,47914,2,0,L|111:150,1,46.8750017881394,2|0,0:0|0:0,0:0:0:0:
82,191,48303,2,0,L|94:263,1,46.8750017881394
148,280,48693,6,0,P|98:310|56:305,2,93.7500035762788,2|0|2,0:0|0:0|0:0,0:0:0:0:
183,218,49667,2,0,P|241:180|280:186,1,93.7500035762788
329,209,50251,5,2,0:0:0:0:
364,308,50641,1,0,0:0:0:0:
364,308,50836,1,0,0:0:0:0:
364,308,51030,2,0,P|412:284|428:228,1,93.7500035762788,2|0,0:0|0:0,0:0:0:0:
328,94,51810,6,0,L|336:188,1,93.7500035762788,6|0,0:0|0:0,0:0:0:0:
295,246,52394,1,0,0:0:0:0:
236,204,52589,2,0,P|203:206|176:212,1,46.8750017881394,2|0,0:0|0:0,0:0:0:0:
192,312,53173,1,0,0:0:0:0:
132,272,53368,6,0,P|104:236|120:168,1,93.7500035762788,2|0,0:0|0:0,0:0:0:0:
144,129,53952,1,0,0:0:0:0:
196,80,54147,2,0,L|192:24,1,46.8750017881394,2|0,0:0|0:0,0:0:0:0:
264,40,54537,2,0,L|268:96,1,46.8750017881394
324,132,54927,6,0,P|400:136|440:108,1,93.7500035762788,2|0,0:0|0:0,0:0:0:0:
471,86,55511,1,0,0:0:0:0:
484,156,55706,2,0,L|464:208,1,46.8750017881394,2|0,0:0|0:0,0:0:0:0:
494,266,56095,2,0,L|450:282,1,46.8750017881394,2|0,0:0|0:0,0:0:0:0:
384,310,56485,1,2,0:0:0:0:
224,48,58043,6,0,P|158:37|104:64,1,125,6|0,0:0|0:0,0:0:0:0:
52,128,58628,1,0,0:0:0:0:
200,212,58823,2,0,P|265:222|320:196,1,125,8|0,0:0|0:0,0:0:0:0:
312,112,59407,1,0,0:0:0:0:
448,84,59602,6,0,P|497:162|474:250,1,187.5
420,320,60381,2,0,P|392:280|400:204,1,125,8|0,0:0|0:0,0:0:0:0:
224,176,61160,6,0,B|164:204|164:204|104:196,1,125,2|0,0:0|0:0,0:0:0:0:
20,184,61745,1,0,0:0:0:0:
56,336,61939,2,0,B|116:308|116:308|176:316,1,125,8|0,0:0|0:0,0:0:0:0:
257,356,62524,1,0,0:0:0:0:
332,304,62719,6,0,P|344:240|288:184,1,125,0|2,0:0|0:0,0:0:0:0:
228,164,63303,1,0,0:0:0:0:
256,80,63498,1,8,0:0:0:0:
340,108,63693,1,0,0:0:0:0:
424,80,63888,2,0,P|453:63|480:56,1,62.5
496,192,64277,6,0,P|498:263|484:316,2,125,2|0|8,0:0|0:0|0:0,0:0:0:0:
456,112,65251,1,0,0:0:0:0:
380,152,65446,1,2,0:0:0:0:
300,116,65641,1,2,0:0:0:0:
228,164,65836,6,0,P|140:160|104:136,1,125,0|2,0:0|0:0,0:0:0:0:
84,60,66420,1,0,0:0:0:0:
20,120,66615,2,0,L|32:248,1,125,8|0,0:0|0:0,0:0:0:0:
196,304,67394,6,0,B|288:328|288:328|368:280,1,187.5,2|0,0:0|0:0,0:0:0:0:
440,232,68173,1,8,0:0:0:0:
380,168,68368,2,0,L|272:232,1,125,0|2,0:0|0:0,0:0:0:0:
236,152,68952,5,0,0:0:0:0:
196,72,69147,1,0,0:0:0:0:
148,144,69342,1,2,0:0:0:0:
252,0,69732,1,8,0:0:0:0:
324,160,70121,1,0,0:0:0:0:
148,336,70511,6,0,L|88:354,1,62.5,6|0,0:0|0:0,0:0:0:0:
65,270,70901,2,0,L|4:255,1,62.5
47,181,71290,2,0,L|1:138,1,62.5,8|0,0:0|0:0,0:0:0:0:
83,104,71680,2,0,L|64:44,2,62.5,0|2|0,0:0|0:0|0:0,0:0:0:0:
172,112,72264,6,0,B|228:132|228:132|292:112,1,125
368,156,72849,2,0,P|403:153|428:142,1,62.5,8|0,0:0|0:0,0:0:0:0:
438,58,73238,2,0,P|401:59|377:71,1,62.5
500,188,73628,6,0,P|488:284|472:308,1,125,2|0,0:0|0:0,0:0:0:0:
404,360,74212,1,0,0:0:0:0:
352,216,74407,2,0,P|296:192|232:200,1,125,8|0,0:0|0:0,0:0:0:0:
152,328,74991,1,2,0:0:0:0:
152,328,75186,6,0,P|56:264|44:196,1,187.5
96,128,75965,2,0,P|108:92|112:48,1,62.5,8|0,0:0|0:0,0:0:0:0:
216,168,76355,2,0,P|178:175|138:194,1,62.5
176,16,76745,6,0,P|216:63|264:103,1,125,6|0,0:0|0:0,0:0:0:0:
348,124,77329,1,0,0:0:0:0:
436,124,77524,2,0,B|468:160|476:208|476:208|468:256|436:292,1,187.5,8|2,0:0|0:0,0:0:0:0:
352,312,78303,6,0,L|291:290,1,62.5
168,316,78693,2,0,L|228:337,1,62.5,2|0,0:0|0:0,0:0:0:0:
352,312,79082,2,0,B|297:291|297:291|265:227|265:227|211:206,1,187.5,8|0,0:0|0:0,0:0:0:0:
92,352,79862,6,0,P|84:316|100:264,1,62.5,6|0,0:0|0:0,0:0:0:0:
0,276,80251,2,0,P|11:240|50:203,1,62.5
87,290,80641,2,0,P|171:292|211:208,1,187.5,8|2,0:0|0:0,0:0:0:0:
184,124,81420,5,4,0:0:0:0:
120,64,81615,2,0,P|105:57|88:56,2,31.25,8|8|10,0:0|0:0|0:0,0:0:0:0:
184,124,82004,1,8,0:0:0:0:
264,84,82199,2,0,P|296:76|324:84,1,62.5,8|0,0:0|0:0,0:0:0:0:
328,220,82589,2,0,P|305:196|298:168,1,62.5,8|8,0:0|0:0,0:0:0:0:
448,48,82978,6,0,P|429:111|388:151,1,125,6|0,0:0|0:0,0:0:0:0:
298,168,83563,1,0,0:0:0:0:
212,144,83758,2,0,B|148:140|148:140|88:164,1,125,8|0,0:0|0:0,0:0:0:0:
12,204,84342,1,2,0:0:0:0:
80,256,84537,6,0,L|88:336,1,62.5
156,204,84927,2,0,L|148:124,1,62.5,2|0,0:0|0:0,0:0:0:0:
79,255,85316,2,0,P|136:296|200:284,1,125,8|0,0:0|0:0,0:0:0:0:
268,252,85901,1,0,0:0:0:0:
452,247,86095,6,0,P|405:209|344:212,1,125,2|0,0:0|0:0,0:0:0:0:
268,252,86680,1,0,0:0:0:0:
156,156,86875,2,0,P|144:84|184:36,1,125,8|0,0:0|0:0,0:0:0:0:
232,108,87459,1,2,0:0:0:0:
312,72,87654,6,0,L|384:40,1,62.5
364,136,88043,2,0,L|355:214,1,62.5,2|0,0:0|0:0,0:0:0:0:
282,144,88433,2,0,L|218:97,1,62.5,8|0,0:0|0:0,0:0:0:0:
312,72,88823,2,0,L|384:40,1,62.5
357,198,89212,6,0,L|343:322,1,125,2|0,0:0|0:0,0:0:0:0:
264,364,89797,1,0,0:0:0:0:
260,272,89991,1,8,0:0:0:0:
184,320,90186,1,0,0:0:0:0:
104,280,90381,2,0,L|36:296,1,62.5,0|2,0:0|0:0,0:0:0:0:
184,320,90771,6,0,P|200:264|148:200,1,125,0|2,0:0|0:0,0:0:0:0:
84,188,91355,1,0,0:0:0:0:
44,112,91550,2,0,P|44:76|56:44,1,62.5,8|0,0:0|0:0,0:0:0:0:
132,92,91939,2,0,P|149:61|176:39,1,62.5
256,148,92329,6,0,P|312:176|384:148,2,125,2|0|8,0:0|0:0|0:0,0:0:0:0:
126,147,93303,2,0,P|125:86|169:43,1,125
256,32,93888,5,0,0:0:0:0:
220,116,94082,1,0,0:0:0:0:
169,43,94277,1,2,0:0:0:0:
169,43,94667,2,0,L|96:72,1,62.5,8|0,0:0|0:0,0:0:0:0:
220,116,95056,2,0,L|293:145,1,62.5
136,236,95446,6,0,L|19:282,2,125,6|0|8,0:0|0:0|0:0,0:0:0:0:
256,344,96615,1,0,0:0:0:0:
332,300,96810,6,0,B|388:276|388:276|448:300,1,125,2|0,0:0|0:0,0:0:0:0:
480,220,97394,2,0,L|460:148,1,62.5,2|0,0:0|0:0,0:0:0:0:
376,168,97784,2,0,L|356:96,1,62.5,8|0,0:0|0:0,0:0:0:0:
436,64,98173,2,0,L|416:-8,1,62.5
359,107,98563,6,0,P|291:125|208:100,1,125,2|0,0:0|0:0,0:0:0:0:
164,68,99147,1,0,0:0:0:0:
76,200,99342,2,0,P|84:284|160:316,1,125,8|0,0:0|0:0,0:0:0:0:
200,316,99927,1,2,0:0:0:0:
268,256,100121,6,0,P|260:172|184:140,1,125,0|2,0:0|0:0,0:0:0:0:
144,140,100706,1,0,0:0:0:0:
111,307,100901,2,8,P|187:342|252:291,1,125,12|8,0:0|0:0,0:0:0:0:
268,256,101485,1,8,0:0:0:0:
328,88,101680,6,8,P|382:61|440:81,1,125,6|0,0:0|0:0,0:0:0:0:
392,156,102264,1,0,0:0:0:0:
348,232,102459,2,0,L|386:350,2,125,8|0|0,0:0|0:0|0:0,0:0:0:0:
192,152,103628,5,2,0:0:0:0:
280,152,103823,1,0,0:0:0:0:
236,228,104017,2,0,P|160:237|114:190,1,125,8|0,0:0|0:0,0:0:0:0:
280,152,104797,6,0,P|325:211|307:275,1,125,2|0,0:0|0:0,0:0:0:0:
236,228,105381,1,0,0:0:0:0:
156,192,105576,2,0,B|96:176|96:176|36:192,1,125,8|0,0:0|0:0,0:0:0:0:
152,60,106355,6,0,B|212:76|212:76|272:60,1,125,0|2,0:0|0:0,0:0:0:0:
356,32,106939,1,0,0:0:0:0:
376,116,107134,2,0,B|392:176|392:176|376:236,2,125,8|0|2,0:0|0:0|0:0,0:0:0:0:
152,60,108303,5,0,0:0:0:0:
224,112,108498,1,0,0:0:0:0:
152,164,108693,2,0,P|92:149|58:98,1,125,8|0,0:0|0:0,0:0:0:0:
152,60,109277,1,2,0:0:0:0:
232,164,109472,6,0,B|231:202|231:202|199:236|199:236|199:276,1,125,0|2,0:0|0:0,0:0:0:0:
268,332,110056,1,0,0:0:0:0:
316,160,110251,2,0,B|315:121|315:121|283:87|283:87|283:47,1,125,8|0,0:0|0:0,0:0:0:0:
400,204,111030,6,0,P|324:256|280:248,1,125,2|0,0:0|0:0,0:0:0:0:
200,224,111615,1,0,0:0:0:0:
216,324,111810,1,8,0:0:0:0:
316,160,112199,2,0,P|320:124|316:96,1,62.5,0|2,0:0|0:0,0:0:0:0:
176,60,112589,6,0,L|100:72,1,62.5
16,84,112978,2,0,L|28:160,1,62.5,2|0,0:0|0:0,0:0:0:0:
44,244,113368,2,0,L|120:232,1,62.5,8|0,0:0|0:0,0:0:0:0:
204,220,113757,2,0,L|192:144,1,62.5
292,236,114147,6,0,P|356:256|408:232,2,125,6|0|8,0:0|0:0|0:0,0:0:0:0:
176,72,115316,1,0,0:0:0:0:
236,152,115511,1,2,0:0:0:0:
136,168,115706,6,0,P|88:128|72:60,1,125,0|2,0:0|0:0,0:0:0:0:
176,72,116290,1,0,0:0:0:0:
236,152,116485,2,0,P|225:213|174:261,1,125,8|0,0:0|0:0,0:0:0:0:
336,128,117264,6,0,L|464:104,1,125,2|0,0:0|0:0,0:0:0:0:
496,196,117849,1,0,0:0:0:0:
396,212,118043,2,0,B|356:218|356:218|328:256|328:256|290:264,1,125,8|0,0:0|0:0,0:0:0:0:
192,284,118628,1,2,0:0:0:0:
116,220,118823,6,0,L|128:156,1,62.5
71,22,119212,2,0,L|60:84,1,62.5,6|0,0:0|0:0,0:0:0:0:
212,212,119602,2,0,L|224:148,1,62.5,8|8,0:0|0:0,0:0:0:0:
167,14,119991,2,0,L|155:75,1,62.5,4|0,0:0|0:0,0:0:0:0:
292,264,120381,6,0,L|320:120,1,125,12|2,0:0|0:0,0:0:0:0:
336,44,120965,1,0,0:0:0:0:
244,84,121160,2,0,P|181:93|124:76,1,125,8|2,0:0|0:0,0:0:0:0:
44,12,121745,1,0,0:0:0:0:
24,108,121939,6,0,L|40:188,1,62.5,8|0,0:0|0:0,0:0:0:0:
136,172,122329,2,0,L|199:222,1,62.5,2|0,0:0|0:0,0:0:0:0:
272,160,122719,2,0,L|353:158,1,62.5,8|8,0:0|0:0,0:0:0:0:
364,64,123108,2,0,L|425:10,1,62.5,2|0,0:0|0:0,0:0:0:0:
452,160,123498,6,0,B|468:220|468:220|452:280,1,125,8|2,0:0|0:0,0:0:0:0:
424,376,124082,1,0,0:0:0:0:
364,216,124277,2,0,B|348:156|348:156|364:96,1,125,8|2,0:0|0:0,0:0:0:0:
388,0,124862,1,0,0:0:0:0:
296,36,125056,6,0,L|228:28,1,62.5,8|0,0:0|0:0,0:0:0:0:
256,128,125446,2,0,L|108:108,1,125,2|12,0:0|0:0,0:0:0:0:
32,100,126030,1,0,0:0:0:0:
72,192,126225,2,0,P|73:223|64:256,1,62.5,10|8,0:0|0:0,0:0:0:0:
184,212,126615,6,0,P|244:216|312:260,1,125,12|2,0:0|0:0,0:0:0:0:
356,328,127199,1,0,0:0:0:0:
416,248,127394,2,0,P|389:194|393:113,1,125,8|2,0:0|0:0,0:0:0:0:
436,40,127978,1,0,0:0:0:0:
336,28,128173,6,0,P|302:77|230:114,1,125,8|2,0:0|0:0,0:0:0:0:
148,120,128758,1,0,0:0:0:0:
184,212,128952,2,0,L|272:252,1,62.5,8|8,0:0|0:0,0:0:0:0:
446,153,129342,2,0,L|388:129,1,62.5,2|0,0:0|0:0,0:0:0:0:
288,328,129732,6,0,P|332:284|340:220,1,125,8|2,0:0|0:0,0:0:0:0:
292,136,130316,1,0,0:0:0:0:
227,58,130511,2,0,P|284:35|344:52,1,125,8|2,0:0|0:0,0:0:0:0:
292,136,131095,1,0,0:0:0:0:
192,152,131290,6,0,P|143:113|128:54,1,125,8|2,0:0|0:0,0:0:0:0:
292,136,131875,1,0,0:0:0:0:
276,236,132069,2,0,L|260:316,1,62.5,8|8,0:0|0:0,0:0:0:0:
408,176,132459,2,0,L|395:114,1,62.5,2|0,0:0|0:0,0:0:0:0:
492,208,132849,6,0,P|452:260|376:260,1,125,12|2,0:0|0:0,0:0:0:0:
304,228,133433,1,0,0:0:0:0:
224,168,133628,2,0,L|96:180,1,125,8|2,0:0|0:0,0:0:0:0:
304,228,134212,1,0,0:0:0:0:
320,128,134407,6,0,L|280:56,1,62.5,8|0,0:0|0:0,0:0:0:0:
400,192,134797,2,0,L|482:193,1,62.5,2|0,0:0|0:0,0:0:0:0:
304,228,135186,2,0,L|239:335,1,125,8|2,0:0|0:0,0:0:0:0:
188,140,135965,5,8,0:0:0:0:
383,227,136355,1,2,0:0:0:0:
276,41,136745,1,12,0:0:0:0:
253,254,137134,1,2,0:0:0:0:
397,95,137524,1,12,0:0:0:0:
256,192,137719,12,0,143368,0:0:0:0:
