osu file format v14

[General]
AudioFilename: audio.mp3
AudioLeadIn: 0
PreviewTime: 57069
Countdown: 0
SampleSet: Soft
StackLeniency: 0.7
Mode: 0
LetterboxInBreaks: 0
EpilepsyWarning: 1
WidescreenStoryboard: 1

[Editor]
DistanceSpacing: 1.4
BeatDivisor: 4
GridSize: 4
TimelineZoom: 1

[Metadata]
Title:Happy End
TitleUnicode:ハッピーエンド
Artist:back number
ArtistUnicode:back number
Creator:bossandy
Version:Easy
Source:ぼくは明日、昨日のきみとデートする
Tags:バックナンバー Tomorrow I Will Date With Yesterday's You Boku ha Asu Kinou no Kimi to date suru こまつ なな 福士 蒼汰 小松 菜奈 ふくし そうた boss
BeatmapID:1452120
BeatmapSetID:679053

[Difficulty]
HPDrainRate:3
CircleSize:3
OverallDifficulty:2
ApproachRate:4
SliderMultiplier:1.5
SliderTickRate:1

[Events]
//Background and Video events
0,0,"BG.jpg",0,0
Video,-3050,"video.avi"
//Break Periods
//Storyboard Layer 0 (Background)
//Storyboard Layer 1 (Fail)
//Storyboard Layer 2 (Pass)
//Storyboard Layer 3 (Foreground)
Sprite,Foreground,Centre,"SB\ring.png",320,240 M,0,382,771,516,256 F,0,382,771,1,0 S,0,382,771,0.5,1.5 C,0,382,771,255,255,255 P,0,382,771,A
Sprite,Foreground,Centre,"SB\ring.png",320,240 M,0,1161,1550,416,228 F,0,1161,1550,1,0 S,0,1161,1550,0.5,1.5 C,0,1161,1550,255,255,255 P,0,1161,1550,A
Sprite,Foreground,Centre,"SB\ring.png",320,240 M,0,1940,2329,416,332 F,0,1940,2329,1,0 S,0,1940,2329,0.5,1.5 C,0,1940,2329,255,255,255 P,0,1940,2329,A
Sprite,Foreground,Centre,"SB\ring.png",320,240 M,0,58043,58433,288,388 F,0,58043,58433,1,0 S,0,58043,58433,0.5,1.5 C,0,58043,58433,255,255,255 P,0,58043,58433,A
Sprite,Foreground,Centre,"SB\ring.png",320,240 M,0,70511,70901,528,92 F,0,70511,70901,1,0 S,0,70511,70901,0.5,1.5 C,0,70511,70901,255,255,255 P,0,70511,70901,A
Sprite,Foreground,Centre,"SB\ring.png",320,240 M,0,76745,77134,332,264 F,0,76745,77134,1,0 S,0,76745,77134,0.5,1.5 C,0,76745,77134,255,255,255 P,0,76745,77134,A
Sprite,Foreground,Centre,"SB\ring.png",320,240 M,0,82978,83368,336,244 F,0,82978,83368,1,0 S,0,82978,83368,0.5,1.5 C,0,82978,83368,255,255,255 P,0,82978,83368,A
Sprite,Foreground,Centre,"SB\ring.png",320,240 M,0,95446,95836,432,176 F,0,95446,95836,1,0 S,0,95446,95836,0.5,1.5 C,0,95446,95836,255,255,255 P,0,95446,95836,A
Sprite,Foreground,Centre,"SB\highlight.png",320,240 M,0,58043,58432,288,388,273,314 C,0,58043,61159,192,192,192 S,0,58043,79082,0.3 F,0,58043,101484,0.8 R,0,58043,101484,0,157 P,0,58043,101484,A M,0,58432,58822,273,314,259,240 M,0,58822,59212,259,240,236,140 M,0,59212,59602,236,140,336,168 M,0,59602,59796,336,168,372,175 M,0,59796,59991,372,175,409,172 M,0,59991,60186,409,172,444,158 M,0,60186,60381,444,158,473,135 M,0,60381,61160,473,135,568,320 C,0,61159,64275,255,162,162 M,0,61160,61354,568,320,536,300 M,0,61354,61549,536,300,500,290 M,0,61549,61744,500,290,462,291 M,0,61744,61939,462,291,427,303 M,0,61939,62329,427,303,356,380 M,0,62329,62719,356,380,296,292 M,0,62719,63108,296,292,223,310 M,0,63108,63498,223,310,204,208 M,0,63498,63887,204,208,276,189 M,0,63887,64277,276,189,376,220 C,0,64275,67391,255,255,157 M,0,64277,64471,376,220,381,183 M,0,64471,64666,381,183,373,146 M,0,64666,64861,373,146,352,116 M,0,64861,65056,352,116,321,95 M,0,65056,65446,321,95,276,189 M,0,65446,65836,276,189,304,292 M,0,65836,66030,304,292,311,328 M,0,66030,66225,311,328,304,364 M,0,66225,66420,304,364,301,400 M,0,66420,66615,301,400,309,436 M,0,66615,66810,309,436,301,400 M,0,66810,67005,301,400,304,364 M,0,67005,67200,304,364,311,328 M,0,67200,67394,311,328,304,292 C,0,67391,70507,147,196,255 M,0,67394,67784,304,292,200,308 M,0,67784,67978,200,308,163,302 M,0,67978,68173,163,302,134,279 M,0,68173,68563,134,279,104,180 M,0,68563,68952,104,180,204,212 M,0,68952,69146,204,212,240,217 M,0,69146,69341,240,217,277,209 M,0,69341,69536,277,209,307,187 M,0,69536,69731,307,187,326,155 M,0,69731,70511,326,155,528,92 C,0,70507,73623,192,192,192 M,0,70511,70901,528,92,556,192 M,0,70901,71290,556,192,456,164 M,0,71290,71484,456,164,452,201 M,0,71484,71679,452,201,461,237 M,0,71679,71874,461,237,483,267 M,0,71874,72069,483,267,515,287 M,0,72069,72459,515,287,568,376 M,0,72459,72849,568,376,464,372 M,0,72849,73043,464,372,426,375 M,0,73043,73238,426,375,390,385 M,0,73238,73628,390,385,288,400 C,0,73623,76739,255,162,162 M,0,73628,73822,288,400,251,406 M,0,73822,74017,251,406,214,411 M,0,74017,74212,214,411,176,405 M,0,74212,74407,176,405,139,399 M,0,74407,74602,139,399,176,405 M,0,74602,74797,176,405,214,411 M,0,74797,74992,214,411,251,406 M,0,74992,75186,251,406,288,400 M,0,75186,75965,288,400,200,208 M,0,75965,76355,200,208,236,308 M,0,76355,76745,236,308,332,264 C,0,76739,79855,255,255,157 M,0,76745,76939,332,264,368,256 M,0,76939,77134,368,256,406,255 M,0,77134,77329,406,255,443,261 M,0,77329,77524,443,261,478,273 M,0,77524,77914,478,273,520,176 M,0,77914,78303,520,176,492,76 M,0,78303,78497,492,76,455,82 M,0,78497,78692,455,82,417,83 M,0,78692,78887,417,83,380,78 M,0,78887,79082,380,78,345,66 S,0,79082,82978,0 C,0,79855,82971,147,196,255 M,0,82978,83172,336,244,302,260 C,0,82978,86094,147,196,255 S,0,82978,101680,0.3 M,0,83172,83367,302,260,265,266 M,0,83367,83562,265,266,228,262 M,0,83562,83757,228,262,193,248 M,0,83757,84147,193,248,128,168 M,0,84147,84537,128,168,88,264 M,0,84537,84731,88,264,94,300 M,0,84731,84926,94,300,101,337 M,0,84926,85121,101,337,107,374 M,0,85121,85316,107,374,114,411 M,0,85316,85706,114,411,204,356 M,0,85706,86095,204,356,268,440 C,0,86094,89210,192,192,192 M,0,86095,86289,268,440,302,425 M,0,86289,86484,302,425,331,401 M,0,86484,86875,331,401,428,440 M,0,86875,87069,428,440,437,403 M,0,87069,87264,437,403,438,366 M,0,87264,87654,438,366,540,336 M,0,87654,87848,540,336,518,305 M,0,87848,88043,518,305,490,280 M,0,88043,88433,490,280,520,180 M,0,88433,88627,520,180,482,174 M,0,88627,88822,482,174,446,181 M,0,88822,89212,446,181,364,248 C,0,89210,92326,255,162,162 M,0,89212,89406,364,248,327,253 M,0,89406,89601,327,253,290,247 M,0,89601,89796,290,247,258,228 M,0,89796,89991,258,228,233,200 M,0,89991,90381,233,200,328,152 M,0,90381,90771,328,152,432,164 M,0,90771,90965,432,164,455,192 M,0,90965,91160,455,192,468,227 M,0,91160,91355,468,227,468,265 M,0,91355,91550,468,265,456,300 M,0,91550,91939,456,300,364,248 M,0,91939,92329,364,248,328,152 C,0,92326,95442,255,255,157 M,0,92329,92523,328,152,340,117 M,0,92523,92718,340,117,364,88 M,0,92718,92913,364,88,396,69 M,0,92913,93108,396,69,433,62 M,0,93108,93498,433,62,432,164 M,0,93498,93888,432,164,364,248 M,0,93888,94082,364,248,327,253 M,0,94082,94277,327,253,290,246 M,0,94277,94472,290,246,257,227 M,0,94472,94667,257,227,233,200 M,0,94667,95056,233,200,328,152 M,0,95056,95446,328,152,432,176 C,0,95442,98558,147,196,255 M,0,95446,95640,432,176,468,183 M,0,95640,95835,468,183,504,176 M,0,95835,96030,504,176,540,173 M,0,96030,96225,540,173,576,181 M,0,96225,96420,576,181,540,173 M,0,96420,96615,540,173,504,176 M,0,96615,96810,504,176,468,183 M,0,96810,97004,468,183,432,176 M,0,97004,97394,432,176,328,152 M,0,97394,97784,328,152,240,92 M,0,97784,98173,240,92,232,196 M,0,98173,98563,232,196,156,268 C,0,98558,101674,192,192,192 M,0,98563,98757,156,268,171,301 M,0,98757,98952,171,301,199,326 M,0,98952,99147,199,326,235,337 M,0,99147,99342,235,337,272,334 M,0,99342,99732,272,334,324,244 M,0,99732,100121,324,244,375,334 M,0,100121,100315,375,334,412,337 M,0,100315,100510,412,337,447,326 M,0,100510,100705,447,326,475,301 M,0,100705,100900,475,301,491,268 M,0,100900,101095,491,268,475,301 M,0,101095,101290,475,301,447,326 M,0,101290,101485,447,326,412,337 M,0,101485,101679,412,337,375,334
//Storyboard Sound Samples

[TimingPoints]
382,779.220779220779,4,2,1,50,1,0
382,-200,4,2,1,50,0,0
1940,779.220779220779,4,2,1,50,1,0
1940,-133.333333333333,4,2,1,50,0,0
20641,-133.333333333333,4,2,1,60,0,0
58043,-100,4,2,2,80,0,1
81420,-100,4,2,2,80,0,0
82978,-100,4,2,2,80,0,1
101680,-100,4,2,2,60,0,0
125836,-100,4,2,2,40,0,0
126030,-100,4,2,2,60,0,0
135965,-100,4,2,2,50,0,0
136745,-100,4,2,2,40,0,0
137524,-100,4,2,2,30,0,0
137719,-100,4,2,1,10,0,0

[Colours]
Combo1 : 255,162,162
Combo2 : 255,255,157
Combo3 : 147,196,255
Combo4 : 192,192,192

[HitObjects]
448,196,382,5,2,0:0:0:0:
348,168,1161,1,2,0:0:0:0:
348,272,1940,6,0,L|220:304,1,112.500004291535,4|2,0:0|0:0,0:0:0:0:
100,224,3498,2,0,L|228:192,1,112.500004291535,2|2,0:0|0:0,0:0:0:0:
284,172,4667,1,0,0:0:0:0:
360,192,5056,6,0,P|415:182|448:119,1,112.500004291535,2|2,0:0|0:0,0:0:0:0:
348,12,6615,2,0,P|292:21|259:84,1,112.500004291535,2|2,0:0|0:0,0:0:0:0:
272,144,7784,1,0,0:0:0:0:
192,156,8173,6,0,B|156:164|156:164|124:152|124:152|84:160,1,112.500004291535,4|2,0:0|0:0,0:0:0:0:
36,224,9342,1,0,0:0:0:0:
56,300,9732,2,0,P|96:344|172:356,2,112.500004291535,2|2|2,0:0|0:0|0:0,0:0:0:0:
184,208,12069,5,2,0:0:0:0:
256,348,12849,1,2,0:0:0:0:
328,208,13628,1,2,0:0:0:0:
256,68,14407,6,0,P|201:52|136:60,1,112.500004291535,4|2,0:0|0:0,0:0:0:0:
76,92,15576,1,0,0:0:0:0:
136,144,15965,2,0,P|190:159|256:152,1,112.500004291535,2|2,0:0|0:0,0:0:0:0:
256,192,17524,12,4,19082,0:0:0:0:
72,344,20641,6,0,L|64:212,1,112.500004291535,2|2,0:0|0:0,0:0:0:0:
204,156,22199,2,0,L|196:24,1,112.500004291535,2|2,0:0|0:0,0:0:0:0:
356,32,23758,6,0,L|432:24,2,56.2500021457673,2|0|2,0:0|0:0|0:0,0:0:0:0:
276,36,24927,1,0,0:0:0:0:
320,104,25316,2,0,P|329:171|316:240,1,112.500004291535,2|2,0:0|0:0,0:0:0:0:
240,348,26875,6,0,L|172:324,1,56.2500021457673,6|0,0:0|0:0,0:0:0:0:
116,360,27654,2,0,L|96:292,1,56.2500021457673,2|0,0:0|0:0,0:0:0:0:
28,272,28433,2,0,L|72:152,1,112.500004291535,2|2,0:0|0:0,0:0:0:0:
120,20,29991,5,2,0:0:0:0:
276,12,30771,2,0,P|296:32|308:60,1,56.2500021457673,2|0,0:0|0:0,0:0:0:0:
292,136,31550,2,0,B|295:167|313:186|313:186|295:204|292:236,1,112.500004291535,2|2,0:0|0:0,0:0:0:0:
136,220,33108,6,0,B|80:236|80:236|16:208,2,112.500004291535,6|2|2,0:0|0:0|0:0,0:0:0:0:
256,320,35446,1,2,0:0:0:0:
308,260,35836,1,0,0:0:0:0:
340,331,36225,6,0,P|383:284|379:228,1,112.500004291535,2|2,0:0|0:0,0:0:0:0:
349,166,37394,1,0,0:0:0:0:
380,92,37784,2,0,L|380:32,2,56.2500021457673,2|0|2,0:0|0:0|0:0,0:0:0:0:
308,232,39342,6,0,P|244:236|188:208,1,112.500004291535,6|2,0:0|0:0,0:0:0:0:
176,144,40511,1,0,0:0:0:0:
156,68,40901,2,0,P|103:48|48:53,1,112.500004291535,2|2,0:0|0:0,0:0:0:0:
80,208,42459,5,2,0:0:0:0:
128,360,43238,1,2,0:0:0:0:
244,252,44017,1,2,0:0:0:0:
476,28,45576,6,0,L|464:88,1,56.2500021457673,6|0,0:0|0:0,0:0:0:0:
388,104,46355,2,0,L|376:164,1,56.2500021457673,2|0,0:0|0:0,0:0:0:0:
449,190,47134,2,0,P|411:231|356:235,1,112.500004291535,2|2,0:0|0:0,0:0:0:0:
283,205,48303,1,0,0:0:0:0:
208,232,48693,6,0,B|152:248|152:248|100:232,1,112.500004291535,2|2,0:0|0:0,0:0:0:0:
31,192,49862,1,0,0:0:0:0:
100,152,50251,2,0,B|156:136|156:136|208:152,1,112.500004291535,2|2,0:0|0:0,0:0:0:0:
284,180,51420,1,0,0:0:0:0:
360,156,51810,6,0,B|388:136|392:112|392:112|388:88|360:68,2,112.500004291535,6|2|2,0:0|0:0|0:0,0:0:0:0:
284,180,53758,1,0,0:0:0:0:
212,216,54147,2,0,P|192:244|180:284,1,56.2500021457673,2|0,0:0|0:0,0:0:0:0:
232,328,54927,6,0,P|180:348|128:324,2,112.500004291535,2|2|2,0:0|0:0|0:0,0:0:0:0:
220,328,58043,6,0,L|188:160,1,150,6|8,0:0|0:0,0:0:0:0:
168,80,59212,1,0,0:0:0:0:
268,108,59602,2,0,P|344:112|412:68,1,150,0|8,0:0|0:0,0:0:0:0:
500,260,61160,6,0,P|429:230|351:248,1,150,2|8,0:0|0:0,0:0:0:0:
288,320,62329,1,0,0:0:0:0:
228,232,62719,2,0,L|132:256,1,75,0|2,0:0|0:0,0:0:0:0:
136,148,63498,2,0,L|232:124,1,75,8|0,0:0|0:0,0:0:0:0:
308,160,64277,6,0,P|312:108|244:32,1,150,2|8,0:0|0:0,0:0:0:0:
208,129,65446,1,0,0:0:0:0:
236,232,65836,2,0,B|246:279|246:279|230:322|230:322|241:375,2,150,0|8|2,0:0|0:0|0:0,0:0:0:0:
132,248,67784,6,0,P|95:242|66:219,1,75,0|8,0:0|0:0,0:0:0:0:
36,120,68563,1,2,0:0:0:0:
136,152,68952,2,0,P|210:149|259:95,1,150,0|8,0:0|0:0,0:0:0:0:
460,32,70511,5,6,0:0:0:0:
488,132,70901,1,0,0:0:0:0:
388,104,71290,2,0,P|400:188|448:228,1,150,8|0,0:0|0:0,0:0:0:0:
500,316,72459,1,2,0:0:0:0:
396,312,72849,2,0,P|356:316|308:332,1,75,8|0,0:0|0:0,0:0:0:0:
220,340,73628,6,0,B|148:352|148:352|72:340,2,150,2|8|0,0:0|0:0|0:0,0:0:0:0:
132,148,75965,1,8,0:0:0:0:
168,248,76355,1,0,0:0:0:0:
264,204,76745,6,0,P|332:195|416:216,1,150,6|8,0:0|0:0,0:0:0:0:
452,116,77914,1,0,0:0:0:0:
424,16,78303,2,0,P|356:24|272:4,1,150,0|8,0:0|0:0,0:0:0:0:
256,192,79862,12,4,81420,0:0:0:0:
268,184,82978,6,0,P|190:207|108:176,1,150,6|8,0:0|0:0,0:0:0:0:
60,108,84147,1,0,0:0:0:0:
20,204,84537,2,0,L|48:360,1,150,0|8,0:0|0:0,0:0:0:0:
136,296,85706,1,0,0:0:0:0:
200,380,86095,6,0,P|236:364|268:336,1,75,2|0,0:0|0:0,0:0:0:0:
360,380,86875,2,0,P|370:342|370:299,1,75,8|0,0:0|0:0,0:0:0:0:
472,276,87654,2,0,P|449:243|416:216,1,75,0|2,0:0|0:0,0:0:0:0:
452,120,88433,2,0,P|412:115|371:124,1,75,8|0,0:0|0:0,0:0:0:0:
296,188,89212,6,0,P|224:188|156:120,1,150,2|8,0:0|0:0,0:0:0:0:
260,92,90381,1,0,0:0:0:0:
364,104,90771,2,0,P|400:166|375:259,1,150,0|8,0:0|0:0,0:0:0:0:
296,188,91939,1,0,0:0:0:0:
260,92,92329,6,0,P|296:29|388:4,1,150,2|8,0:0|0:0,0:0:0:0:
364,104,93498,1,2,0:0:0:0:
296,188,93888,2,0,P|224:187|155:120,1,150,0|8,0:0|0:0,0:0:0:0:
260,92,95056,1,0,0:0:0:0:
364,116,95446,6,0,B|411:126|411:126|454:110|454:110|507:121,2,150,6|8|0,0:0|0:0|0:0,0:0:0:0:
260,92,97394,1,2,0:0:0:0:
172,32,97784,1,8,0:0:0:0:
164,136,98173,1,0,0:0:0:0:
88,208,98563,6,0,P|156:276|220:268,1,150,2|8,0:0|0:0,0:0:0:0:
256,184,99732,1,0,0:0:0:0:
307,274,100121,2,0,P|380:266|424:208,2,150,0|12|6,0:0|0:0|0:0,0:0:0:0:
144,144,102459,5,8,0:0:0:0:
232,88,102849,1,0,0:0:0:0:
140,36,103238,2,8,P|48:84|32:128,1,150,0|8,0:0|0:0,0:0:0:0:
72,220,104407,1,0,0:0:0:0:
144,144,104797,6,0,B|184:144|212:116|212:116|240:144|280:144,2,150,2|8|0,0:0|0:0|0:0,0:0:0:0:
308,12,107134,1,8,0:0:0:0:
380,88,107524,6,0,P|396:176|340:244,1,150
264,252,108693,2,0,L|188:244,1,75,8|0,0:0|0:0,0:0:0:0:
96,192,109472,2,0,P|80:104|136:36,1,150,0|8,0:0|0:0,0:0:0:0:
180,132,110641,6,0,P|252:152|332:136,1,150
396,64,111810,1,8,0:0:0:0:
432,164,112199,1,0,0:0:0:0:
356,236,112589,2,0,P|372:312|480:364,2,150,0|8|4,0:0|0:0|0:0,0:0:0:0:
464,56,114927,5,8,0:0:0:0:
364,80,115316,2,0,B|317:90|317:90|274:74|274:74|221:85,1,150,0|2,0:0|0:0,0:0:0:0:
116,108,116485,1,8,0:0:0:0:
184,188,116875,1,0,0:0:0:0:
80,208,117264,6,0,P|12:168|28:56,2,150,0|8|0,0:0|0:0|0:0,0:0:0:0:
116,108,119212,1,6,0:0:0:0:
188,184,119602,1,8,0:0:0:0:
228,88,119991,1,4,0:0:0:0:
304,160,120381,6,0,L|384:140,1,75,12|2,0:0|0:0,0:0:0:0:
448,220,121160,2,0,L|368:240,1,75,8|2,0:0|0:0,0:0:0:0:
272,260,121939,2,0,B|225:270|225:270|182:254|182:254|129:265,1,150,8|8,0:0|0:0,0:0:0:0:
24,288,123108,1,2,0:0:0:0:
60,188,123498,6,0,P|48:112|0:44,2,150,8|8|8,0:0|0:0|0:0,0:0:0:0:
24,288,125446,1,2,0:0:0:0:
128,268,125836,2,0,L|220:276,1,75,12|10,0:0|0:0,0:0:0:0:
272,356,126615,6,0,P|308:276|280:200,1,150,12|8,0:0|0:0,0:0:0:0:
204,164,127784,1,2,0:0:0:0:
152,72,128173,2,0,P|158:35|185:10,1,75,8|2,0:0|0:0,0:0:0:0:
263,80,128952,2,0,P|294:59|331:60,1,75,8|2,0:0|0:0,0:0:0:0:
328,164,129732,6,0,P|400:177|451:231,2,150,8|8|8,0:0|0:0|0:0,0:0:0:0:
248,232,131680,1,2,0:0:0:0:
156,184,132069,2,0,P|144:151|148:108,1,75,8|2,0:0|0:0,0:0:0:0:
48,80,132849,6,0,P|42:154|66:225,1,150,12|8,0:0|0:0,0:0:0:0:
132,304,134017,1,2,0:0:0:0:
236,280,134407,2,0,L|320:260,1,75,8|2,0:0|0:0,0:0:0:0:
352,360,135186,2,0,L|436:340,1,75,8|2,0:0|0:0,0:0:0:0:
468,248,135965,5,8,0:0:0:0:
444,40,136745,1,12,0:0:0:0:
276,164,137524,1,12,0:0:0:0:
256,192,137719,12,0,143368,0:0:0:0:
