osu file format v14

[General]
AudioFilename: audio.mp3
AudioLeadIn: 0
PreviewTime: 6031
Countdown: 1
SampleSet: Normal
StackLeniency: 0.7
Mode: 0
LetterboxInBreaks: 0
WidescreenStoryboard: 0

[Editor]
DistanceSpacing: 0.6
BeatDivisor: 4
GridSize: 4
TimelineZoom: 2.6

[Metadata]
Title:b
TitleUnicode:b
Artist:b
ArtistUnicode:b
Creator:spookem
Version:b
Source:
Tags:
BeatmapID:1743706
BeatmapSetID:832286

[Difficulty]
HPDrainRate:5
CircleSize:4.3
OverallDifficulty:8
ApproachRate:9.3
SliderMultiplier:1.4
SliderTickRate:1

[Events]
//Background and Video events
0,0,"download (2).jpg",0,0
//Break Periods
//Storyboard Layer 0 (Background)
//Storyboard Layer 1 (Fail)
//Storyboard Layer 2 (Pass)
//Storyboard Layer 3 (Foreground)
//Storyboard Sound Samples

[TimingPoints]
889,342.857142857143,4,1,0,20,1,0
28558,-100,4,1,0,20,0,0

[HitObjects]
464,90,888,6,0,P|402:62|317:76,1,140
176,216,1574,2,0,P|238:188|323:202,1,140
259,356,2089,6,0,L|100:355,1,140
41,183,2603,1,0,0:0:0:0:
265,258,2774,2,0,B|384:290|356:209|479:242,1,210
405,48,3631,1,0,0:0:0:0:
423,327,3974,1,0,0:0:0:0:
330,119,4317,5,0,0:0:0:0:
339,259,4489,2,0,P|278:287|216:272,1,105
189,232,4831,2,0,L|197:390,1,140
269,144,5346,1,0,0:0:0:0:
89,161,5517,6,0,P|66:225|81:319,1,140
127,355,6031,1,0,0:0:0:0:
236,355,6203,1,0,0:0:0:0:
340,349,6374,6,0,P|379:309|333:348,1,210
456,272,7060,2,0,P|413:219|322:188,1,140
98,311,7574,2,0,L|260:331,1,140
412,353,8088,1,0,0:0:0:0:
488,192,8260,6,0,P|431:245|288:198,1,210
318,3,9117,2,0,B|414:61|445:141|439:216|353:209|337:156|357:77|439:-11,1,420
270,222,10488,6,0,P|231:187|131:180,1,140
468,97,11174,2,0,P|415:99|391:111,1,70
342,197,11517,1,0,0:0:0:0:
187,26,11688,2,0,P|128:25|40:74,1,140
18,170,12203,1,0,0:0:0:0:
18,170,12374,2,0,B|98:141|141:218|223:154,1,210
256,192,13231,12,0,14260,0:0:0:0:
422,238,14603,6,0,L|419:334,1,70
264,169,14946,6,0,L|266:238,1,70
461,85,15288,1,0,0:0:0:0:
348,264,15460,1,0,0:0:0:0:
184,37,15631,1,0,0:0:0:0:
155,202,15803,6,0,P|72:208|122:123,1,210
341,325,16489,2,0,B|366:272|362:224|322:136|285:152|285:152|297:182,1,210
471,51,17346,2,0,L|307:59,1,140
245,67,17860,1,0,0:0:0:0:
124,73,18031,1,0,0:0:0:0:
398,158,18202,1,0,0:0:0:0:
182,334,18374,1,0,0:0:0:0:
211,90,18546,2,0,L|220:246,1,140
435,17,19060,5,0,0:0:0:0:
328,28,19231,2,0,L|319:184,1,140
338,252,19746,2,0,P|305:215|303:252,1,105
319,270,20089,2,0,P|260:270|235:289,1,70
136,208,20431,2,0,P|77:208|52:227,1,70
141,368,20774,5,0,0:0:0:0:
307,351,20946,1,0,0:0:0:0:
474,327,21117,2,0,P|488:292|474:244,1,70
270,27,21460,1,0,0:0:0:0:
314,335,21631,1,0,0:0:0:0:
428,145,21803,1,0,0:0:0:0:
142,170,21974,2,0,P|101:211|191:197,1,210
426,44,22831,6,0,L|445:135,1,70
385,190,23174,1,0,0:0:0:0:
480,207,23346,2,0,P|456:273|397:319,1,140
317,291,23860,1,0,0:0:0:0:
161,95,24032,5,0,0:0:0:0:
161,95,24118,1,0,0:0:0:0:
161,95,24203,2,0,L|159:177,2,70
272,42,24717,6,0,L|273:95,2,35
357,55,25060,1,0,0:0:0:0:
423,99,25231,1,0,0:0:0:0:
442,180,25403,1,0,0:0:0:0:
412,259,25574,5,0,0:0:0:0:
414,258,25917,1,0,0:0:0:0:
414,258,26260,1,0,0:0:0:0:
291,234,26431,2,0,L|281:324,1,70
154,185,26774,2,0,L|164:275,1,70
53,119,27117,1,0,0:0:0:0:
53,119,27289,1,0,0:0:0:0:
53,119,27460,2,0,P|63:187|23:274,1,140
155,102,27974,1,0,0:0:0:0:
182,315,28146,1,0,0:0:0:0:
275,180,28317,2,0,P|316:161|422:208,1,140
499,312,29003,2,0,L|402:313,1,70
208,112,29517,2,0,P|270:93|354:139,1,140
250,280,30203,2,0,L|157:286,3,70
367,254,30889,2,0,P|333:215|229:213,1,140
146,127,31403,6,0,L|142:216,1,70
229,71,31746,2,0,L|225:160,1,70
311,24,32089,2,0,L|307:113,1,70
486,95,32431,1,0,0:0:0:0:
366,275,32603,1,0,0:0:0:0:
247,52,32774,1,0,0:0:0:0:
455,307,32946,6,0,P|414:355|312:354,1,140
326,206,33460,1,0,0:0:0:0:
326,206,33631,1,0,0:0:0:0:
326,206,33803,6,0,L|320:293,1,70
207,88,34146,2,0,L|209:166,1,70
342,230,34489,2,0,L|336:317,1,70
198,273,34831,1,0,0:0:0:0:
369,80,35089,1,0,0:0:0:0:
369,80,35175,1,0,0:0:0:0:
369,80,35260,2,0,L|368:154,2,70
