osu file format v14

[General]
AudioFilename: audio.mp3
AudioLeadIn: 0
PreviewTime: 72311
Countdown: 0
SampleSet: Soft
StackLeniency: 0.7
Mode: 0
LetterboxInBreaks: 0
WidescreenStoryboard: 1

[Editor]
Bookmarks: 87780,89092
DistanceSpacing: 0.2
BeatDivisor: 4
GridSize: 4
TimelineZoom: 1

[Metadata]
Title:Kokuhaku (TV Size)
TitleUnicode:告白 (TV Size)
Artist:azusa
ArtistUnicode:azusa
Creator:SupaV
Version:Promise
Source:アマガミSS+ plus
Tags:japanese anime pop j-pop jpop amagami amagami_SS+ ss+ ending ed season 2 mitsu 満梓 満 梓 -nanoripe- nanoripe
BeatmapID:3497497
BeatmapSetID:1711719

[Difficulty]
HPDrainRate:5
CircleSize:5
OverallDifficulty:6.5
ApproachRate:7.5
SliderMultiplier:1.92
SliderTickRate:1

[Events]
//Background and Video events
0,0,"W.jpg",0,0
Video,160,"ah yes.m4v"
//Break Periods
//Storyboard Layer 0 (Background)
//Storyboard Layer 1 (Fail)
//Storyboard Layer 2 (Pass)
//Storyboard Layer 3 (Foreground)
//Storyboard Layer 4 (Overlay)
//Storyboard Sound Samples

[TimingPoints]
933,750,4,2,1,80,1,0
933,-83.3333333333333,4,2,1,80,0,1
2433,-76.9230769230769,4,2,1,80,0,1
3933,-71.4285714285714,4,2,1,80,0,1
5433,-66.6666666666667,4,2,1,80,0,1
6933,-62.5,4,2,1,80,0,1
8433,-58.8235294117647,4,2,1,80,0,1
9933,-62.5,4,2,1,80,0,1
11433,-66.6666666666667,4,2,1,80,0,1
12933,-71.4285714285714,4,2,1,80,0,1
14433,-76.9230769230769,4,2,1,80,0,1
15933,-71.4285714285714,4,2,1,80,0,1
17433,-76.9230769230769,4,2,1,80,0,1
18183,-111.111111111111,4,2,1,80,0,0
18558,-111.111111111111,4,2,1,5,0,0
18933,-111.111111111111,4,2,1,55,0,0
42933,-83.3333333333333,4,2,1,65,0,0
43495,-83.3333333333333,4,2,1,5,0,0
43683,-100,4,2,1,65,0,0
48933,-83.3333333333333,4,2,1,65,0,0
49495,-83.3333333333333,4,2,1,5,0,0
49683,-100,4,2,1,65,0,0
54933,-83.3333333333333,4,2,1,70,0,0
55495,-83.3333333333333,4,2,1,5,0,0
55683,-100,4,2,1,70,0,0
57933,-83.3333333333333,4,2,1,70,0,0
60933,-66.6666666666667,4,2,1,80,0,1
63183,-76.9230769230769,4,2,1,80,0,1
63933,-66.6666666666667,4,2,1,80,0,1
66183,-62.5,4,2,1,80,0,1
66933,-66.6666666666667,4,2,1,80,0,1
68433,-83.3333333333333,4,2,1,80,0,1
72933,-66.6666666666667,4,2,1,80,0,1
74433,-76.9230769230769,4,2,1,80,0,1
75933,-66.6666666666667,4,2,1,80,0,1
78183,-62.5,4,2,1,80,0,1
78933,-66.6666666666667,4,2,1,80,0,1
80433,-66.6666666666667,4,2,1,80,0,1
81933,-62.5,4,2,1,80,0,1
82683,-83.3333333333333,4,2,1,80,0,1
84933,-76.9230769230769,4,2,1,75,0,0
85495,-100,4,2,1,75,0,0
87933,-166.666666666667,4,2,1,75,0,0
89245,-166.666666666667,4,2,1,5,0,0

[Colours]
Combo1 : 220,196,162
Combo2 : 216,206,204

[HitObjects]
36,265,933,6,0,P|14:326|42:386,1,115.199996484375,4|2,3:2|2:0,0:0:0:0:
161,277,1683,1,8,2:0:0:0:
161,277,2058,1,0,3:1:0:0:
0,159,2433,6,0,P|58:150|144:140,1,124.79999428711,4|2,3:2|2:0,0:0:0:0:
267,193,3183,1,8,2:0:0:0:
267,193,3558,1,2,2:0:0:0:
392,8,3933,6,0,P|424:54|402:131,1,134.399995898438,4|2,3:2|2:0,0:0:0:0:
220,0,4683,1,8,2:0:0:0:
283,175,5058,1,0,3:0:0:0:
512,110,5433,6,0,P|458:103|358:93,1,144.000005493164,4|2,3:2|2:0,0:0:0:0:
511,266,6183,1,8,2:0:0:0:
308,161,6558,1,2,2:0:0:0:
409,384,6933,6,0,P|440:326|396:245,1,153.6,4|2,3:2|2:0,0:0:0:0:
261,377,7683,1,8,2:0:0:0:
275,107,8058,1,0,3:0:0:0:
107,325,8433,6,0,P|170:317|283:306,1,163.200003112793,4|2,3:2|2:0,0:0:0:0:
58,134,9183,1,8,2:0:0:0:
313,214,9558,1,2,2:0:0:0:
190,20,9933,6,0,P|130:2|60:58,1,153.6,4|2,3:2|2:0,0:0:0:0:
255,183,10683,1,8,2:0:0:0:
33,127,11058,1,0,3:0:0:0:
295,16,11433,6,0,P|287:75|278:168,1,144.000005493164,4|2,3:2|2:0,0:0:0:0:
121,27,12183,1,8,2:0:0:0:
198,237,12558,1,2,2:0:0:0:
207,256,12745,1,2,2:0:0:0:
217,273,12933,6,0,P|277:255|354:240,1,134.399995898438,4|2,3:2|2:0,0:0:0:0:
437,143,13683,1,8,2:0:0:0:
437,143,14058,1,0,3:0:0:0:
355,351,14433,6,0,P|327:299|350:237,1,124.79999428711,0|2,3:0|2:0,0:0:0:0:
503,175,15183,1,8,2:0:0:0:
503,175,15558,1,2,2:0:0:0:
365,17,15933,6,0,P|310:11|225:2,1,134.399995898438,4|2,3:2|2:0,0:0:0:0:
380,154,16683,1,8,2:0:0:0:
165,191,17058,1,0,3:0:0:0:
333,364,17433,6,0,P|399:367|429:307,1,124.79999428711,0|2,3:0|2:0,0:0:0:0:
352,131,18183,1,8,2:0:0:0:
505,20,18933,5,0,3:0:0:0:
406,42,19308,1,2,2:0:0:0:
491,124,19683,2,0,P|484:166|476:232,1,86.3999973632813,8|0,2:0|3:0,0:0:0:0:
421,237,20245,1,2,2:0:0:0:
421,237,20433,2,0,P|427:280|434:333,1,86.3999973632813,0|2,3:0|2:0,0:0:0:0:
489,382,20995,1,2,2:0:0:0:
489,382,21183,1,8,2:0:0:0:
375,384,21558,1,2,2:0:0:0:
262,277,21933,6,0,P|217:265|174:296,1,86.3999973632813,0|2,3:0|2:0,0:0:0:0:
130,339,22495,1,2,2:0:0:0:
130,339,22683,1,8,2:0:0:0:
32,270,23058,1,0,3:0:0:0:
102,184,23433,2,0,P|146:179|205:173,1,86.3999973632813,0|2,3:0|2:0,0:0:0:0:
314,211,24183,1,8,2:0:0:0:
351,126,24558,1,2,2:0:0:0:
260,23,24933,5,0,3:0:0:0:
213,108,25308,1,2,2:0:0:0:
156,30,25683,2,0,P|114:25|54:16,1,86.3999973632813,8|0,2:0|3:0,0:0:0:0:
15,49,26245,1,2,2:0:0:0:
15,49,26433,2,0,P|1:95|25:145,1,86.3999973632813,0|2,3:0|2:0,0:0:0:0:
50,195,26995,1,2,2:0:0:0:
50,195,27183,1,8,2:0:0:0:
192,167,27558,1,2,2:0:0:0:
200,165,27745,1,2,2:0:0:0:
208,162,27933,6,0,P|213:115|221:53,1,86.3999973632813,0|2,3:0|2:0,0:0:0:0:
319,0,28683,1,8,2:0:0:0:
361,84,29058,1,0,3:0:0:0:
459,14,29433,2,0,P|452:56|446:107,1,86.3999973632813,2|2,3:2|2:0,0:0:0:0:
490,228,30183,1,8,2:0:0:0:
399,274,30558,1,2,2:0:0:0:
280,170,30933,5,0,3:0:0:0:
237,254,31308,1,2,2:0:0:0:
188,179,31683,2,0,P|194:133|202:81,1,86.3999973632813,8|2,2:0|2:0,0:0:0:0:
237,41,32245,1,2,2:0:0:0:
237,41,32433,2,0,P|198:29|148:51,1,86.3999973632813,0|0,3:0|3:0,0:0:0:0:
102,98,32995,1,2,2:0:0:0:
102,98,33183,1,8,2:0:0:0:
216,179,33558,1,2,2:0:0:0:
222,184,33745,1,2,2:0:0:0:
228,189,33933,6,0,P|233:231|240:290,1,86.3999973632813,0|2,3:0|2:0,0:0:0:0:
286,341,34495,1,2,2:0:0:0:
286,341,34683,1,8,2:0:0:0:
177,384,35058,1,2,2:0:0:0:
56,266,35433,2,0,P|100:261|150:255,1,86.3999973632813,2|0,3:2|3:0,0:0:0:0:
262,168,36183,1,8,2:0:0:0:
347,320,36558,1,2,2:0:0:0:
353,314,36745,1,2,2:0:0:0:
359,308,36933,6,0,P|365:255|376:190,1,86.3999973632813,0|2,3:0|2:0,0:0:0:0:
333,161,37495,1,2,2:0:0:0:
333,161,37683,1,8,2:0:0:0:
469,134,38058,1,2,2:0:0:0:
475,140,38245,1,2,2:0:0:0:
481,145,38433,2,0,P|474:192|465:258,1,86.3999973632813,0|0,3:0|3:0,0:0:0:0:
512,337,39183,1,8,2:0:0:0:
431,382,39558,1,2,2:0:0:0:
293,326,39933,6,0,P|246:318|202:355,1,86.3999973632813,0|2,3:0|2:0,0:0:0:0:
81,384,40683,2,0,P|88:328|96:272,1,86.3999973632813,8|2,2:0|2:0,0:0:0:0:
169,183,41433,1,0,3:0:0:0:
81,223,41808,1,0,3:0:0:0:
0,122,42183,1,8,2:0:0:0:
114,7,42558,1,2,2:0:0:0:
123,15,42745,1,2,2:0:0:0:
131,22,42933,6,0,B|208:11|208:11|217:18|217:18|312:6,1,172.799994726563,4|0,3:2|0:0,0:0:0:0:
376,32,43683,2,0,P|391:81|362:129,1,96,8|2,2:0|2:0,0:0:0:0:
233,178,44433,1,0,3:0:0:0:
327,75,44808,1,0,3:0:0:0:
407,247,45183,1,8,2:0:0:0:
304,144,45558,1,2,2:0:0:0:
301,153,45745,1,0,0:0:0:0:
297,162,45933,5,4,3:2:0:0:
236,283,46308,1,2,2:0:0:0:
407,365,46683,2,0,P|396:315|383:255,1,96,8|2,2:0|2:0,0:0:0:0:
348,214,47245,1,0,0:0:0:0:
348,214,47433,1,0,3:0:0:0:
231,142,47808,1,0,3:0:0:0:
145,293,48183,1,8,2:0:0:0:
248,252,48558,1,2,2:0:0:0:
34,196,48933,6,0,B|43:107|43:107|49:103|49:103|58:16,1,172.799994726563,4|0,3:2|0:0,0:0:0:0:
126,0,49683,2,0,P|157:45|137:105,1,96,8|2,2:0|2:0,0:0:0:0:
148,212,50433,1,0,3:0:0:0:
53,122,50808,1,0,3:0:0:0:
185,18,51183,1,8,2:0:0:0:
286,209,51558,1,2,2:0:0:0:
293,206,51745,1,2,2:0:0:0:
302,202,51933,5,4,3:2:0:0:
451,164,52308,1,2,2:0:0:0:
332,0,52683,2,0,P|344:63|355:112,1,96,8|2,2:0|2:0,0:0:0:0:
304,238,53433,1,0,3:0:0:0:
444,186,53808,1,0,3:0:0:0:
263,83,54183,1,8,2:0:0:0:
357,167,54558,1,2,2:0:0:0:
251,333,54933,6,0,B|173:347|173:347|162:342|162:342|67:361,1,172.799994726563,4|0,3:2|0:0,0:0:0:0:
20,313,55683,2,0,P|4:266|42:206,1,96,8|0,2:0|3:0,0:0:0:0:
110,120,56433,1,0,3:0:0:0:
233,204,56808,1,2,2:0:0:0:
293,40,57183,1,8,2:0:0:0:
181,151,57558,1,2,2:0:0:0:
176,159,57745,1,2,0:2:0:0:
169,167,57933,6,0,P|118:162|38:154,1,115.199996484375,4|0,3:2|0:0,0:0:0:0:
0,24,58683,1,12,2:2:0:0:
39,216,59058,1,2,2:0:0:0:
42,226,59245,1,0,3:0:0:0:
45,236,59433,1,12,2:2:0:0:
184,169,59808,1,0,3:0:0:0:
41,354,60183,5,10,2:0:0:0:
74,343,60370,1,2,2:0:0:0:
114,363,60558,1,2,2:0:0:0:
171,328,60745,1,2,2:0:0:0:
234,382,60933,6,0,P|243:319|255:224,1,144.000005493164,4|2,3:2|2:0,0:0:0:0:
240,154,61495,1,2,2:0:0:0:
240,154,61683,1,8,2:0:0:0:
426,143,62058,1,0,3:0:0:0:
298,17,62433,1,0,3:0:0:0:
181,196,62808,1,2,2:0:0:0:
192,214,62995,1,2,2:0:0:0:
203,228,63183,2,0,P|261:222|337:214,1,124.79999428711,10|2,2:0|2:0,0:0:0:0:
444,71,63933,6,0,P|494:111|479:193,1,144.000005493164,0|2,3:2|2:0,0:0:0:0:
414,241,64495,1,2,2:0:0:0:
414,241,64683,1,8,2:0:0:0:
391,213,64870,5,2,2:0:0:0:
348,225,65058,1,0,3:0:0:0:
310,171,65245,1,2,2:0:0:0:
239,192,65433,1,0,3:0:0:0:
416,348,65808,1,2,2:0:0:0:
405,366,65995,1,2,2:0:0:0:
390,384,66183,2,0,P|315:375|209:363,1,153.6,8|2,2:0|2:0,0:0:0:0:
136,225,66933,6,0,P|127:147|192:112,1,144.000005493164,4|2,3:2|2:0,0:0:0:0:
258,123,67495,1,2,2:0:0:0:
258,123,67683,1,8,2:0:0:0:
101,23,68058,1,4,3:2:0:0:
2,165,68433,2,0,P|8:213|18:290,1,115.199996484375,4|2,3:2|2:0,0:0:0:0:
0,372,68995,1,2,2:0:0:0:
0,372,69183,2,0,P|54:377|107:329,1,115.199996484375,8|2,2:0|2:0,0:0:0:0:
232,200,69933,5,4,3:2:0:0:
348,357,70308,1,2,2:0:0:0:
357,371,70495,1,2,0:2:0:0:
367,384,70683,1,8,2:0:0:0:
407,198,71058,1,0,3:0:0:0:
281,313,71433,1,0,3:0:0:0:
512,369,71808,1,2,2:0:0:0:
512,369,71995,1,2,2:0:0:0:
512,369,72183,1,10,2:2:0:0:
368,277,72558,1,2,2:0:0:0:
511,155,72933,6,0,P|503:81|494:10,1,144.000005493164,4|2,3:2|2:0,0:0:0:0:
410,0,73495,1,2,2:0:0:0:
410,0,73683,1,10,2:2:0:0:
329,125,74058,1,0,3:0:0:0:
196,3,74433,2,0,P|186:60|177:133,1,124.79999428711,0|2,3:0|2:0,0:0:0:0:
220,216,74995,1,2,2:0:0:0:
220,216,75183,2,0,P|160:229|103:193,1,124.79999428711,8|2,2:0|2:0,0:0:0:0:
1,42,75933,6,0,P|68:18|131:79,1,144.000005493164,4|2,3:2|2:0,0:0:0:0:
180,131,76495,1,2,2:0:0:0:
180,131,76683,1,8,2:0:0:0:
0,168,77058,1,4,3:2:0:0:
227,253,77433,1,4,3:2:0:0:
43,370,77808,1,2,2:0:0:0:
24,358,77995,1,2,2:0:0:0:
4,345,78183,2,0,P|19:254|33:182,1,153.6,8|2,2:0|2:0,0:0:0:0:
255,153,78933,6,0,P|265:222|281:311,1,144.000005493164,4|2,3:2|2:0,0:0:0:0:
221,358,79495,1,2,2:0:0:0:
221,358,79683,1,8,2:0:0:0:
421,350,80058,1,4,3:2:0:0:
433,367,80245,1,2,2:2:0:0:
446,384,80433,2,0,P|504:364|489:286,1,144.000005493164,4|2,3:2|2:0,0:0:0:0:
506,214,80995,1,2,2:0:0:0:
506,214,81183,1,8,2:0:0:0:
285,146,81558,1,6,2:2:0:0:
139,384,81933,6,0,P|69:370|78:286,1,153.6,4|2,3:2|2:0,0:0:0:0:
0,239,82495,1,2,2:0:0:0:
0,239,82683,1,8,2:0:0:0:
198,214,83058,1,0,3:0:0:0:
194,227,83245,1,2,2:0:0:0:
191,241,83433,1,0,3:0:0:0:
95,71,83808,5,2,2:0:0:0:
95,71,83995,2,0,P|65:64|37:57,1,57.5999982421876,2|8,2:0|2:0,0:0:0:0:
145,13,84370,2,0,P|174:6|204:-1,1,57.5999982421876,2|2,2:0|2:0,0:0:0:0:
287,31,84745,1,2,2:0:0:0:
352,0,84933,6,0,P|364:51|381:136,1,124.79999428711,4|2,3:2|2:0,0:0:0:0:
445,178,85495,1,2,2:0:0:0:
445,178,85683,1,8,2:0:0:0:
286,126,86058,1,0,3:0:0:0:
238,347,86433,5,0,3:0:0:0:
209,355,86621,1,2,2:0:0:0:
170,340,86808,1,2,2:0:0:0:
141,296,86996,1,2,2:0:0:0:
147,237,87183,5,8,2:0:0:0:
203,196,87371,1,2,2:0:0:0:
278,212,87558,1,0,3:0:0:0:
330,286,87746,1,2,2:0:0:0:
349,384,87933,6,0,B|405:411|439:349|433:343|427:336|464:274|528:307,1,201.599993847656,4|0,3:2|0:0,0:0:0:0:
