osu file format v14

[General]
AudioFilename: audio.mp3
AudioLeadIn: 0
PreviewTime: 72311
Countdown: 0
SampleSet: Soft
StackLeniency: 0.7
Mode: 0
LetterboxInBreaks: 0
WidescreenStoryboard: 1

[Editor]
Bookmarks: 87780,89092
DistanceSpacing: 1.4
BeatDivisor: 4
GridSize: 4
TimelineZoom: 1

[Metadata]
Title:Kokuhaku (TV Size)
TitleUnicode:告白 (TV Size)
Artist:azusa
ArtistUnicode:azusa
Creator:SupaV
Version:Hard
Source:アマガミSS+ plus
Tags:japanese anime pop j-pop jpop amagami amagami_SS+ ss+ ending ed season 2 mitsu 満梓 満 梓 -nanoripe- nanoripe
BeatmapID:3497498
BeatmapSetID:1711719

[Difficulty]
HPDrainRate:4
CircleSize:4.5
OverallDifficulty:5
ApproachRate:6
SliderMultiplier:1.58
SliderTickRate:1

[Events]
//Background and Video events
0,0,"W.jpg",0,0
Video,160,"ah yes.m4v"
//Break Periods
//Storyboard Layer 0 (Background)
//Storyboard Layer 1 (Fail)
//Storyboard Layer 2 (Pass)
//Storyboard Layer 3 (Foreground)
//Storyboard Layer 4 (Overlay)
//Storyboard Sound Samples

[TimingPoints]
933,750,4,2,1,80,1,0
933,-83.3333333333333,4,2,1,80,0,1
18183,-111.111111111111,4,2,1,80,0,0
18558,-111.111111111111,4,2,1,5,0,0
18933,-111.111111111111,4,2,1,55,0,0
42933,-100,4,2,1,65,0,0
54933,-100,4,2,1,70,0,0
60933,-83.3333333333333,4,2,1,80,0,1
84933,-100,4,2,1,75,0,0
87933,-166.666666666667,4,2,1,75,0,0
89245,-166.666666666667,4,2,1,5,0,0

[Colours]
Combo1 : 220,196,162
Combo2 : 216,206,204

[HitObjects]
14,366,933,6,0,L|136:350,1,94.7999971069337,4|2,3:2|2:0,0:0:0:0:
209,267,1683,2,0,L|87:251,1,94.7999971069337,8|0,2:0|3:1,0:0:0:0:
31,150,2433,6,0,P|18:95|55:57,1,94.7999971069337,4|2,3:2|2:0,0:0:0:0:
167,37,3183,2,0,P|180:92|143:130,1,94.7999971069337,8|2,2:0|2:0,0:0:0:0:
209,244,3933,6,0,P|258:235|316:226,1,94.7999971069337,4|2,3:2|2:0,0:0:0:0:
386,125,4683,1,8,2:0:0:0:
386,125,5058,1,0,3:0:0:0:
486,211,5433,6,0,P|513:258|498:299,1,94.7999971069337,4|2,3:2|2:0,0:0:0:0:
402,381,6183,1,8,2:0:0:0:
402,381,6558,1,2,2:0:0:0:
309,285,6933,6,0,P|317:229|327:171,1,94.7999971069337,4|2,3:2|2:0,0:0:0:0:
415,95,7683,1,8,2:0:0:0:
318,4,8058,1,0,3:0:0:0:
248,117,8433,6,0,P|204:127|163:89,1,94.7999971069337,4|2,3:2|2:0,0:0:0:0:
78,0,9183,1,8,2:0:0:0:
3,109,9558,1,2,2:0:0:0:
83,214,9933,6,0,P|135:205|187:198,1,94.7999971069337,4|2,3:2|2:0,0:0:0:0:
283,119,10683,1,8,2:0:0:0:
283,119,11058,1,0,3:0:0:0:
399,183,11433,6,0,P|430:220|422:279,1,94.7999971069337,4|2,3:2|2:0,0:0:0:0:
346,369,12183,1,8,2:0:0:0:
346,369,12558,1,2,2:0:0:0:
236,294,12933,6,0,P|188:287|135:278,1,94.7999971069337,4|2,3:2|2:0,0:0:0:0:
71,167,13683,2,0,P|119:160|172:151,1,94.7999971069337,8|0,2:0|3:0,0:0:0:0:
296,138,14433,6,0,P|325:105|312:46,1,94.7999971069337,0|2,3:0|2:0,0:0:0:0:
190,27,15183,2,0,P|161:60|174:119,1,94.7999971069337,8|2,2:0|2:0,0:0:0:0:
284,168,15933,6,0,P|293:218|305:289,1,94.7999971069337,4|2,3:2|2:0,0:0:0:0:
375,376,16683,1,8,2:0:0:0:
375,376,17058,1,0,3:0:0:0:
473,286,17433,6,0,P|448:255|391:253,1,94.7999971069337,0|2,3:0|2:0,0:0:0:0:
304,291,18183,1,8,2:0:0:0:
12,377,18933,6,0,L|1:280,1,71.0999978302003,0|2,3:0|2:0,0:0:0:0:
70,232,19683,2,0,L|80:135,1,71.0999978302003,8|0,2:0|3:0,0:0:0:0:
95,117,20245,1,2,2:0:0:0:
95,117,20433,2,0,P|136:99|177:116,1,71.0999978302003,0|2,3:0|2:0,0:0:0:0:
241,162,21183,1,8,2:0:0:0:
312,93,21558,1,2,2:0:0:0:
404,129,21933,6,0,P|396:171|387:218,1,71.0999978302003,0|2,3:0|2:0,0:0:0:0:
447,280,22683,1,8,2:0:0:0:
387,359,23058,1,0,3:0:0:0:
304,303,23433,2,0,P|231:312|149:322,1,142.199995660401,0|8,3:0|2:0,0:0:0:0:
66,145,24933,6,0,P|24:148|-4:184,1,71.0999978302003,0|2,3:0|2:0,0:0:0:0:
53,252,25683,2,0,P|97:241|145:234,1,71.0999978302003,8|0,2:0|3:0,0:0:0:0:
175,240,26245,1,2,2:0:0:0:
175,240,26433,2,0,P|188:276|166:329,1,71.0999978302003,0|2,3:0|2:0,0:0:0:0:
114,380,27183,1,8,2:0:0:0:
25,356,27558,1,2,2:0:0:0:
25,356,27745,1,2,2:0:0:0:
25,356,27933,6,0,P|18:311|11:260,1,71.0999978302003,0|2,3:0|2:0,0:0:0:0:
16,185,28683,2,0,P|47:168|98:177,1,71.0999978302003,8|0,2:0|3:0,0:0:0:0:
161,229,29433,2,0,P|171:159|183:76,1,142.199995660401,2|8,3:2|2:0,0:0:0:0:
366,15,30933,6,0,P|404:11|442:39,1,71.0999978302003,0|2,3:0|2:0,0:0:0:0:
505,93,31683,2,0,P|499:133|490:185,1,71.0999978302003,8|2,2:0|2:0,0:0:0:0:
470,208,32245,1,2,2:0:0:0:
470,208,32433,2,0,P|439:208|399:176,1,71.0999978302003,0|0,3:0|3:0,0:0:0:0:
338,113,33183,1,8,2:0:0:0:
291,203,33558,1,2,2:0:0:0:
291,203,33745,1,2,2:0:0:0:
291,203,33933,6,0,L|305:290,1,71.0999978302003,0|2,3:0|2:0,0:0:0:0:
247,356,34683,2,0,P|211:351|160:344,1,71.0999978302003,8|2,2:0|2:0,0:0:0:0:
83,382,35433,2,0,P|86:305|141:252,1,142.199995660401,2|8,3:2|2:0,0:0:0:0:
187,181,36558,1,2,2:0:0:0:
187,181,36745,1,2,2:0:0:0:
187,181,36933,6,0,P|178:140|167:92,1,71.0999978302003,0|2,3:0|2:0,0:0:0:0:
194,14,37683,2,0,P|230:10|265:40,1,71.0999978302003,8|2,2:0|2:0,0:0:0:0:
290,72,38245,1,2,2:0:0:0:
290,72,38433,1,0,3:0:0:0:
376,23,38808,1,0,3:0:0:0:
439,99,39183,2,0,P|432:140|423:186,1,71.0999978302003,8|2,2:0|2:0,0:0:0:0:
396,264,39933,6,0,P|357:271|318:244,1,71.0999978302003,0|2,3:0|2:0,0:0:0:0:
233,230,40683,2,0,P|239:272|249:317,1,71.0999978302003,8|2,2:0|2:0,0:0:0:0:
184,380,41433,1,0,3:0:0:0:
184,380,41808,1,0,3:0:0:0:
111,311,42183,1,8,2:0:0:0:
180,100,42933,6,0,P|208:71|259:73,1,79,4|2,3:2|2:0,0:0:0:0:
353,43,43683,2,0,P|345:80|339:131,1,79,8|2,2:0|2:0,0:0:0:0:
418,205,44433,1,0,3:0:0:0:
418,205,44808,1,0,3:0:0:0:
361,300,45183,2,0,P|320:302|284:255,1,79,8|2,2:0|2:0,0:0:0:0:
228,188,45933,6,0,L|211:84,1,79,4|2,3:2|2:0,0:0:0:0:
135,33,46683,2,0,P|98:20|52:40,1,79,8|2,2:0|2:0,0:0:0:0:
1,124,47433,1,0,3:0:0:0:
78,202,47808,1,0,3:0:0:0:
3,284,48183,1,8,2:0:0:0:
3,284,48558,1,2,2:0:0:0:
76,366,48933,6,0,P|126:378|165:350,1,79,4|0,3:2|0:0,0:0:0:0:
228,290,49683,2,0,P|235:333|244:385,1,79,8|2,2:0|2:0,0:0:0:0:
354,384,50433,1,0,3:0:0:0:
354,384,50808,1,0,3:0:0:0:
453,336,51183,1,8,2:0:0:0:
438,234,51558,1,2,2:0:0:0:
438,234,51745,1,2,2:0:0:0:
438,234,51933,6,0,P|402:213|347:222,1,79,4|2,3:2|2:0,0:0:0:0:
269,268,52683,2,0,L|281:171,1,79,8|2,2:0|2:0,0:0:0:0:
213,100,53433,1,0,3:0:0:0:
295,26,53808,1,0,3:0:0:0:
387,94,54183,1,8,2:0:0:0:
387,94,54558,1,2,2:0:0:0:
477,30,54933,6,0,P|499:80|491:123,1,79,4|2,3:2|2:0,0:0:0:0:
457,206,55683,1,8,2:0:0:0:
381,132,56058,1,0,3:0:0:0:
381,132,56433,2,0,P|336:127|273:119,1,79,0|2,3:0|2:0,0:0:0:0:
226,42,57183,1,8,2:0:0:0:
155,127,57558,1,2,2:0:0:0:
155,127,57745,1,2,0:2:0:0:
155,127,57933,6,0,L|133:22,1,79,4|0,3:2|0:0,0:0:0:0:
38,2,58683,1,12,2:2:0:0:
8,113,59058,1,2,2:0:0:0:
8,113,59245,1,0,3:0:0:0:
8,113,59433,1,12,2:2:0:0:
106,164,59808,1,0,3:0:0:0:
46,258,60183,1,10,2:0:0:0:
46,258,60370,6,0,L|55:304,2,39.5,2|2|2,2:0|2:0|2:0,0:0:0:0:
75,198,60933,6,0,P|113:172|170:195,1,94.7999971069337,4|2,3:2|2:0,0:0:0:0:
211,229,61495,1,2,2:0:0:0:
211,229,61683,2,0,L|195:326,1,94.7999971069337,8|0,2:0|3:0,0:0:0:0:
324,370,62433,2,0,P|382:386|416:353,1,94.7999971069337,0|2,3:0|2:0,0:0:0:0:
458,326,62995,1,2,2:0:0:0:
458,326,63183,2,0,L|440:214,1,94.7999971069337,10|2,2:0|2:0,0:0:0:0:
502,113,63933,6,0,P|459:86|398:99,1,94.7999971069337,0|2,3:2|2:0,0:0:0:0:
344,201,64683,1,8,2:0:0:0:
344,201,64870,2,0,L|335:257,2,47.3999985534668,2|0|2,2:0|3:0|2:0,0:0:0:0:
299,151,65433,2,0,P|254:124|200:140,1,94.7999971069337,0|2,3:0|2:0,0:0:0:0:
156,158,65995,1,2,2:0:0:0:
156,158,66183,2,0,L|175:274,1,94.7999971069337,8|2,2:0|2:0,0:0:0:0:
129,377,66933,6,0,P|92:385|42:329,1,94.7999971069337,4|2,3:2|2:0,0:0:0:0:
3,311,67495,1,2,2:0:0:0:
3,311,67683,1,8,2:0:0:0:
67,195,68058,1,4,3:2:0:0:
198,215,68433,2,0,P|230:251|231:311,1,94.7999971069337,4|2,3:2|2:0,0:0:0:0:
229,364,68995,1,2,2:0:0:0:
229,364,69183,2,0,P|283:356|338:349,1,94.7999971069337,8|2,2:0|2:0,0:0:0:0:
451,383,69933,6,0,P|460:329|471:264,1,94.7999971069337,4|2,3:2|2:0,0:0:0:0:
439,234,70495,1,2,0:2:0:0:
439,234,70683,2,0,P|398:200|335:213,1,94.7999971069337,8|0,2:0|3:0,0:0:0:0:
232,242,71433,2,0,P|221:181|210:124,1,94.7999971069337,0|2,3:0|2:0,0:0:0:0:
237,88,71995,1,2,2:0:0:0:
237,88,72183,1,10,2:2:0:0:
129,10,72558,1,2,2:0:0:0:
35,104,72933,6,0,P|21:157|46:201,1,94.7999971069337,4|2,3:2|2:0,0:0:0:0:
89,238,73495,1,2,2:0:0:0:
89,238,73683,2,0,L|189:223,1,94.7999971069337,10|0,2:2|3:0,0:0:0:0:
303,169,74433,2,0,P|310:118|321:54,1,94.7999971069337,0|2,3:0|2:0,0:0:0:0:
350,19,74995,1,2,2:0:0:0:
350,19,75183,2,0,P|390:1|451:25,1,94.7999971069337,8|2,2:0|2:0,0:0:0:0:
506,127,75933,6,0,P|499:177|490:251,1,94.7999971069337,4|2,3:2|2:0,0:0:0:0:
447,268,76495,1,2,2:0:0:0:
447,268,76683,1,8,2:0:0:0:
512,384,77058,1,4,3:2:0:0:
379,383,77433,2,0,P|327:376|261:367,1,94.7999971069337,4|2,3:2|2:0,0:0:0:0:
235,333,77995,1,2,2:0:0:0:
235,333,78183,2,0,P|219:281|248:234,1,94.7999971069337,8|2,2:0|2:0,0:0:0:0:
334,158,78933,6,0,P|326:104|318:47,1,94.7999971069337,4|2,3:2|2:0,0:0:0:0:
202,4,79683,1,8,2:0:0:0:
81,48,80058,1,4,3:2:0:0:
81,48,80245,1,2,2:2:0:0:
81,48,80433,2,0,P|63:106|83:150,1,94.7999971069337,4|2,3:2|2:0,0:0:0:0:
65,269,81183,1,8,2:0:0:0:
186,321,81558,1,6,2:2:0:0:
263,213,81933,6,0,P|285:174|260:121,1,94.7999971069337,4|2,3:2|2:0,0:0:0:0:
192,21,82683,1,8,2:0:0:0:
330,10,83058,1,0,3:0:0:0:
330,10,83245,1,2,2:0:0:0:
330,10,83433,2,0,P|376:21|427:34,1,94.7999971069337,0|2,3:0|2:0,0:0:0:0:
504,136,84183,2,0,P|483:167|421:171,1,94.7999971069337,8|2,2:0|2:0,0:0:0:0:
378,140,84745,1,2,2:0:0:0:
378,140,84933,5,4,3:2:0:0:
285,195,85308,1,2,2:0:0:0:
285,195,85495,1,2,2:0:0:0:
285,195,85683,2,0,L|304:299,1,79,8|0,2:0|3:0,0:0:0:0:
342,374,86433,6,0,L|395:384,3,39.5,0|2|2|2,3:0|2:0|2:0|2:0,0:0:0:0:
426,349,87183,2,0,L|474:340,3,39.5,8|2|0|2,2:0|2:0|3:0|2:0,0:0:0:0:
495,304,87933,6,0,B|531:271|505:221|497:226|490:231|466:189|505:145,1,165.899994937134,4|0,3:2|0:0,0:0:0:0:
