osu file format v14

[General]
AudioFilename: audio.mp3
AudioLeadIn: 0
PreviewTime: 57578
Countdown: 0
SampleSet: Soft
StackLeniency: 0.7
Mode: 2
LetterboxInBreaks: 0
WidescreenStoryboard: 0

[Editor]
DistanceSpacing: 1.6
BeatDivisor: 4
GridSize: 4
TimelineZoom: 1.3

[Metadata]
Title:Kimi no mamade
TitleUnicode:Kimi no mamade
Artist:azusa
ArtistUnicode:azusa
Creator:Shirokane Rinko
Version:Light Rain
Source:アマガミ SS
Tags:Amagami SS tv size celektus Dilectus davided Nelly
BeatmapID:1731505
BeatmapSetID:826131

[Difficulty]
HPDrainRate:4.5
CircleSize:3.8
OverallDifficulty:8.5
ApproachRate:8.5
SliderMultiplier:1.85
SliderTickRate:2

[Events]
//Background and Video events
Video,0,"video.avi"
0,0,"Ai.jpg",0,0
//Break Periods
//Storyboard Layer 0 (Background)
//Storyboard Layer 1 (Fail)
//Storyboard Layer 2 (Pass)
//Storyboard Layer 3 (Foreground)
//Storyboard Sound Samples

[TimingPoints]
695,444.444444444444,4,2,1,25,1,0
11361,-100,4,2,1,40,0,0
14917,-100,4,2,1,40,0,0
29139,-100,4,2,1,40,0,0
43361,-100,4,2,1,55,0,0
57583,-100,4,2,1,50,0,0
59361,-100,4,2,1,70,0,1
72917,-100,4,2,1,70,0,0
73583,-100,4,2,1,70,0,1
86028,-100,4,2,1,70,0,0
86250,-100,4,2,1,50,0,0
87806,-100,4,2,1,5,0,0

[HitObjects]
146,210,695,5,2,0:2:0:0:
306,212,1583,1,2,0:2:0:0:
93,216,2472,1,2,0:2:0:0:
272,214,3361,1,2,0:2:0:0:
459,210,4250,5,2,0:2:0:0:
251,215,5139,1,2,0:2:0:0:
87,208,6028,1,2,0:2:0:0:
272,201,6917,1,0,0:0:0:0:
417,203,7361,1,2,0:2:0:0:
191,209,7806,6,0,L|359:98,1,185,2|0,0:2|0:0,0:0:0:0:
142,123,8694,2,0,P|100:208|150:286,1,185,2|2,0:2|0:2,0:0:0:0:
385,275,9583,1,2,0:2:0:0:
198,265,10472,1,2,0:2:0:0:
377,265,10917,1,2,0:2:0:0:
126,269,11361,6,0,P|76:190|134:121,1,185,6|0,3:2|0:0,0:0:0:0:
258,122,12028,1,0,3:2:0:0:
440,119,12250,1,0,1:0:0:0:
400,57,12472,1,0,0:0:0:0:
323,38,12694,1,0,0:0:0:0:
250,40,12917,1,0,0:0:0:0:
182,71,13139,1,0,3:2:0:0:
45,76,13361,5,0,3:2:0:0:
353,79,13583,1,2,0:3:0:0:
313,139,13806,1,0,0:0:0:0:
160,141,14028,1,8,0:3:0:0:
109,86,14250,1,4,0:3:0:0:
160,141,14472,1,0,1:0:0:0:
75,142,14694,1,0,3:2:0:0:
474,167,14917,6,0,L|328:49,1,185,6|0,3:2|3:2,0:0:0:0:
213,52,15583,1,2,0:2:0:0:
32,57,15806,2,0,L|137:123,1,92.5,2|0,3:2|0:0,0:0:0:0:
272,112,16250,2,0,L|167:113,1,92.5,0|2,1:2|0:2,0:0:0:0:
401,134,16694,6,0,L|257:258,1,185,2|0,3:2|3:2,0:0:0:0:
152,253,17361,1,2,0:2:0:0:
30,249,17583,2,0,L|100:170,1,92.5,0|2,3:2|0:2,0:0:0:0:
260,172,18028,2,0,L|151:172,1,92.5,0|2,1:2|0:2,0:0:0:0:
474,182,18472,6,0,L|336:36,1,185,2|0,3:2|3:2,0:0:0:0:
218,52,19139,1,2,0:2:0:0:
60,57,19361,2,0,L|167:56,1,92.5,2|0,3:2|0:0,0:0:0:0:
283,58,19806,1,0,1:2:0:0:
114,63,20028,1,2,0:2:0:0:
309,74,20250,6,0,L|201:137,1,92.5,2|2,3:2|0:2,0:0:0:0:
128,177,20694,1,0,3:2:0:0:
290,178,20917,1,2,0:2:0:0:
438,178,21139,2,0,L|337:178,1,92.5,0|2,3:2|0:2,0:0:0:0:
229,171,21583,2,0,L|143:114,1,92.5,0|0,1:2|0:0,0:0:0:0:
465,91,22028,6,0,L|246:93,1,185,2|0,3:2|3:2,0:0:0:0:
146,89,22694,1,2,0:2:0:0:
306,100,22917,2,0,L|204:175,1,92.5,2|0,3:2|0:0,0:0:0:0:
57,157,23361,2,0,L|161:157,1,92.5,0|2,1:2|0:2,0:0:0:0:
385,155,23806,6,0,P|426:98|359:5,1,185,2|0,3:2|3:2,0:0:0:0:
195,24,24472,1,2,0:2:0:0:
375,24,24694,2,0,L|270:24,1,92.5,2|0,3:2|0:0,0:0:0:0:
96,28,25139,2,0,L|195:103,1,92.5,2|0,1:2|0:0,0:0:0:0:
462,94,25583,6,0,L|329:245,1,185,2|0,3:2|3:2,0:0:0:0:
211,232,26250,1,2,0:2:0:0:
70,231,26472,2,0,L|99:141,1,92.5,2|0,3:2|0:0,0:0:0:0:
239,154,26917,2,0,L|154:68,1,92.5,0|0,1:2|0:0,0:0:0:0:
427,78,27361,6,0,P|476:160|407:228,1,185,0|0,3:2|3:2,0:0:0:0:
283,235,28028,1,0,0:0:0:0:
421,236,28250,2,0,L|487:161,1,92.5,0|0,3:2|0:0,0:0:0:0:
264,161,28694,2,0,L|378:162,1,92.5,0|0,1:2|1:2,0:0:0:0:
39,180,29139,6,0,L|169:32,1,185,6|0,3:2|3:2,0:0:0:0:
284,40,29806,1,2,0:2:0:0:
463,43,30028,2,0,L|387:124,1,92.5,2|0,3:2|0:0,0:0:0:0:
206,118,30472,2,0,L|310:118,1,92.5,0|2,1:2|0:2,0:0:0:0:
352,145,30806,1,0,0:0:0:0:
199,186,30917,6,0,L|106:186,1,92.5,2|2,3:2|0:2,0:0:0:0:
293,180,31361,2,0,L|374:124,1,92.5,2|2,3:2|0:2,0:0:0:0:
143,119,31806,1,0,3:2:0:0:
299,122,32028,1,2,0:2:0:0:
458,116,32250,2,0,L|403:28,1,92.5,0|2,1:2|0:2,0:0:0:0:
114,62,32694,6,0,P|59:146|114:187,1,185,6|0,3:2|3:2,0:0:0:0:
262,190,33361,1,2,0:2:0:0:
130,192,33583,2,0,L|45:127,1,92.5,2|0,3:2|0:0,0:0:0:0:
295,120,34028,2,0,L|188:121,1,92.5,0|2,1:2|0:2,0:0:0:0:
143,88,34361,1,0,0:0:0:0:
297,53,34472,6,0,L|424:54,1,92.5,2|2,3:2|0:2,0:0:0:0:
476,206,34917,1,0,3:2:0:0:
302,222,35139,1,2,0:2:0:0:
119,221,35361,2,0,L|217:158,1,92.5,0|2,3:2|0:2,0:0:0:0:
36,161,35806,2,0,L|131:79,1,92.5,0|2,1:2|0:2,0:0:0:0:
400,153,36250,6,0,P|445:78|367:15,1,185,6|0,3:2|3:2,0:0:0:0:
253,21,36917,1,2,0:2:0:0:
63,27,37139,2,0,L|158:96,1,92.5,2|0,3:2|0:0,0:0:0:0:
348,83,37583,2,0,L|242:83,1,92.5,0|2,1:2|0:2,0:0:0:0:
197,118,37917,1,0,0:0:0:0:
355,146,38028,6,0,P|428:126|486:213,1,185,2|0,3:2|3:2,0:0:0:0:
299,227,38694,1,2,0:2:0:0:
101,229,38917,2,0,L|183:166,1,92.5,0|2,3:2|0:2,0:0:0:0:
357,159,39361,2,0,L|464:159,1,92.5,0|2,1:2|0:2,0:0:0:0:
117,209,39806,6,0,P|62:143|147:78,1,185,6|0,3:2|3:2,0:0:0:0:
253,214,40472,1,2,0:2:0:0:
395,212,40694,2,0,L|475:139,1,92.5,2|0,3:2|0:0,0:0:0:0:
216,139,41139,2,0,L|342:137,1,92.5,0|2,1:2|0:2,0:0:0:0:
368,97,41472,1,2,0:2:0:0:
212,72,41583,6,0,L|96:74,1,92.5,6|2,3:2|0:2,0:0:0:0:
41,242,42028,1,0,3:2:0:0:
224,244,42250,1,2,0:2:0:0:
423,233,42472,2,0,L|361:150,1,92.5,0|2,3:2|0:2,0:0:0:0:
200,165,42917,2,0,L|107:165,1,92.5,2|2,1:2|1:2,0:0:0:0:
449,166,43361,6,0,P|461:81|385:11,1,185,6|2,3:2|3:2,0:0:0:0:
247,21,44028,1,2,0:2:0:0:
376,183,44250,2,0,L|283:183,1,92.5,2|0,3:2|0:0,0:0:0:0:
67,184,44694,2,0,L|19:96,1,92.5,2|2,1:2|0:2,0:0:0:0:
389,68,45139,6,0,P|445:114|383:201,1,185,2|2,3:2|3:2,0:0:0:0:
261,203,45806,1,2,0:2:0:0:
89,204,46028,2,0,L|177:147,1,92.5,0|0,3:2|0:0,0:0:0:0:
397,150,46472,2,0,L|378:33,1,92.5,2|2,1:2|0:2,0:0:0:0:
93,59,46917,6,0,P|34:119|107:178,1,185,4|0,3:2|3:2,0:0:0:0:
222,183,47583,1,2,0:2:0:0:
373,181,47806,2,0,L|287:110,1,92.5,2|2,3:2|0:2,0:0:0:0:
63,114,48250,2,0,L|156:30,1,92.5,2|2,1:2|0:2,0:0:0:0:
423,106,48694,6,0,P|470:168|426:274,1,185,4|2,3:2|3:2,0:0:0:0:
284,266,49361,1,2,0:2:0:0:
421,266,49583,2,0,L|345:197,1,92.5,0|2,3:2|0:2,0:0:0:0:
118,194,50028,2,0,L|210:194,1,92.5,0|2,1:2|0:2,0:0:0:0:
273,183,50361,1,0,0:0:0:0:
435,136,50472,6,0,P|387:61|256:32,1,185,6|2,3:2|3:2,0:0:0:0:
173,34,51139,1,0,0:0:0:0:
40,47,51361,2,0,L|138:113,1,92.5,2|2,3:2|0:2,0:0:0:0:
308,100,51806,2,0,L|427:100,1,92.5,2|2,1:2|0:2,0:0:0:0:
117,99,52250,6,0,P|78:175|121:262,1,185,2|2,3:2|3:2,0:0:0:0:
250,264,52917,1,2,0:2:0:0:
399,260,53139,2,0,L|489:186,1,92.5,0|0,3:2|0:0,0:0:0:0:
257,169,53583,2,0,L|381:153,1,92.5,2|2,1:2|0:2,0:0:0:0:
58,197,54028,6,0,P|11:129|76:46,1,185,4|0,3:2|3:2,0:0:0:0:
182,54,54694,1,2,0:2:0:0:
316,56,54917,2,0,L|441:56,1,92.5,2|2,3:2|0:2,0:0:0:0:
214,62,55361,2,0,L|103:102,1,92.5,2|2,1:2|0:2,0:0:0:0:
414,77,55806,6,0,P|475:126|398:192,1,185,4|0,3:2|3:2,0:0:0:0:
281,198,56472,1,2,0:2:0:0:
94,207,56694,2,0,L|163:135,1,92.5,2|2,3:2|0:2,0:0:0:0:
386,132,57139,2,0,L|382:19,1,92.5,2|2,1:2|0:2,0:0:0:0:
94,72,57583,6,0,P|41:160|90:211,1,185,2|0,3:2|1:2,0:0:0:0:
228,209,58250,1,0,0:0:0:0:
363,210,58472,1,0,1:2:0:0:
446,138,58694,1,0,1:2:0:0:
111,135,58917,1,0,1:2:0:0:
67,78,59028,1,0,1:2:0:0:
218,73,59250,1,0,1:2:0:0:
425,74,59361,6,0,P|474:165|405:175,1,185,6|2,3:2|1:2,0:0:0:0:
286,191,60028,1,2,0:2:0:0:
151,197,60250,2,0,L|71:139,1,92.5,0|2,3:2|0:2,0:0:0:0:
299,129,60694,2,0,L|420:129,1,92.5,2|2,1:2|0:2,0:0:0:0:
91,226,61139,6,0,P|47:157|97:69,1,185,2|2,3:2|1:2,0:0:0:0:
226,72,61806,1,2,0:2:0:0:
356,73,62028,2,0,L|274:145,1,92.5,0|0,3:2|0:0,0:0:0:0:
46,139,62472,2,0,L|155:140,1,92.5,2|0,1:2|0:0,0:0:0:0:
429,106,62917,6,0,P|470:143|423:259,1,185,2|2,3:2|1:2,0:0:0:0:
283,256,63583,1,2,0:2:0:0:
453,257,63806,2,0,L|394:170,1,92.5,0|2,3:2|0:2,0:0:0:0:
183,179,64250,2,0,L|126:92,1,92.5,2|2,1:2|0:2,0:0:0:0:
462,85,64694,6,0,L|349:84,1,92.5,2|0,3:2|0:0,0:0:0:0:
161,83,65139,2,0,L|161:192,1,92.5,2|2,1:2|0:2,0:0:0:0:
323,169,65583,2,0,L|421:169,1,92.5,0|0,3:2|0:0,0:0:0:0:
512,280,66028,1,2,1:2:0:0:
379,285,66250,1,0,0:0:0:0:
84,101,66472,6,0,P|31:167|89:241,1,185,2|2,3:2|1:2,0:0:0:0:
220,239,67139,1,2,0:2:0:0:
371,236,67361,2,0,L|444:149,1,92.5,0|2,3:2|0:2,0:0:0:0:
219,159,67806,2,0,L|105:159,1,92.5,2|2,1:2|0:2,0:0:0:0:
418,78,68250,6,0,P|467:127|414:225,1,185,2|2,3:2|1:2,0:0:0:0:
286,226,68917,1,2,0:2:0:0:
101,222,69139,2,0,L|202:138,1,92.5,0|2,3:2|0:2,0:0:0:0:
381,158,69583,2,0,L|198:69,1,185,0|2,1:2|3:2,0:0:0:0:
55,81,70250,1,0,0:0:0:0:
196,87,70472,6,0,L|289:126,1,92.5,0|2,1:2|0:2,0:0:0:0:
481,121,70917,2,0,L|370:121,1,92.5,0|0,3:2|0:0,0:0:0:0:
257,122,71361,1,0,1:2:0:0:
413,122,71583,1,2,0:2:0:0:
60,65,71806,6,0,P|36:121|68:246,1,185,2|0,3:2|1:2,0:0:0:0:
207,237,72472,1,2,1:2:0:0:
374,234,72694,2,0,L|296:158,1,92.5,0|2,1:2|1:2,0:0:0:0:
140,153,73139,1,0,1:2:0:0:
68,95,73250,1,0,1:2:0:0:
219,86,73472,1,0,1:2:0:0:
443,49,73583,6,0,P|499:111|420:177,1,185,6|2,3:2|1:2,0:0:0:0:
302,183,74250,1,2,0:2:0:0:
129,192,74472,2,0,L|205:116,1,92.5,0|2,3:2|0:2,0:0:0:0:
331,124,74917,1,2,1:2:0:0:
465,122,75139,1,2,0:2:0:0:
126,90,75361,6,0,P|70:144|158:219,1,185,2|2,3:2|1:2,0:0:0:0:
246,222,76028,1,2,0:2:0:0:
414,221,76250,1,0,3:2:0:0:
260,222,76472,1,0,0:0:0:0:
46,220,76694,2,0,L|121:149,1,92.5,2|0,1:2|0:0,0:0:0:0:
401,162,77139,6,0,P|451:112|375:23,1,185,2|2,3:2|1:2,0:0:0:0:
268,28,77806,1,2,0:2:0:0:
81,35,78028,2,0,L|167:109,1,92.5,0|2,3:2|0:2,0:0:0:0:
332,97,78472,2,0,L|447:97,1,92.5,2|2,1:2|0:2,0:0:0:0:
61,98,78917,6,0,L|64:194,1,92.5,2|2,3:2|0:2,0:0:0:0:
181,187,79361,1,2,1:2:0:0:
468,182,79583,2,0,P|489:137|449:97,1,92.5,2|0,0:2|3:2,0:0:0:0:
322,100,80028,1,0,0:0:0:0:
171,99,80250,2,0,L|64:137,1,92.5,2|2,1:2|0:2,0:0:0:0:
391,81,80694,6,0,P|452:143|380:202,1,185,2|2,3:2|1:2,0:0:0:0:
275,209,81361,1,2,0:2:0:0:
124,205,81583,2,0,L|51:135,1,92.5,0|2,3:2|0:2,0:0:0:0:
289,136,82028,1,2,1:2:0:0:
433,136,82250,1,2,0:2:0:0:
132,59,82472,6,0,P|82:122|137:197,1,185,2|2,3:2|1:2,0:0:0:0:
261,201,83139,1,2,0:2:0:0:
437,196,83361,2,0,L|371:110,1,92.5,2|0,3:2|0:0,0:0:0:0:
192,124,83806,1,2,1:2:0:0:
47,126,84028,1,2,0:2:0:0:
396,53,84250,6,0,P|457:134|391:172,1,185,2|0,3:2|1:2,0:0:0:0:
277,178,84917,1,2,0:2:0:0:
111,174,85139,2,0,L|54:91,1,92.5,0|0,1:2|1:2,0:0:0:0:
216,94,85583,1,0,1:2:0:0:
275,32,85694,1,0,1:2:0:0:
429,33,85806,1,0,0:0:0:0:
43,127,86028,6,0,L|212:229,1,185,4|0,1:2|0:0,0:0:0:0:
378,225,86694,5,0,0:0:0:0:
401,206,86768,1,0,0:0:0:0:
409,176,86842,1,0,0:0:0:0:
398,148,86916,1,2,0:2:0:0:
