osu file format v14

[General]
AudioFilename: ayy lmao.mp3
AudioLeadIn: 0
PreviewTime: -1
Countdown: 1
SampleSet: None
StackLeniency: 0.7
Mode: 1
LetterboxInBreaks: 1
WidescreenStoryboard: 1

[Editor]
DistanceSpacing: 2
BeatDivisor: 2
GridSize: 4
TimelineZoom: 2.4

[Metadata]
Title:lmao
TitleUnicode:lmao
Artist:ayy
ArtistUnicode:ayy
Creator:Pokie7
Version:ayy warfu
Source:
Tags:ayy lmao
BeatmapID:643131
BeatmapSetID:248428

[Difficulty]
HPDrainRate:5
CircleSize:5
OverallDifficulty:7
ApproachRate:10
SliderMultiplier:1.39999990463257
SliderTickRate:4

[Events]
//Background and Video events
0,0,"bg.jpg",0,0
//Break Periods
//Storyboard Layer 0 (Background)
//Storyboard Layer 1 (Fail)
//Storyboard Layer 2 (Pass)
//Storyboard Layer 3 (Foreground)
//Storyboard Sound Samples

[TimingPoints]
0,313.86612565445,4,1,0,60,1,0
4707,-83.3333333333333,4,1,0,60,0,0
7218,-133.333333333333,4,1,0,60,0,0
9729,156.46612565445,4,1,0,60,1,0
12232,-133.333333333333,4,1,0,60,0,0
14735,-100,4,1,0,60,0,0
15361,-90.9090909090909,4,1,0,60,0,0
15987,-83.3333333333333,4,1,0,60,0,0
19116,-76.9230769230769,4,1,0,60,0,0

[HitObjects]
252,192,313,5,8,0:0:0:0:
252,192,470,1,0,0:0:0:0:
252,192,627,1,8,0:0:0:0:
252,192,784,1,0,0:0:0:0:
252,192,941,1,8,0:0:0:0:
252,192,1098,1,0,0:0:0:0:
252,192,1176,1,0,0:0:0:0:
252,192,1255,1,8,0:0:0:0:
252,192,1412,1,0,0:0:0:0:
252,192,1569,1,8,0:0:0:0:
252,192,1647,1,0,0:0:0:0:
252,192,1726,1,0,0:0:0:0:
252,192,1804,1,0,0:0:0:0:
252,192,1883,1,8,0:0:0:0:
252,192,2040,1,0,0:0:0:0:
252,192,2197,1,2,0:0:0:0:
252,192,2353,1,0,0:0:0:0:
252,192,2432,1,0,0:0:0:0:
252,192,2510,1,8,0:0:0:0:
252,192,2667,1,8,0:0:0:0:
252,192,2746,1,0,0:0:0:0:
252,192,2824,1,8,0:0:0:0:
252,192,2981,1,0,0:0:0:0:
252,192,3034,1,0,0:0:0:0:
252,192,3086,1,0,0:0:0:0:
252,192,3138,1,0,0:0:0:0:
252,192,3295,1,8,0:0:0:0:
252,192,3374,1,8,0:0:0:0:
252,192,3452,1,8,0:0:0:0:
252,192,3530,1,0,0:0:0:0:
252,192,3609,1,8,0:0:0:0:
252,192,3687,1,0,0:0:0:0:
252,192,3766,1,8,0:0:0:0:
252,192,3844,1,0,0:0:0:0:
252,192,3923,1,0,0:0:0:0:
252,192,4001,1,0,0:0:0:0:
252,192,4080,1,8,0:0:0:0:
252,192,4237,1,8,0:0:0:0:
252,192,4315,1,0,0:0:0:0:
252,192,4394,1,8,0:0:0:0:
252,192,4472,1,0,0:0:0:0:
252,192,4551,1,0,0:0:0:0:
252,192,4629,1,0,0:0:0:0:
252,192,4707,1,8,0:0:0:0:
252,192,4864,1,0,0:0:0:0:
252,192,5021,1,8,0:0:0:0:
252,192,5178,1,0,0:0:0:0:
252,192,5257,1,0,0:0:0:0:
252,192,5335,1,8,0:0:0:0:
252,192,5492,1,8,0:0:0:0:
252,192,5649,1,8,0:0:0:0:
252,192,5806,1,0,0:0:0:0:
252,192,5884,1,0,0:0:0:0:
252,192,5963,1,0,0:0:0:0:
252,192,6120,1,8,0:0:0:0:
252,192,6277,1,8,0:0:0:0:
252,192,6434,1,0,0:0:0:0:
252,192,6512,1,0,0:0:0:0:
252,192,6591,1,8,0:0:0:0:
252,192,6748,1,0,0:0:0:0:
252,192,6826,1,0,0:0:0:0:
252,192,6905,1,8,0:0:0:0:
252,192,6983,1,0,0:0:0:0:
252,192,7061,1,8,0:0:0:0:
252,192,7140,1,0,0:0:0:0:
252,192,7218,1,8,0:0:0:0:
252,192,7375,1,0,0:0:0:0:
252,192,7532,1,0,0:0:0:0:
252,192,7689,1,8,0:0:0:0:
252,192,7846,1,8,0:0:0:0:
252,192,8003,1,0,0:0:0:0:
252,192,8082,1,8,0:0:0:0:
252,192,8160,1,8,0:0:0:0:
252,192,8317,1,8,0:0:0:0:
252,192,8474,1,2,0:0:0:0:
252,192,8552,1,0,0:0:0:0:
252,192,8631,1,0,0:0:0:0:
252,192,8709,1,0,0:0:0:0:
252,192,8788,1,0,0:0:0:0:
252,192,8945,1,0,0:0:0:0:
252,192,9102,1,8,0:0:0:0:
252,192,9259,1,0,0:0:0:0:
252,192,9415,1,8,0:0:0:0:
252,192,9572,1,0,0:0:0:0:
252,192,9651,1,0,0:0:0:0:
252,192,9729,1,8,0:0:0:0:
252,192,9885,1,8,0:0:0:0:
252,192,10041,1,2,0:0:0:0:
252,192,10198,1,0,0:0:0:0:
252,192,10354,1,8,0:0:0:0:
252,192,10433,1,0,0:0:0:0:
252,192,10511,1,0,0:0:0:0:
252,192,10589,1,0,0:0:0:0:
252,192,10667,1,8,0:0:0:0:
252,192,10824,1,0,0:0:0:0:
252,192,10980,1,8,0:0:0:0:
252,192,11058,1,0,0:0:0:0:
252,192,11137,1,8,0:0:0:0:
252,192,11215,1,0,0:0:0:0:
252,192,11293,1,8,0:0:0:0:
252,192,11450,1,0,0:0:0:0:
252,192,11606,1,8,0:0:0:0:
252,192,11684,1,8,0:0:0:0:
252,192,11763,1,8,0:0:0:0:
252,192,11841,1,0,0:0:0:0:
252,192,11919,1,8,0:0:0:0:
252,192,12075,1,0,0:0:0:0:
252,192,12232,1,8,0:0:0:0:
252,192,12388,1,0,0:0:0:0:
252,192,12545,1,0,0:0:0:0:
252,192,12701,1,8,0:0:0:0:
252,192,12858,1,8,0:0:0:0:
252,192,13014,1,0,0:0:0:0:
252,192,13093,1,8,0:0:0:0:
252,192,13171,1,8,0:0:0:0:
252,192,13327,1,8,0:0:0:0:
252,192,13484,1,8,0:0:0:0:
252,192,13640,1,0,0:0:0:0:
252,192,13797,1,0,0:0:0:0:
252,192,13953,1,0,0:0:0:0:
252,192,14031,1,0,0:0:0:0:
252,192,14110,1,8,0:0:0:0:
252,192,14266,1,0,0:0:0:0:
252,192,14344,1,0,0:0:0:0:
252,192,14422,1,8,0:0:0:0:
252,192,14579,1,0,0:0:0:0:
252,192,14735,1,8,0:0:0:0:
252,192,14892,1,8,0:0:0:0:
252,192,15048,1,8,0:0:0:0:
252,192,15205,1,0,0:0:0:0:
252,192,15283,1,0,0:0:0:0:
252,192,15361,1,8,0:0:0:0:
252,192,15518,1,8,0:0:0:0:
252,192,15674,1,8,0:0:0:0:
252,192,15831,1,0,0:0:0:0:
252,192,15987,1,8,0:0:0:0:
252,192,16144,1,8,0:0:0:0:
252,192,16222,1,0,0:0:0:0:
252,192,16300,1,8,0:0:0:0:
252,192,16378,1,8,0:0:0:0:
252,192,16457,1,8,0:0:0:0:
252,192,16535,1,0,0:0:0:0:
252,192,16613,1,8,0:0:0:0:
252,192,16769,1,0,0:0:0:0:
252,192,16926,1,8,0:0:0:0:
252,192,17082,1,0,0:0:0:0:
252,192,17161,1,0,0:0:0:0:
252,192,17239,1,4,0:0:0:0:
252,192,17395,1,0,0:0:0:0:
252,192,17474,1,0,0:0:0:0:
252,192,17552,1,0,0:0:0:0:
252,192,17708,1,0,0:0:0:0:
252,192,17865,1,8,0:0:0:0:
252,192,18021,1,8,0:0:0:0:
252,192,18099,1,8,0:0:0:0:
252,192,18178,1,8,0:0:0:0:
252,192,18334,1,0,0:0:0:0:
252,192,18491,1,0,0:0:0:0:
252,192,18647,1,0,0:0:0:0:
252,192,18804,1,0,0:0:0:0:
252,192,18882,1,0,0:0:0:0:
252,192,18960,1,0,0:0:0:0:
252,192,19116,1,8,0:0:0:0:
252,192,19273,1,8,0:0:0:0:
252,192,19429,1,8,0:0:0:0:
252,192,19586,1,4,0:0:0:0:
