osu file format v13

[General]
AudioFilename: ayy lmao.mp3
AudioLeadIn: 0
PreviewTime: -1
Countdown: 1
SampleSet: None
StackLeniency: 0.7
Mode: 0
LetterboxInBreaks: 1
WidescreenStoryboard: 1

[Editor]
DistanceSpacing: 1
BeatDivisor: 4
GridSize: 4
TimelineZoom: 3.699999

[Metadata]
Title:lmao
TitleUnicode:lmao
Artist:ayy
ArtistUnicode:ayy
Creator:Pokie7
Version:ayy sergio
Source:
Tags:ayy lmao
BeatmapID:572694
BeatmapSetID:248428

[Difficulty]
HPDrainRate:7
CircleSize:4
OverallDifficulty:7
ApproachRate:9
SliderMultiplier:1.80000000596046
SliderTickRate:1

[Events]
//Background and Video events
0,0,"bg.jpg",0,0
//Break Periods
//Storyboard Layer 0 (Background)
//Storyboard Layer 1 (Fail)
//Storyboard Layer 2 (Pass)
//Storyboard Layer 3 (Foreground)
//Storyboard Sound Samples

[TimingPoints]
0,314.13612565445,4,2,0,70,1,0

[Colours]
Combo1 : 114,141,125
Combo2 : 0,202,0
Combo3 : 19,124,253
Combo4 : 0,128,128

[HitObjects]
232,60,314,6,0,L|212:156,1,90.0000002980232
100,276,628,2,0,L|120:180,1,90.0000002980232
316,176,942,2,0,P|320:276|396:340,1,180.000000596046
219,305,1413,1,0,0:0:0:0:
392,144,1570,6,0,P|320:80|224:120,1,180.000000596046
368,228,2041,1,0,0:0:0:0:
304,172,2198,2,0,L|192:208,2,90.000000298023,0|0|0,0:0|0:0|0:0,0:0:0:0:
108,200,2670,6,0,P|124:260|164:284,1,90.000000298023
288,256,2984,1,0,0:0:0:0:
143,276,3141,1,0,0:0:0:0:
228,344,3298,1,0,0:0:0:0:
208,192,3455,2,0,L|216:100,1,90.000000298023
396,60,3769,5,0,0:0:0:0:
408,84,3926,1,0,0:0:0:0:
308,160,4083,5,0,0:0:0:0:
296,184,4240,1,0,0:0:0:0:
424,264,4397,6,0,L|472:352,1,90.000000298023
316,308,4712,2,0,P|220:284|128:316,1,180.000000596046
56,48,5340,5,0,0:0:0:0:
84,192,5497,1,0,0:0:0:0:
68,72,5654,1,0,0:0:0:0:
180,236,5811,1,0,0:0:0:0:
84,104,5968,6,0,P|132:112|184:96,1,90.000000298023
348,84,6282,2,0,P|400:80|452:56,1,90.000000298023
268,144,6596,2,0,L|316:336,1,180.000000596046
311,318,7068,1,0,0:0:0:0:
372,200,7225,6,0,P|376:148|392:96,1,90.000000298023
184,224,7539,2,0,P|165:175|136:129,1,90.000000298023
252,44,7853,1,0,0:0:0:0:
276,212,8010,1,0,0:0:0:0:
312,124,8167,2,0,P|268:120|212:144,1,90.000000298023
292,308,8481,5,0,0:0:0:0:
68,140,8795,1,0,0:0:0:0:
316,56,9109,2,0,P|368:52|416:64,1,90.000000298023
440,152,9424,5,0,0:0:0:0:
228,80,9581,1,0,0:0:0:0:
236,284,9738,6,0,B|268:288|268:288|284:280|284:280|304:292|304:292|332:280,1,90.000000298023
396,332,10052,1,0,0:0:0:0:
352,196,10209,1,0,0:0:0:0:
248,152,10366,2,0,B|216:156|216:156|200:148|200:148|180:160|180:160|152:148,1,90.000000298023
88,200,10680,1,0,0:0:0:0:
132,64,10837,1,0,0:0:0:0:
236,284,10994,6,0,L|316:344,2,90.000000298023,0|0|0,0:0|0:0|0:0,0:0:0:0:
352,196,11465,1,0,0:0:0:0:
248,152,11623,2,0,L|176:98,2,90.000000298023,0|0|0,0:0|0:0|0:0,0:0:0:0:
132,240,12094,1,0,0:0:0:0:
384,124,12251,2,0,B|416:148|416:148|424:180|424:180|444:204|444:204|440:240|440:240|456:284,1,180.000000596046
272,248,12722,6,0,P|220:224|192:200,1,90.000000298023
140,132,13036,1,0,0:0:0:0:
364,296,13193,1,0,0:0:0:0:
140,316,13350,1,0,0:0:0:0:
344,100,13507,1,0,0:0:0:0:
344,100,13821,6,0,P|276:124|256:144,1,90.000000298023
328,236,14136,2,0,P|288:268|244:284,1,90.000000298023
128,232,14450,2,0,P|92:184|84:148,1,90.000000298023
120,28,14764,6,0,P|164:48|205:96,1,90.000000298023
256,164,15078,1,0,0:0:0:0:
216,268,15235,1,0,0:0:0:0:
344,100,15392,2,0,P|376:152|368:208,1,90.000000298023
324,284,15706,1,0,0:0:0:0:
192,304,15863,1,0,0:0:0:0:
124,144,16020,6,0,P|168:96|220:88,2,90.000000298023,0|0|0,0:0|0:0|0:0,0:0:0:0:
128,236,16492,1,0,0:0:0:0:
288,80,16649,2,0,P|380:116|404:200,1,180.000000596046
256,192,17277,12,0,19633,0:0:0:0:
