osu file format v14

[General]
AudioFilename: ayy lmao.mp3
AudioLeadIn: 0
PreviewTime: -1
Countdown: 1
SampleSet: Soft
StackLeniency: 0.7
Mode: 0
LetterboxInBreaks: 1
WidescreenStoryboard: 1

[Editor]
DistanceSpacing: 2
BeatDivisor: 4
GridSize: 4
TimelineZoom: 3.699999

[Metadata]
Title:lmao
TitleUnicode:lmao
Artist:ayy
ArtistUnicode:ayy
Creator:Pokie7
Version:ayy funfolino
Source:
Tags:ayy lmao
BeatmapID:571984
BeatmapSetID:248428

[Difficulty]
HPDrainRate:10
CircleSize:2
OverallDifficulty:0
ApproachRate:0
SliderMultiplier:0.400000005960464
SliderTickRate:1

[Events]
//Background and Video events
0,0,"bg.jpg",0,0
//Break Periods
//Storyboard Layer 0 (Background)
//Storyboard Layer 1 (Fail)
//Storyboard Layer 2 (Pass)
//Storyboard Layer 3 (Foreground)
//Storyboard Sound Samples

[TimingPoints]
0,314.13612565445,4,1,0,100,1,0
0,-100,4,2,0,70,0,0
3691,-58.8235294117647,4,2,0,70,0,0
3926,-100,4,2,0,70,0,0
4044,-100,4,2,0,40,0,0

[HitObjects]
0,192,314,6,0,L|872:192,2,1220.00001817942,0|0|0,0:0|0:0|0:0,0:0:0:0:
0,192,392,6,0,L|872:192,2,1220.00001817942,0|0|0,0:0|0:0|0:0,0:0:0:0:
0,192,471,6,0,L|872:192,2,1220.00001817942,0|0|0,0:0|0:0|0:0,0:0:0:0:
0,192,549,6,0,L|872:192,2,1220.00001817942,0|0|0,0:0|0:0|0:0,0:0:0:0:
0,192,628,6,0,L|872:192,2,1220.00001817942,0|0|0,0:0|0:0|0:0,0:0:0:0:
0,192,706,6,0,L|872:192,2,1220.00001817942,0|0|0,0:0|0:0|0:0,0:0:0:0:
0,192,785,6,0,L|872:192,2,1220.00001817942,0|0|0,0:0|0:0|0:0,0:0:0:0:
0,192,863,6,0,L|872:192,2,1220.00001817942,0|0|0,0:0|0:0|0:0,0:0:0:0:
0,192,942,6,0,L|872:192,2,1220.00001817942,0|0|0,0:0|0:0|0:0,0:0:0:0:
0,192,1020,6,0,L|872:192,2,1220.00001817942,0|0|0,0:0|0:0|0:0,0:0:0:0:
0,192,1099,6,0,L|872:192,2,1220.00001817942,0|0|0,0:0|0:0|0:0,0:0:0:0:
0,192,1178,6,0,L|872:192,2,1220.00001817942,0|0|0,0:0|0:0|0:0,0:0:0:0:
0,192,1256,6,0,L|872:192,2,1220.00001817942,0|0|0,0:0|0:0|0:0,0:0:0:0:
0,192,1335,6,0,L|872:192,2,1220.00001817942,0|0|0,0:0|0:0|0:0,0:0:0:0:
0,192,1413,6,0,L|872:192,2,1220.00001817942,0|0|0,0:0|0:0|0:0,0:0:0:0:
0,192,1492,6,0,L|872:192,2,1220.00001817942,0|0|0,0:0|0:0|0:0,0:0:0:0:
0,192,1570,6,0,L|872:192,2,1220.00001817942,0|0|0,0:0|0:0|0:0,0:0:0:0:
0,192,1649,6,0,L|872:192,2,1220.00001817942,0|0|0,0:0|0:0|0:0,0:0:0:0:
0,192,1727,6,0,L|872:192,2,1220.00001817942,0|0|0,0:0|0:0|0:0,0:0:0:0:
0,192,1806,6,0,L|872:192,2,1220.00001817942,0|0|0,0:0|0:0|0:0,0:0:0:0:
0,192,1884,6,0,L|872:192,2,1220.00001817942,0|0|0,0:0|0:0|0:0,0:0:0:0:
0,192,1963,6,0,L|872:192,2,1220.00001817942,0|0|0,0:0|0:0|0:0,0:0:0:0:
0,192,2041,6,0,L|872:192,2,1220.00001817942,0|0|0,0:0|0:0|0:0,0:0:0:0:
0,192,2120,6,0,L|872:192,2,1220.00001817942,0|0|0,0:0|0:0|0:0,0:0:0:0:
0,192,2198,6,0,L|872:192,2,1220.00001817942,0|0|0,0:0|0:0|0:0,0:0:0:0:
0,192,2277,6,0,L|872:192,2,1220.00001817942,0|0|0,0:0|0:0|0:0,0:0:0:0:
0,192,2356,6,0,L|872:192,2,1220.00001817942,0|0|0,0:0|0:0|0:0,0:0:0:0:
0,192,2434,6,0,L|872:192,2,1220.00001817942,0|0|0,0:0|0:0|0:0,0:0:0:0:
0,192,2513,6,0,L|872:192,2,1220.00001817942,0|0|0,0:0|0:0|0:0,0:0:0:0:
0,192,2591,6,0,L|872:192,2,1220.00001817942,0|0|0,0:0|0:0|0:0,0:0:0:0:
0,192,2670,6,0,L|872:192,2,1220.00001817942,0|0|0,0:0|0:0|0:0,0:0:0:0:
0,192,2748,6,0,L|872:192,2,1220.00001817942,0|0|0,0:0|0:0|0:0,0:0:0:0:
0,192,2827,6,0,L|872:192,2,1220.00001817942,0|0|0,0:0|0:0|0:0,0:0:0:0:
0,192,2905,6,0,L|872:192,2,1220.00001817942,0|0|0,0:0|0:0|0:0,0:0:0:0:
0,192,2984,6,0,L|872:192,2,1220.00001817942,0|0|0,0:0|0:0|0:0,0:0:0:0:
0,192,3062,6,0,L|872:192,2,1220.00001817942,0|0|0,0:0|0:0|0:0,0:0:0:0:
0,192,3141,6,0,L|872:192,2,1220.00001817942,0|0|0,0:0|0:0|0:0,0:0:0:0:
0,192,3219,6,0,L|872:192,2,1220.00001817942,0|0|0,0:0|0:0|0:0,0:0:0:0:
0,192,3298,6,0,L|872:192,2,1220.00001817942,0|0|0,0:0|0:0|0:0,0:0:0:0:
0,192,3376,6,0,L|872:192,2,1220.00001817942,0|0|0,0:0|0:0|0:0,0:0:0:0:
0,192,3455,6,0,L|872:192,2,1220.00001817942,0|0|0,0:0|0:0|0:0,0:0:0:0:
0,192,3534,6,0,L|872:192,2,1220.00001817942,0|0|0,0:0|0:0|0:0,0:0:0:0:
0,192,3612,6,0,L|872:192,2,1220.00001817942,0|0|0,0:0|0:0|0:0,0:0:0:0:
0,192,3691,6,0,L|872:192,2,1220.00001817942,0|0|0,0:0|0:0|0:0,0:0:0:0:
0,192,3769,6,0,L|872:192,2,1220.00001817942,0|0|0,0:0|0:0|0:0,0:0:0:0:
0,192,3848,6,0,L|872:192,2,1220.00001817942,0|0|0,0:0|0:0|0:0,0:0:0:0:
0,192,3926,6,0,L|872:192,2,1220.00001817942,0|0|0,0:0|0:0|0:0,0:0:0:0:
0,192,4005,6,0,L|872:192,2,1220.00001817942,0|0|0,0:0|0:0|0:0,0:0:0:0:
0,192,4083,6,0,L|872:192,2,1220.00001817942,0|0|0,0:0|0:0|0:0,0:0:0:0:
0,192,4162,6,0,L|872:192,2,1220.00001817942,0|0|0,0:0|0:0|0:0,0:0:0:0:
0,192,4240,6,0,L|872:192,2,1220.00001817942,0|0|0,0:0|0:0|0:0,0:0:0:0:
0,192,4319,6,0,L|872:192,2,1220.00001817942,0|0|0,0:0|0:0|0:0,0:0:0:0:
0,192,4397,6,0,L|872:192,2,1220.00001817942,0|0|0,0:0|0:0|0:0,0:0:0:0:
0,192,4476,6,0,L|872:192,2,1220.00001817942,0|0|0,0:0|0:0|0:0,0:0:0:0:
0,192,4554,6,0,L|872:192,2,1220.00001817942,0|0|0,0:0|0:0|0:0,0:0:0:0:
0,192,4633,6,0,L|872:192,2,1220.00001817942,0|0|0,0:0|0:0|0:0,0:0:0:0:
0,192,4712,6,0,L|872:192,2,1220.00001817942,0|0|0,0:0|0:0|0:0,0:0:0:0:
0,192,4790,6,0,L|872:192,2,1220.00001817942,0|0|0,0:0|0:0|0:0,0:0:0:0:
0,192,4947,6,0,L|872:192,2,1220.00001817942,0|0|0,0:0|0:0|0:0,0:0:0:0:
0,192,5104,6,0,L|872:192,2,1220.00001817942,0|0|0,0:0|0:0|0:0,0:0:0:0:
0,192,5183,6,0,L|872:192,2,1220.00001817942,0|0|0,0:0|0:0|0:0,0:0:0:0:
0,192,5261,6,0,L|872:192,2,1220.00001817942,0|0|0,0:0|0:0|0:0,0:0:0:0:
0,192,5418,6,0,L|872:192,2,1220.00001817942,0|0|0,0:0|0:0|0:0,0:0:0:0:
0,192,5497,6,0,L|872:192,2,1220.00001817942,0|0|0,0:0|0:0|0:0,0:0:0:0:
0,192,5654,6,0,L|872:192,2,1220.00001817942,0|0|0,0:0|0:0|0:0,0:0:0:0:
0,192,5811,6,0,L|872:192,2,1220.00001817942,0|0|0,0:0|0:0|0:0,0:0:0:0:
0,192,5890,6,0,L|872:192,2,1220.00001817942,0|0|0,0:0|0:0|0:0,0:0:0:0:
0,192,5968,6,0,L|872:192,2,1220.00001817942,0|0|0,0:0|0:0|0:0,0:0:0:0:
0,192,6047,6,0,L|872:192,2,1220.00001817942,0|0|0,0:0|0:0|0:0,0:0:0:0:
0,192,6204,6,0,L|872:192,2,1220.00001817942,0|0|0,0:0|0:0|0:0,0:0:0:0:
0,192,6282,6,0,L|872:192,2,1220.00001817942,0|0|0,0:0|0:0|0:0,0:0:0:0:
0,192,6361,6,0,L|872:192,2,1220.00001817942,0|0|0,0:0|0:0|0:0,0:0:0:0:
0,192,6439,6,0,L|872:192,2,1220.00001817942,0|0|0,0:0|0:0|0:0,0:0:0:0:
0,192,6518,6,0,L|872:192,2,1220.00001817942,0|0|0,0:0|0:0|0:0,0:0:0:0:
0,192,6675,6,0,L|872:192,2,1220.00001817942,0|0|0,0:0|0:0|0:0,0:0:0:0:
0,192,6753,6,0,L|872:192,2,1220.00001817942,0|0|0,0:0|0:0|0:0,0:0:0:0:
0,192,6832,6,0,L|872:192,2,1220.00001817942,0|0|0,0:0|0:0|0:0,0:0:0:0:
0,192,6989,6,0,L|872:192,2,1220.00001817942,0|0|0,0:0|0:0|0:0,0:0:0:0:
0,192,7146,6,0,L|872:192,2,1220.00001817942,0|0|0,0:0|0:0|0:0,0:0:0:0:
0,192,7225,6,0,L|872:192,2,1220.00001817942,0|0|0,0:0|0:0|0:0,0:0:0:0:
0,192,7303,6,0,L|872:192,2,1220.00001817942,0|0|0,0:0|0:0|0:0,0:0:0:0:
0,192,7382,6,0,L|872:192,2,1220.00001817942,0|0|0,0:0|0:0|0:0,0:0:0:0:
0,192,7460,6,0,L|872:192,2,1220.00001817942,0|0|0,0:0|0:0|0:0,0:0:0:0:
0,192,7539,6,0,L|872:192,2,1220.00001817942,0|0|0,0:0|0:0|0:0,0:0:0:0:
0,192,7617,6,0,L|872:192,2,1220.00001817942,0|0|0,0:0|0:0|0:0,0:0:0:0:
0,192,7696,6,0,L|872:192,2,1220.00001817942,0|0|0,0:0|0:0|0:0,0:0:0:0:
0,192,7774,6,0,L|872:192,2,1220.00001817942,0|0|0,0:0|0:0|0:0,0:0:0:0:
0,192,7853,6,0,L|872:192,2,1220.00001817942,0|0|0,0:0|0:0|0:0,0:0:0:0:
0,192,8010,6,0,L|872:192,2,1220.00001817942,0|0|0,0:0|0:0|0:0,0:0:0:0:
0,192,8167,6,0,L|872:192,2,1220.00001817942,0|0|0,0:0|0:0|0:0,0:0:0:0:
0,192,8246,6,0,L|872:192,2,1220.00001817942,0|0|0,0:0|0:0|0:0,0:0:0:0:
0,192,8324,6,0,L|872:192,2,1220.00001817942,0|0|0,0:0|0:0|0:0,0:0:0:0:
0,192,8403,6,0,L|872:192,2,1220.00001817942,0|0|0,0:0|0:0|0:0,0:0:0:0:
0,192,8560,6,0,L|872:192,2,1220.00001817942,0|0|0,0:0|0:0|0:0,0:0:0:0:
0,192,8638,6,0,L|872:192,2,1220.00001817942,0|0|0,0:0|0:0|0:0,0:0:0:0:
0,192,8717,6,0,L|872:192,2,1220.00001817942,0|0|0,0:0|0:0|0:0,0:0:0:0:
0,192,8952,6,0,L|872:192,2,1220.00001817942,0|0|0,0:0|0:0|0:0,0:0:0:0:
0,192,9031,6,0,L|872:192,2,1220.00001817942,0|0|0,0:0|0:0|0:0,0:0:0:0:
0,192,9109,6,0,L|872:192,2,1220.00001817942,0|0|0,0:0|0:0|0:0,0:0:0:0:
0,192,9267,6,0,L|872:192,2,1220.00001817942,0|0|0,0:0|0:0|0:0,0:0:0:0:
0,192,9345,6,0,L|872:192,2,1220.00001817942,0|0|0,0:0|0:0|0:0,0:0:0:0:
0,192,9502,6,0,L|872:192,2,1220.00001817942,0|0|0,0:0|0:0|0:0,0:0:0:0:
0,192,9581,6,0,L|872:192,2,1220.00001817942,0|0|0,0:0|0:0|0:0,0:0:0:0:
0,192,9659,6,0,L|872:192,2,1220.00001817942,0|0|0,0:0|0:0|0:0,0:0:0:0:
0,192,9738,6,0,L|872:192,2,1220.00001817942,0|0|0,0:0|0:0|0:0,0:0:0:0:
0,192,9895,6,0,L|872:192,2,1220.00001817942,0|0|0,0:0|0:0|0:0,0:0:0:0:
0,192,10052,6,0,L|872:192,2,1220.00001817942,0|0|0,0:0|0:0|0:0,0:0:0:0:
0,192,10130,6,0,L|872:192,2,1220.00001817942,0|0|0,0:0|0:0|0:0,0:0:0:0:
0,192,10287,6,0,L|872:192,2,1220.00001817942,0|0|0,0:0|0:0|0:0,0:0:0:0:
0,192,10445,6,0,L|872:192,2,1220.00001817942,0|0|0,0:0|0:0|0:0,0:0:0:0:
0,192,10523,6,0,L|872:192,2,1220.00001817942,0|0|0,0:0|0:0|0:0,0:0:0:0:
0,192,10602,6,0,L|872:192,2,1220.00001817942,0|0|0,0:0|0:0|0:0,0:0:0:0:
0,192,10680,6,0,L|872:192,2,1220.00001817942,0|0|0,0:0|0:0|0:0,0:0:0:0:
0,192,10837,6,0,L|872:192,2,1220.00001817942,0|0|0,0:0|0:0|0:0,0:0:0:0:
0,192,11073,6,0,L|872:192,2,1220.00001817942,0|0|0,0:0|0:0|0:0,0:0:0:0:
0,192,11230,6,0,L|872:192,2,1220.00001817942,0|0|0,0:0|0:0|0:0,0:0:0:0:
0,192,11387,6,0,L|872:192,2,1220.00001817942,0|0|0,0:0|0:0|0:0,0:0:0:0:
0,192,11465,6,0,L|872:192,2,1220.00001817942,0|0|0,0:0|0:0|0:0,0:0:0:0:
0,192,11623,6,0,L|872:192,2,1220.00001817942,0|0|0,0:0|0:0|0:0,0:0:0:0:
0,192,11701,6,0,L|872:192,2,1220.00001817942,0|0|0,0:0|0:0|0:0,0:0:0:0:
0,192,11780,6,0,L|872:192,2,1220.00001817942,0|0|0,0:0|0:0|0:0,0:0:0:0:
0,192,11858,6,0,L|872:192,2,1220.00001817942,0|0|0,0:0|0:0|0:0,0:0:0:0:
0,192,11937,6,0,L|872:192,2,1220.00001817942,0|0|0,0:0|0:0|0:0,0:0:0:0:
0,192,12172,6,0,L|872:192,2,1220.00001817942,0|0|0,0:0|0:0|0:0,0:0:0:0:
0,192,12329,6,0,L|872:192,2,1220.00001817942,0|0|0,0:0|0:0|0:0,0:0:0:0:
0,192,12486,6,0,L|872:192,2,1220.00001817942,0|0|0,0:0|0:0|0:0,0:0:0:0:
0,192,12643,6,0,L|872:192,2,1220.00001817942,0|0|0,0:0|0:0|0:0,0:0:0:0:
0,192,12722,6,0,L|872:192,2,1220.00001817942,0|0|0,0:0|0:0|0:0,0:0:0:0:
0,192,12801,6,0,L|872:192,2,1220.00001817942,0|0|0,0:0|0:0|0:0,0:0:0:0:
0,192,12879,6,0,L|872:192,2,1220.00001817942,0|0|0,0:0|0:0|0:0,0:0:0:0:
0,192,13036,6,0,L|872:192,2,1220.00001817942,0|0|0,0:0|0:0|0:0,0:0:0:0:
0,192,13115,6,0,L|872:192,2,1220.00001817942,0|0|0,0:0|0:0|0:0,0:0:0:0:
0,192,13272,6,0,L|872:192,2,1220.00001817942,0|0|0,0:0|0:0|0:0,0:0:0:0:
0,192,13350,6,0,L|872:192,2,1220.00001817942,0|0|0,0:0|0:0|0:0,0:0:0:0:
0,192,13507,6,0,L|872:192,2,1220.00001817942,0|0|0,0:0|0:0|0:0,0:0:0:0:
0,192,13743,6,0,L|872:192,2,1220.00001817942,0|0|0,0:0|0:0|0:0,0:0:0:0:
0,192,13821,6,0,L|872:192,2,1220.00001817942,0|0|0,0:0|0:0|0:0,0:0:0:0:
0,192,13900,6,0,L|872:192,2,1220.00001817942,0|0|0,0:0|0:0|0:0,0:0:0:0:
0,192,14136,6,0,L|872:192,2,1220.00001817942,0|0|0,0:0|0:0|0:0,0:0:0:0:
0,192,14214,6,0,L|872:192,2,1220.00001817942,0|0|0,0:0|0:0|0:0,0:0:0:0:
0,192,14293,6,0,L|872:192,2,1220.00001817942,0|0|0,0:0|0:0|0:0,0:0:0:0:
0,192,14450,6,0,L|872:192,2,1220.00001817942,0|0|0,0:0|0:0|0:0,0:0:0:0:
0,192,14528,6,0,L|872:192,2,1220.00001817942,0|0|0,0:0|0:0|0:0,0:0:0:0:
0,192,14764,6,0,L|872:192,2,1220.00001817942,0|0|0,0:0|0:0|0:0,0:0:0:0:
0,192,14921,6,0,L|872:192,2,1220.00001817942,0|0|0,0:0|0:0|0:0,0:0:0:0:
0,192,15078,6,0,L|872:192,2,1220.00001817942,0|0|0,0:0|0:0|0:0,0:0:0:0:
0,192,15314,6,0,L|872:192,2,1220.00001817942,0|0|0,0:0|0:0|0:0,0:0:0:0:
0,192,15471,6,0,L|872:192,2,1220.00001817942,0|0|0,0:0|0:0|0:0,0:0:0:0:
0,192,15628,6,0,L|872:192,2,1220.00001817942,0|0|0,0:0|0:0|0:0,0:0:0:0:
0,192,15706,6,0,L|872:192,2,1220.00001817942,0|0|0,0:0|0:0|0:0,0:0:0:0:
0,192,15863,6,0,L|872:192,2,1220.00001817942,0|0|0,0:0|0:0|0:0,0:0:0:0:
0,192,15942,6,0,L|872:192,2,1220.00001817942,0|0|0,0:0|0:0|0:0,0:0:0:0:
0,192,16099,6,0,L|872:192,2,1220.00001817942,0|0|0,0:0|0:0|0:0,0:0:0:0:
0,192,16256,6,0,L|872:192,2,1220.00001817942,0|0|0,0:0|0:0|0:0,0:0:0:0:
0,192,16492,6,0,L|872:192,2,1220.00001817942,0|0|0,0:0|0:0|0:0,0:0:0:0:
0,192,16727,6,0,L|872:192,2,1220.00001817942,0|0|0,0:0|0:0|0:0,0:0:0:0:
0,192,16884,6,0,L|872:192,2,1220.00001817942,0|0|0,0:0|0:0|0:0,0:0:0:0:
0,192,17041,6,0,L|872:192,2,1220.00001817942,0|0|0,0:0|0:0|0:0,0:0:0:0:
0,192,17120,6,0,L|872:192,2,1220.00001817942,0|0|0,0:0|0:0|0:0,0:0:0:0:
0,192,17277,6,0,L|872:192,2,1220.00001817942,0|0|0,0:0|0:0|0:0,0:0:0:0:
0,192,17513,6,0,L|872:192,2,1220.00001817942,0|0|0,0:0|0:0|0:0,0:0:0:0:
0,192,17670,6,0,L|872:192,2,1220.00001817942,0|0|0,0:0|0:0|0:0,0:0:0:0:
0,192,17827,6,0,L|872:192,2,1220.00001817942,0|0|0,0:0|0:0|0:0,0:0:0:0:
0,192,17905,6,0,L|872:192,2,1220.00001817942,0|0|0,0:0|0:0|0:0,0:0:0:0:
0,192,18062,6,0,L|872:192,2,1220.00001817942,0|0|0,0:0|0:0|0:0,0:0:0:0:
0,192,18219,6,0,L|872:192,2,1220.00001817942,0|0|0,0:0|0:0|0:0,0:0:0:0:
0,192,18534,6,0,L|872:192,2,1220.00001817942,0|0|0,0:0|0:0|0:0,0:0:0:0:
0,192,18612,6,0,L|872:192,2,1220.00001817942,0|0|0,0:0|0:0|0:0,0:0:0:0:
0,192,18691,6,0,L|872:192,2,1220.00001817942,0|0|0,0:0|0:0|0:0,0:0:0:0:
0,192,18926,6,0,L|872:192,2,1220.00001817942,0|0|0,0:0|0:0|0:0,0:0:0:0:
0,192,19083,6,0,L|872:192,2,1220.00001817942,0|0|0,0:0|0:0|0:0,0:0:0:0:
0,192,19162,6,0,L|872:192,2,1220.00001817942,0|0|0,0:0|0:0|0:0,0:0:0:0:
0,192,19240,6,0,L|872:192,2,1220.00001817942,0|0|0,0:0|0:0|0:0,0:0:0:0:
0,192,19476,6,0,L|872:192,2,1220.00001817942,0|0|0,0:0|0:0|0:0,0:0:0:0:
0,192,19554,6,0,L|872:192,2,1220.00001817942,0|0|0,0:0|0:0|0:0,0:0:0:0:
0,192,19790,6,0,L|872:192,2,1220.00001817942,0|0|0,0:0|0:0|0:0,0:0:0:0:
0,192,20026,6,0,L|872:192,2,1220.00001817942,0|0|0,0:0|0:0|0:0,0:0:0:0:
0,192,20261,6,0,L|872:192,2,1220.00001817942,0|0|0,0:0|0:0|0:0,0:0:0:0:
0,192,20418,6,0,L|872:192,2,1220.00001817942,0|0|0,0:0|0:0|0:0,0:0:0:0:
0,192,20654,6,0,L|872:192,2,1220.00001817942,0|0|0,0:0|0:0|0:0,0:0:0:0:
0,192,20811,6,0,L|872:192,2,1220.00001817942,0|0|0,0:0|0:0|0:0,0:0:0:0:
0,192,20890,6,0,L|872:192,2,1220.00001817942,0|0|0,0:0|0:0|0:0,0:0:0:0:
0,192,21047,6,0,L|872:192,2,1220.00001817942,0|0|0,0:0|0:0|0:0,0:0:0:0:
0,192,21282,6,0,L|872:192,2,1220.00001817942,0|0|0,0:0|0:0|0:0,0:0:0:0:
0,192,21439,6,0,L|872:192,2,1220.00001817942,0|0|0,0:0|0:0|0:0,0:0:0:0:
0,192,21675,6,0,L|872:192,2,1220.00001817942,0|0|0,0:0|0:0|0:0,0:0:0:0:
0,192,21832,6,0,L|872:192,2,1220.00001817942,0|0|0,0:0|0:0|0:0,0:0:0:0:
