osu file format v13

[General]
AudioFilename: ayy lmao.mp3
AudioLeadIn: 0
PreviewTime: -1
Countdown: 1
SampleSet: None
StackLeniency: 0.7
Mode: 3
LetterboxInBreaks: 1
SpecialStyle: 0
WidescreenStoryboard: 1

[Editor]
DistanceSpacing: 0.5
BeatDivisor: 4
GridSize: 32
TimelineZoom: 1.700001

[Metadata]
Title:lmao
TitleUnicode:lmao
Artist:ayy
ArtistUnicode:ayy
Creator:Pokie7
Version:ayy 7umbrellas
Source:
Tags:ayy lmao
BeatmapID:571983
BeatmapSetID:248428

[Difficulty]
HPDrainRate:6
CircleSize:7
OverallDifficulty:8
ApproachRate:9
SliderMultiplier:1.8
SliderTickRate:1

[Events]
//Background and Video events
0,0,"bg.jpg",0,0
//Break Periods
//Storyboard Layer 0 (Background)
//Storyboard Layer 1 (Fail)
//Storyboard Layer 2 (Pass)
//Storyboard Layer 3 (Foreground)
//Storyboard Sound Samples

[TimingPoints]
0,314.13612565445,4,3,0,70,1,0
1256,-166.666666666667,4,3,0,70,0,0
1413,-58.8235294117647,4,3,0,70,0,0
1570,-100,4,3,0,70,0,0
1884,-166.666666666667,4,3,0,70,0,0
2041,-58.8235294117647,4,3,0,70,0,0
2198,-100,4,3,0,70,0,0
5026,-1000,4,3,0,70,0,0
5104,-100,4,3,0,70,0,0
5183,-33.3333333333333,4,3,0,70,0,0
5261,-181.818181818181,4,3,0,70,0,0
5340,-100,4,3,0,70,0,0
7225,-10,4,3,0,70,0,0
7303,-66.6666666666667,4,3,0,70,0,0
7382,-100,4,3,0,70,0,0
9738,-133.333333333333,4,3,0,70,0,0
10366,-10,4,3,0,70,0,0
10445,-133.333333333333,4,3,0,70,0,0
10523,-66.6666666666667,4,3,0,70,0,0
10602,-133.333333333333,4,3,0,70,0,0
10680,-100,4,3,0,70,0,0
12879,-133.333333333333,4,3,0,70,0,0
12958,-66.6666666666667,4,3,0,70,0,0
13036,-100,4,3,0,70,0,0
13193,-133.333333333333,4,3,0,70,0,0
13272,-66.6666666666667,4,3,0,70,0,0
13350,-100,4,3,0,70,0,0

[HitObjects]
36,192,314,5,0,0:0:0:0:
475,192,314,128,0,785:0:0:0:0:
109,192,392,1,0,0:0:0:0:
182,192,471,1,0,0:0:0:0:
402,192,628,1,0,0:0:0:0:
329,192,706,1,0,0:0:0:0:
182,192,785,1,0,0:0:0:0:
256,192,785,128,0,1256:0:0:0:0:
109,192,863,1,0,0:0:0:0:
36,192,942,1,0,0:0:0:0:
36,192,1256,1,0,0:0:0:0:
109,192,1256,1,0,0:0:0:0:
109,192,1413,1,0,0:0:0:0:
182,192,1413,1,0,0:0:0:0:
182,192,1570,1,0,0:0:0:0:
256,192,1570,1,0,0:0:0:0:
475,192,1884,1,0,0:0:0:0:
402,192,1884,1,0,0:0:0:0:
329,192,2041,1,0,0:0:0:0:
182,192,2041,1,0,0:0:0:0:
36,192,2198,1,0,0:0:0:0:
109,192,2198,1,0,0:0:0:0:
475,192,2198,128,0,2513:0:0:0:0:
182,192,2277,1,0,0:0:0:0:
256,192,2356,1,0,0:0:0:0:
329,192,2434,1,0,0:0:0:0:
182,192,2513,1,0,0:0:0:0:
402,192,2513,128,0,4083:0:0:0:0:
109,192,2591,1,0,0:0:0:0:
36,192,2670,1,0,0:0:0:0:
182,192,2748,1,0,0:0:0:0:
475,192,2827,1,0,0:0:0:0:
329,192,2827,1,0,0:0:0:0:
182,192,2905,1,0,0:0:0:0:
36,192,2984,1,0,0:0:0:0:
109,192,3062,1,0,0:0:0:0:
475,192,3141,1,0,0:0:0:0:
182,192,3141,1,0,0:0:0:0:
329,192,3219,1,0,0:0:0:0:
475,192,3298,1,0,0:0:0:0:
182,192,3298,1,0,0:0:0:0:
109,192,3376,1,0,0:0:0:0:
36,192,3376,1,0,0:0:0:0:
475,192,3455,1,0,0:0:0:0:
182,192,3455,1,0,0:0:0:0:
256,192,3534,1,0,0:0:0:0:
329,192,3612,1,0,0:0:0:0:
256,192,3691,1,0,0:0:0:0:
475,192,3769,1,0,0:0:0:0:
182,192,3769,1,0,0:0:0:0:
36,192,3848,1,0,0:0:0:0:
109,192,3848,1,0,0:0:0:0:
475,192,3926,1,0,0:0:0:0:
329,192,3926,128,0,5026:0:0:0:0:
256,192,4005,1,0,0:0:0:0:
182,192,4005,1,0,0:0:0:0:
475,192,4083,1,0,0:0:0:0:
36,192,4162,1,0,0:0:0:0:
256,192,4319,1,0,0:0:0:0:
182,192,4319,1,0,0:0:0:0:
475,192,4397,1,0,0:0:0:0:
36,192,4554,1,0,0:0:0:0:
475,192,4712,1,0,0:0:0:0:
256,192,4712,1,0,0:0:0:0:
182,192,4712,1,0,0:0:0:0:
36,192,4869,1,0,0:0:0:0:
256,192,4947,1,0,0:0:0:0:
182,192,4947,1,0,0:0:0:0:
475,192,5026,1,0,0:0:0:0:
36,192,5340,128,0,6282:0:0:0:0:
109,192,5340,1,0,0:0:0:0:
475,192,5497,128,0,6282:0:0:0:0:
402,192,5497,1,0,0:0:0:0:
109,192,5654,128,0,6282:0:0:0:0:
182,192,5654,1,0,0:0:0:0:
402,192,5811,128,0,6282:0:0:0:0:
329,192,5811,1,0,0:0:0:0:
256,192,5968,128,0,6282:0:0:0:0:
182,192,5968,1,0,0:0:0:0:
182,192,6125,128,0,6282:0:0:0:0:
329,192,6125,1,0,0:0:0:0:
329,192,6282,128,0,7225:0:0:0:0:
182,192,6439,1,0,0:0:0:0:
36,192,6439,128,0,9109:0:0:0:0:
256,192,6518,1,0,0:0:0:0:
402,192,6596,1,0,0:0:0:0:
182,192,6753,1,0,0:0:0:0:
256,192,6832,1,0,0:0:0:0:
402,192,6910,1,0,0:0:0:0:
182,192,7068,1,0,0:0:0:0:
256,192,7146,1,0,0:0:0:0:
402,192,7225,1,0,0:0:0:0:
109,192,7225,128,0,7853:0:0:0:0:
182,192,7225,1,0,0:0:0:0:
475,192,7303,1,0,0:0:0:0:
182,192,7460,1,0,0:0:0:0:
475,192,7539,1,0,0:0:0:0:
256,192,7617,1,0,0:0:0:0:
475,192,7696,1,0,0:0:0:0:
475,192,7853,1,0,0:0:0:0:
109,192,8010,1,0,0:0:0:0:
475,192,8167,1,0,0:0:0:0:
182,192,8324,1,0,0:0:0:0:
475,192,8481,1,0,0:0:0:0:
256,192,8638,1,0,0:0:0:0:
475,192,8795,1,0,0:0:0:0:
329,192,8952,1,0,0:0:0:0:
475,192,9109,1,0,0:0:0:0:
402,192,9267,1,0,0:0:0:0:
475,192,9424,1,0,0:0:0:0:
475,192,9581,1,0,0:0:0:0:
475,192,9738,128,0,10680:0:0:0:0:
402,192,9738,1,0,0:0:0:0:
402,192,10052,1,0,0:0:0:0:
256,192,10209,1,0,0:0:0:0:
109,192,10366,1,0,0:0:0:0:
182,192,10445,1,0,0:0:0:0:
256,192,10523,1,0,0:0:0:0:
36,192,10680,1,0,0:0:0:0:
329,192,10680,1,0,0:0:0:0:
475,192,10837,1,0,0:0:0:0:
182,192,10837,1,0,0:0:0:0:
36,192,10994,1,0,0:0:0:0:
475,192,10994,1,0,0:0:0:0:
109,192,11151,1,0,0:0:0:0:
475,192,11151,1,0,0:0:0:0:
475,192,11308,1,0,0:0:0:0:
182,192,11308,128,0,11780:0:0:0:0:
475,192,11387,1,0,0:0:0:0:
475,192,11465,1,0,0:0:0:0:
36,192,11465,1,0,0:0:0:0:
36,192,11623,1,0,0:0:0:0:
36,192,11701,1,0,0:0:0:0:
36,192,11780,1,0,0:0:0:0:
475,192,11780,1,0,0:0:0:0:
402,192,11937,1,0,0:0:0:0:
36,192,11937,1,0,0:0:0:0:
329,192,12094,1,0,0:0:0:0:
109,192,12094,1,0,0:0:0:0:
182,192,12251,1,0,0:0:0:0:
256,192,12408,1,0,0:0:0:0:
475,192,12408,1,0,0:0:0:0:
402,192,12565,1,0,0:0:0:0:
329,192,12722,1,0,0:0:0:0:
36,192,12879,1,0,0:0:0:0:
109,192,12958,1,0,0:0:0:0:
182,192,13036,1,0,0:0:0:0:
475,192,13193,1,0,0:0:0:0:
402,192,13272,1,0,0:0:0:0:
329,192,13350,1,0,0:0:0:0:
36,192,13507,1,0,0:0:0:0:
475,192,13586,1,0,0:0:0:0:
109,192,13664,1,0,0:0:0:0:
182,192,13821,1,0,0:0:0:0:
475,192,14136,1,0,0:0:0:0:
36,192,14214,1,0,0:0:0:0:
402,192,14214,1,0,0:0:0:0:
475,192,14293,1,0,0:0:0:0:
109,192,14293,1,0,0:0:0:0:
36,192,14371,1,0,0:0:0:0:
402,192,14371,1,0,0:0:0:0:
475,192,14450,1,0,0:0:0:0:
109,192,14450,1,0,0:0:0:0:
36,192,14528,1,0,0:0:0:0:
36,192,14764,128,0,16335:0:0:0:0:
109,192,14764,1,0,0:0:0:0:
182,192,14764,128,0,15392:0:0:0:0:
256,192,14764,1,0,0:0:0:0:
402,192,14921,1,0,0:0:0:0:
256,192,15078,1,0,0:0:0:0:
475,192,15235,1,0,0:0:0:0:
475,192,15392,1,0,0:0:0:0:
402,192,15471,1,0,0:0:0:0:
329,192,15549,1,0,0:0:0:0:
182,192,15628,1,0,0:0:0:0:
475,192,15628,1,0,0:0:0:0:
256,192,15706,1,0,0:0:0:0:
475,192,15706,1,0,0:0:0:0:
329,192,15785,1,0,0:0:0:0:
475,192,15785,1,0,0:0:0:0:
402,192,15863,1,0,0:0:0:0:
475,192,15863,1,0,0:0:0:0:
475,192,15942,1,0,0:0:0:0:
109,192,16020,1,0,0:0:0:0:
256,192,16020,128,0,16178:0:0:0:0:
182,192,16178,1,0,0:0:0:0:
329,192,16178,128,0,16492:0:0:0:0:
475,192,16335,1,0,0:0:0:0:
402,192,16492,1,0,0:0:0:0:
256,192,16492,128,0,16649:0:0:0:0:
182,192,16649,128,0,16963:0:0:0:0:
36,192,16649,1,0,0:0:0:0:
256,192,16727,1,0,0:0:0:0:
256,192,16806,128,0,16963:0:0:0:0:
475,192,16806,1,0,0:0:0:0:
36,192,16806,1,0,0:0:0:0:
329,192,16884,128,0,16963:0:0:0:0:
402,192,16963,128,0,17591:0:0:0:0:
36,192,16963,128,0,17120:0:0:0:0:
475,192,16963,1,0,0:0:0:0:
109,192,17120,128,0,17277:0:0:0:0:
182,192,17120,1,0,0:0:0:0:
329,192,17277,128,0,17434:0:0:0:0:
256,192,17277,1,0,0:0:0:0:
182,192,17434,128,0,17591:0:0:0:0:
109,192,17434,1,0,0:0:0:0:
329,192,17591,1,0,0:0:0:0:
36,192,17748,128,0,19162:0:0:0:0:
109,192,17748,1,0,0:0:0:0:
256,192,17905,1,0,0:0:0:0:
475,192,18219,128,0,19162:0:0:0:0:
