osu file format v14

[General]
AudioFilename: audio.mp3
AudioLeadIn: 0
PreviewTime: 27172
Countdown: 0
SampleSet: None
StackLeniency: 0.7
Mode: 2
LetterboxInBreaks: 0
WidescreenStoryboard: 0

[Editor]
Bookmarks: 5922,11255,16588,21922,27255,32588,37922,43588,48588,53922,59255,64588,69922,75255,80588,85922,91255,101922,107255,112588,117922
DistanceSpacing: 1.3
BeatDivisor: 4
GridSize: 4
TimelineZoom: 1.7

[Metadata]
Title:yuima-ru*world
TitleUnicode:ゆいまーる☆わーるど
Artist:ayase rie
ArtistUnicode:綾瀬 理恵
Creator:dika312
Version:Rain
Source:はいたい七葉
Tags:full haitai nanafa
BeatmapID:1646348
BeatmapSetID:784106

[Difficulty]
HPDrainRate:6
CircleSize:3.8
OverallDifficulty:9
ApproachRate:9
SliderMultiplier:1.8
SliderTickRate:1

[Events]
//Background and Video events
0,0,"haitai.jpg",0,0
//Break Periods
//Storyboard Layer 0 (Background)
//Storyboard Layer 1 (Fail)
//Storyboard Layer 2 (Pass)
//Storyboard Layer 3 (Foreground)
//Storyboard Sound Samples

[TimingPoints]
589,333.333333333333,4,2,0,65,1,0
5922,-100,4,2,0,50,0,0
11255,-100,4,2,0,65,0,0
16588,-100,4,2,0,50,0,0
21922,-100,4,2,0,65,0,0
27255,-100,4,2,0,80,0,1
33255,-100,4,2,0,60,0,1
33338,-100,4,2,0,65,0,1
33422,-100,4,2,0,70,0,1
33505,-100,4,2,0,75,0,1
33588,-100,4,2,0,80,0,1
33672,-100,4,2,0,85,0,1
33755,-100,4,2,0,90,0,1
33922,-100,4,2,0,80,0,1
34588,-100,4,2,0,60,0,1
34672,-100,4,2,0,65,0,1
34755,-100,4,2,0,70,0,1
34838,-100,4,2,0,75,0,1
34922,-100,4,2,0,80,0,1
35005,-100,4,2,0,85,0,1
35088,-100,4,2,0,90,0,1
35255,-100,4,2,0,80,0,1
43755,-100,4,2,0,60,0,1
44172,-100,4,2,0,70,0,1
44588,-100,4,2,0,80,0,1
45088,-100,4,2,0,60,0,1
45505,-100,4,2,0,70,0,1
45922,-100,4,2,0,80,0,1
47922,-100,4,2,0,80,0,0
48588,-100,4,2,0,50,0,0
53922,-100,4,2,0,65,0,0
59255,-100,4,2,0,50,0,0
64588,-100,4,2,0,65,0,0
69922,-100,4,2,0,80,0,1
75755,-100,4,2,0,60,0,1
75838,-100,4,2,0,63,0,1
75922,-100,4,2,0,66,0,1
76005,-100,4,2,0,69,0,1
76088,-100,4,2,0,72,0,1
76172,-100,4,2,0,75,0,1
76255,-100,4,2,0,78,0,1
76338,-100,4,2,0,81,0,1
76422,-100,4,2,0,84,0,1
76505,-100,4,2,0,87,0,1
76588,-100,4,2,0,80,0,1
77088,-100,4,2,0,63,0,1
77172,-100,4,2,0,66,0,1
77255,-100,4,2,0,69,0,1
77338,-100,4,2,0,72,0,1
77422,-100,4,2,0,75,0,1
77505,-100,4,2,0,78,0,1
77588,-100,4,2,0,81,0,1
77672,-100,4,2,0,84,0,1
77755,-100,4,2,0,87,0,1
77838,-100,4,2,0,90,0,1
77922,-100,4,2,0,80,0,1
86422,-100,4,2,0,60,0,1
86838,-100,4,2,0,70,0,1
87255,-100,4,2,0,80,0,1
87755,-100,4,2,0,60,0,1
88172,-100,4,2,0,70,0,1
88588,-100,4,2,0,80,0,1
90755,-100,4,2,0,10,0,1
90838,-100,4,2,0,80,0,1
91005,-100,4,2,0,10,0,1
91088,-100,4,2,0,80,0,1
91172,-100,4,2,0,10,0,1
91255,-100,4,2,0,65,0,0
101255,-71.4285714285714,4,2,0,65,0,0
101922,-100,4,2,0,65,0,0
107255,-100,4,2,0,80,0,1
107755,-100,4,2,0,60,0,1
107838,-100,4,2,0,63,0,1
107922,-100,4,2,0,66,0,1
108005,-100,4,2,0,69,0,1
108088,-100,4,2,0,72,0,1
108172,-100,4,2,0,75,0,1
108255,-100,4,2,0,78,0,1
108338,-100,4,2,0,81,0,1
108422,-100,4,2,0,84,0,1
108505,-100,4,2,0,87,0,1
108588,-100,4,2,0,80,0,1
109088,-100,4,2,0,60,0,1
109172,-100,4,2,0,63,0,1
109255,-100,4,2,0,66,0,1
109338,-100,4,2,0,69,0,1
109422,-100,4,2,0,72,0,1
109505,-100,4,2,0,75,0,1
109588,-100,4,2,0,78,0,1
109672,-100,4,2,0,81,0,1
109755,-100,4,2,0,84,0,1
109838,-100,4,2,0,87,0,1
109922,-100,4,2,0,80,0,1
118422,-100,4,2,0,60,0,1
118838,-100,4,2,0,70,0,1
119255,-100,4,2,0,80,0,1
119755,-100,4,2,0,60,0,1
120172,-100,4,2,0,70,0,1
120588,-100,4,2,0,80,0,1
122588,-100,4,2,0,80,0,0

[HitObjects]
79,255,589,6,0,L|67:151,1,90,2|0,0:0|3:0,0:0:0:0:
204,195,922,2,0,L|219:88,1,90,8|0,0:0|0:0,0:0:0:0:
79,255,1255,2,0,L|67:151,1,90,2|0,0:0|0:0,0:0:0:0:
204,195,1588,2,0,L|219:88,1,90,8|2,0:0|0:0,0:0:0:0:
79,255,1922,1,0,3:0:0:0:
207,259,2088,1,0,3:0:0:0:
443,259,2255,6,0,L|455:155,1,90,8|0,0:0|0:0,0:0:0:0:
315,199,2588,2,0,L|299:92,1,90,2|0,0:0|0:0,0:0:0:0:
443,259,2921,2,0,L|455:155,1,90,8|0,0:0|0:0,0:0:0:0:
399,131,3255,1,0,3:0:0:0:
283,140,3422,1,0,3:0:0:0:
55,259,3588,6,0,L|44:155,1,90,8|0,0:0|0:0,0:0:0:0:
100,131,3922,1,0,3:0:0:0:
211,140,4089,1,0,3:0:0:0:
447,247,4255,1,8,0:0:0:0:
187,251,4422,2,0,L|191:135,1,90,2|0,0:0|0:0,0:0:0:0:
306,159,4755,5,2,0:0:0:0:
167,235,4922,2,0,L|55:235,1,90,8|0,0:0|0:0,0:0:0:0:
335,235,5255,2,0,L|443:235,1,90,8|0,0:0|0:0,0:0:0:0:
167,235,5588,2,0,B|127:135,1,90,8|0,0:0|0:0,0:0:0:0:
379,163,5922,5,0,3:0:0:0:
447,219,6088,1,8,3:0:0:0:
451,311,6255,1,0,0:0:0:0:
379,367,6422,1,0,0:0:0:0:
231,303,6588,2,0,L|311:242,2,90
139,298,7088,5,0,1:0:0:0:
287,263,7255,1,0,0:0:0:0:
303,207,7422,1,0,1:0:0:0:
147,187,7588,1,0,0:0:0:0:
100,187,7922,1,0,0:0:0:0:
283,227,8255,2,0,L|287:119,1,90,0|0,3:0|3:0,3:0:0:0:
131,163,8588,5,0,3:0:0:0:
63,219,8754,1,8,3:0:0:0:
59,311,8921,1,0,0:0:0:0:
131,367,9088,1,0,0:0:0:0:
279,303,9254,2,0,L|199:242,2,90
371,298,9754,5,0,1:0:0:0:
223,263,9921,1,0,0:0:0:0:
207,207,10088,1,0,1:0:0:0:
362,187,10254,1,8,3:0:0:0:
410,227,10588,1,0,3:0:0:0:
439,175,10755,1,8,3:0:0:0:
199,143,10922,1,12,0:0:0:0:
127,159,11255,6,0,L|107:263,1,90,0|0,3:0|3:0,0:0:0:0:
256,187,11588,2,0,L|275:291,1,90,8|0,0:0|0:0,0:0:0:0:
123,263,11922,1,0,0:0:0:0:
267,263,12088,1,0,3:0:0:0:
311,215,12255,1,8,0:0:0:0:
267,179,12422,1,0,1:0:0:0:
115,175,12588,6,0,L|195:115,3,90,0|0|8|0,0:0|1:0|0:0|0:0,0:0:0:0:
48,119,13255,2,0,L|31:231,1,90,0|0,3:0|3:0,0:0:0:0:
279,199,13588,1,12,0:0:0:0:
383,159,13922,6,0,L|403:263,1,90,0|0,3:0|3:0,0:0:0:0:
256,187,14255,2,0,L|235:291,1,90,8|0,0:0|0:0,0:0:0:0:
387,263,14589,1,0,3:0:0:0:
243,263,14755,1,0,3:0:0:0:
199,215,14922,1,8,0:0:0:0:
243,179,15089,1,0,1:0:0:0:
387,175,15255,5,0,0:0:0:0:
243,179,15422,1,0,1:0:0:0:
387,175,15588,1,0,3:0:0:0:
320,120,15755,1,0,3:0:0:0:
388,96,15922,2,0,L|460:180,1,90,0|0,3:0|0:0,0:0:0:0:
220,112,16255,1,12,0:0:0:0:
104,115,16588,5,2,0:0:0:0:
80,156,16755,1,2,0:0:0:0:
107,192,16922,1,2,0:0:0:0:
256,195,17088,1,2,0:0:0:0:
107,192,17255,1,10,0:0:0:0:
367,303,17588,2,0,L|403:203,1,90,8|0,0:0|0:0,0:0:0:0:
163,192,17922,6,0,L|59:192,3,90,2|2|2|2,0:0|0:0|0:0|0:0,0:0:0:0:
343,219,18588,1,2,0:0:0:0:
383,167,18755,1,0,3:0:0:0:
156,287,18922,2,0,L|119:187,1,90,8|0,0:0|0:0,0:0:0:0:
267,211,19255,6,0,L|371:211,4,90,2|2|2|2|10,0:0|0:0|0:0|0:0|0:0,0:0:0:0:
131,294,20255,2,0,L|96:195,1,90,8|0,0:0|0:0,0:0:0:0:
406,115,20588,5,2,0:0:0:0:
460,156,20755,1,2,0:0:0:0:
403,192,20922,1,2,0:0:0:0:
272,192,21088,1,2,0:0:0:0:
396,192,21255,1,2,0:0:0:0:
71,239,21422,2,0,L|15:287,2,45,2|0|2,0:0|0:0|0:0,0:0:0:0:
327,255,21672,2,0,L|391:255,2,45,2|0|2,0:0|0:0|0:0,0:0:0:0:
156,223,21922,6,0,L|35:223,1,90,2|0,0:0|0:0,0:0:0:0:
295,179,22255,2,0,L|323:59,1,90,8|0,0:0|0:0,0:0:0:0:
159,235,22588,2,0,L|131:115,1,90,2|0,0:0|0:0,0:0:0:0:
375,223,22922,2,0,L|495:223,1,90,8|0,0:0|0:0,0:0:0:0:
231,223,23255,6,0,L|111:223,1,90,2|0,0:0|0:0,0:0:0:0:
295,219,23588,2,0,L|323:99,1,90,8|0,0:0|0:0,0:0:0:0:
156,179,23922,2,0,L|35:179,1,90,2|0,0:0|0:0,0:0:0:0:
358,179,24255,2,0,L|471:179,1,90,8|0,0:0|0:0,0:0:0:0:
156,223,24588,6,0,L|107:119,1,90,8|0,0:0|0:0,0:0:0:0:
347,223,24922,6,0,L|395:119,1,90,8|0,0:0|0:0,0:0:0:0:
135,231,25255,6,0,L|79:111,1,90,8|0,0:0|0:0,0:0:0:0:
370,231,25588,5,8,0:0:0:0:
143,223,25755,1,4,0:0:0:0:
67,223,26088,5,2,0:0:0:0:
295,227,26255,1,0,0:0:0:0:
196,228,26422,1,2,0:0:0:0:
424,236,26588,1,2,0:0:0:0:
480,260,26672,1,0,0:0:0:0:
480,320,26755,1,2,0:0:0:0:
428,344,26838,1,0,0:0:0:0:
191,347,26922,1,6,0:0:0:0:
104,342,27255,6,0,L|235:335,1,90,2|0,0:0|0:0,0:0:0:0:
423,342,27588,2,0,L|291:335,1,90,8|0,0:0|0:0,0:0:0:0:
104,239,27922,2,0,L|87:119,1,90,2|0,0:0|0:0,0:0:0:0:
259,223,28255,2,0,L|275:103,1,90,8|0,0:0|0:0,0:0:0:0:
104,131,28588,5,2,0:0:0:0:
52,99,28755,1,2,0:0:0:0:
104,79,28922,1,10,0:0:0:0:
247,79,29088,1,2,0:0:0:0:
104,79,29255,1,0,0:0:0:0:
247,79,29422,1,2,0:0:0:0:
104,79,29588,1,10,0:0:0:0:
71,127,29755,1,2,0:0:0:0:
427,342,29922,6,0,L|295:335,1,90,2|0,0:0|0:0,0:0:0:0:
107,342,30255,2,0,L|239:335,1,90,8|0,0:0|0:0,0:0:0:0:
427,239,30589,2,0,L|443:119,1,90,2|0,0:0|0:0,0:0:0:0:
271,223,30922,2,0,L|256:103,1,90,8|0,0:0|0:0,0:0:0:0:
406,119,31255,6,0,L|487:59,2,90,2|2|10,0:0|0:0|0:0,0:0:0:0:
171,183,31755,1,0,0:0:0:0:
115,163,31838,1,0,0:0:0:0:
115,103,31922,1,2,0:0:0:0:
171,83,32005,1,2,0:0:0:0:
319,111,32088,2,0,L|383:107,1,45,2|0,0:0|0:0,0:0:0:0:
183,119,32255,2,0,L|115:119,1,45,2|0,0:0|0:0,0:0:0:0:
311,111,32422,2,0,L|335:171,1,45,2|0,0:0|0:0,0:0:0:0:
152,247,32588,5,2,0:0:0:0:
48,192,32755,1,2,0:0:0:0:
107,119,32922,1,8,0:0:0:0:
343,119,33088,1,0,0:0:0:0:
462,175,33255,2,0,L|483:239,6,45,2|2|2|0|2|2|2,0:0|0:0|0:0|0:0|0:0|0:0|0:0,0:0:0:0:
152,247,33922,5,2,0:0:0:0:
48,192,34089,1,2,0:0:0:0:
107,119,34256,1,8,0:0:0:0:
343,119,34422,1,0,0:0:0:0:
462,175,34589,2,0,L|483:239,6,45,2|2|2|0|2|2|2,0:0|0:0|0:0|0:0|0:0|0:0|0:0,0:0:0:0:
143,231,35255,6,0,L|35:231,1,90,2|0,0:0|0:0,0:0:0:0:
279,235,35588,2,0,L|311:143,1,90,8|0,0:0|0:0,0:0:0:0:
172,200,35922,1,2,0:0:0:0:
306,223,36088,2,0,L|339:131,1,90,0|8,3:0|0:0,0:0:0:0:
100,123,36422,6,0,P|48:187|115:259,1,180,2|0,0:0|0:0,0:0:0:0:
423,223,36922,2,0,L|423:107,1,90,8|0,0:0|0:0,0:0:0:0:
275,183,37256,2,0,L|271:67,1,90,8|0,0:0|0:0,0:0:0:0:
96,127,37588,1,8,0:0:0:0:
39,151,37672,1,0,0:0:0:0:
39,211,37755,1,0,0:0:0:0:
91,235,37838,1,0,0:0:0:0:
331,231,37922,6,0,L|435:231,1,90,2|0,0:0|0:0,0:0:0:0:
179,231,38255,2,0,L|75:231,1,90,8|0,0:0|0:0,0:0:0:0:
331,207,38588,2,0,L|347:88,1,90,2|0,0:0|0:0,0:0:0:0:
175,192,38922,2,0,L|159:71,1,90,8|0,0:0|0:0,0:0:0:0:
406,131,39255,5,2,0:0:0:0:
458,99,39422,1,2,0:0:0:0:
406,79,39589,1,10,0:0:0:0:
263,79,39755,1,2,0:0:0:0:
406,79,39922,1,0,0:0:0:0:
263,79,40089,1,2,0:0:0:0:
406,79,40255,1,10,0:0:0:0:
439,127,40422,1,2,0:0:0:0:
152,328,40588,6,0,L|20:321,1,90,2|0,0:0|0:0,0:0:0:0:
292,312,40921,2,0,L|424:305,1,90,8|0,0:0|0:0,0:0:0:0:
79,255,41255,2,0,L|63:135,1,90,2|0,0:0|0:0,0:0:0:0:
235,239,41588,2,0,L|251:119,1,90,8|0,0:0|0:0,0:0:0:0:
91,207,41922,5,2,0:0:0:0:
31,159,42089,1,2,0:0:0:0:
111,107,42255,1,10,0:0:0:0:
339,183,42422,1,0,0:0:0:0:
395,163,42505,1,0,0:0:0:0:
395,103,42589,1,2,0:0:0:0:
339,83,42672,1,2,0:0:0:0:
156,109,42755,2,0,L|91:105,1,45,2|0,0:0|0:0,0:0:0:0:
303,111,42922,2,0,L|371:111,1,45,2|0,0:0|0:0,0:0:0:0:
175,119,43089,2,0,L|152:179,1,45,2|0,0:0|0:0,0:0:0:0:
387,51,43255,5,2,0:0:0:0:
471,103,43422,1,2,0:0:0:0:
367,159,43588,1,8,0:0:0:0:
123,315,43755,5,0,0:0:0:0:
67,287,43838,1,0,0:0:0:0:
55,231,43922,1,2,0:0:0:0:
79,187,44005,1,2,0:0:0:0:
131,175,44088,1,2,0:0:0:0:
303,231,44172,1,0,0:0:0:0:
358,203,44255,1,2,0:0:0:0:
371,147,44339,1,2,0:0:0:0:
347,103,44422,1,2,0:0:0:0:
295,92,44505,1,0,0:0:0:0:
131,63,44588,5,2,0:0:0:0:
48,111,44755,1,2,0:0:0:0:
167,143,44922,1,8,0:0:0:0:
395,315,45088,1,0,0:0:0:0:
451,287,45171,1,0,0:0:0:0:
462,231,45255,1,2,0:0:0:0:
439,187,45338,1,2,0:0:0:0:
387,175,45421,1,2,0:0:0:0:
215,231,45505,1,0,0:0:0:0:
159,203,45588,1,2,0:0:0:0:
147,147,45672,1,2,0:0:0:0:
171,103,45755,1,2,0:0:0:0:
223,92,45838,1,0,0:0:0:0:
387,63,45921,5,2,0:0:0:0:
471,111,46088,1,0,0:0:0:0:
331,143,46255,1,8,0:0:0:0:
100,143,46422,1,0,0:0:0:0:
199,143,46588,1,2,0:0:0:0:
100,143,46755,1,2,0:0:0:0:
343,151,46922,1,8,0:0:0:0:
111,92,47088,6,0,P|48:131|123:175,1,180,4|0,0:0|0:0,0:0:0:0:
358,140,47588,1,8,0:0:0:0:
419,163,47672,1,0,1:0:0:0:
419,227,47755,1,0,1:0:0:0:
362,259,47838,1,0,1:0:0:0:
104,255,47922,1,4,0:0:0:0:
319,111,48588,5,0,3:0:0:0:
399,155,48755,1,8,3:0:0:0:
399,247,48922,1,0,0:0:0:0:
319,291,49088,1,0,0:0:0:0:
159,287,49255,2,0,P|104:235|175:175,1,180
391,179,49755,1,0,1:0:0:0:
288,176,49922,6,0,L|368:116,2,90,0|0|0,0:0|1:0|0:0,0:0:0:0:
160,176,50422,1,0,0:0:0:0:
303,171,50588,1,0,0:0:0:0:
414,175,50922,2,0,L|431:271,1,90,0|0,3:0|3:0,3:0:0:0:
191,111,51255,5,0,3:0:0:0:
111,155,51422,1,8,3:0:0:0:
111,247,51589,1,0,0:0:0:0:
191,291,51755,1,0,0:0:0:0:
336,268,51922,2,0,L|256:208,2,90
199,298,52422,1,0,1:0:0:0:
156,247,52589,5,0,0:0:0:0:
199,207,52755,1,0,1:0:0:0:
343,211,52922,1,8,3:0:0:0:
199,207,53089,1,0,0:0:0:0:
343,211,53255,1,0,3:0:0:0:
358,255,53422,1,8,3:0:0:0:
131,279,53588,1,12,0:0:0:0:
79,251,53922,6,0,L|55:350,1,90,0|0,3:0|3:0,0:0:0:0:
215,215,54255,2,0,L|239:315,1,90,8|0,0:0|0:0,0:0:0:0:
87,242,54588,2,0,L|167:183,2,90,0|0|8,0:0|3:0|0:0,0:0:0:0:
223,263,55088,1,0,1:0:0:0:
358,275,55255,6,0,L|279:215,2,90,0|0|8,0:0|1:0|0:0,0:0:0:0:
211,279,55755,1,0,0:0:0:0:
439,287,55922,2,0,L|455:183,1,90
207,175,56255,1,12,0:0:0:0:
87,251,56588,6,0,L|63:350,1,90,0|0,3:0|3:0,0:0:0:0:
223,215,56921,2,0,L|247:315,1,90,8|0,0:0|0:0,0:0:0:0:
96,242,57254,2,0,L|175:183,2,90,0|0|8,3:0|3:0|0:0,0:0:0:0:
331,263,57754,1,0,1:0:0:0:
391,195,57922,5,0,0:0:0:0:
347,115,58088,1,0,1:0:0:0:
208,116,58255,1,0,3:0:0:0:
347,115,58421,1,0,3:0:0:0:
71,287,58588,2,0,L|55:183,1,90,0|0,3:0|0:0,0:0:0:0:
291,175,58921,1,12,0:0:0:0:
420,84,59255,5,2,0:0:0:0:
464,168,59422,1,2,0:0:0:0:
436,272,59588,1,2,0:0:0:0:
336,304,59755,1,2,0:0:0:0:
180,308,59922,1,10,0:0:0:0:
355,311,60255,2,0,L|391:211,1,90,8|0,0:0|0:0,0:0:0:0:
127,107,60588,5,2,0:0:0:0:
35,167,60755,1,2,0:0:0:0:
52,275,60921,1,2,0:0:0:0:
156,311,61088,1,2,0:0:0:0:
331,311,61255,1,10,0:0:0:0:
156,311,61588,1,8,0:0:0:0:
263,311,61755,1,0,3:0:0:0:
107,315,61922,6,0,L|87:211,1,90,2|2,0:0|0:0,0:0:0:0:
243,239,62255,1,2,0:0:0:0:
335,239,62422,1,2,0:0:0:0:
179,207,62588,2,0,L|159:103,1,90,10|0,0:0|0:0,0:0:0:0:
319,123,62922,2,0,L|435:123,1,90,8|0,0:0|0:0,0:0:0:0:
152,119,63255,5,2,0:0:0:0:
91,92,63422,1,2,0:0:0:0:
147,67,63588,1,2,0:0:0:0:
280,72,63755,1,2,0:0:0:0:
156,68,63922,1,10,0:0:0:0:
427,239,64088,2,0,L|483:287,2,45,2|0|2,0:0|0:0|0:0,0:0:0:0:
171,255,64338,2,0,L|107:255,2,45,2|0|2,0:0|0:0|0:0,0:0:0:0:
355,223,64588,6,0,L|475:223,1,90,2|0,0:0|0:0,0:0:0:0:
211,179,64922,2,0,L|183:59,1,90,8|0,0:0|0:0,0:0:0:0:
335,167,65255,2,0,L|362:47,1,90,2|0,0:0|0:0,0:0:0:0:
123,207,65588,2,0,L|4:207,1,90,8|0,0:0|0:0,0:0:0:0:
355,223,65922,6,0,L|475:223,1,90,2|0,0:0|0:0,0:0:0:0:
211,192,66255,2,0,L|183:71,1,90,8|0,0:0|0:0,0:0:0:0:
339,175,66588,2,0,L|458:175,1,90,2|0,0:0|0:0,0:0:0:0:
159,175,66922,2,0,L|39:175,1,90,8|0,0:0|0:0,0:0:0:0:
343,211,67255,6,0,L|371:92,1,90,8|0,0:0|0:0,0:0:0:0:
123,211,67588,6,0,L|96:92,1,90,8|0,0:0|0:0,0:0:0:0:
343,211,67922,6,0,L|371:92,1,90,8|0,0:0|0:0,0:0:0:0:
123,211,68255,5,8,0:0:0:0:
367,211,68422,1,4,0:0:0:0:
435,207,68755,5,8,0:0:0:0:
199,215,68922,2,0,L|159:127,1,90,2|0,0:0|0:0,0:0:0:0:
395,103,69255,1,2,0:0:0:0:
443,123,69338,1,0,0:0:0:0:
443,183,69422,1,2,0:0:0:0:
395,215,69505,1,0,0:0:0:0:
180,208,69588,1,6,0:0:0:0:
410,335,69922,6,0,L|279:327,1,90,2|0,0:0|0:0,0:0:0:0:
91,335,70255,2,0,L|223:327,1,90,8|0,0:0|0:0,0:0:0:0:
431,231,70589,2,0,L|447:111,1,90,2|0,0:0|0:0,0:0:0:0:
275,215,70922,2,0,L|259:95,1,90,8|0,0:0|0:0,0:0:0:0:
414,127,71255,6,0,L|335:67,2,90,2|2|10,0:0|0:0|0:0,0:0:0:0:
458,179,71755,1,2,0:0:0:0:
410,223,71922,1,0,0:0:0:0:
267,223,72088,1,2,0:0:0:0:
410,223,72255,1,10,0:0:0:0:
267,223,72422,1,2,0:0:0:0:
39,283,72588,6,0,L|171:275,1,90,2|0,0:0|0:0,0:0:0:0:
358,283,72921,2,0,L|227:275,1,90,8|0,0:0|0:0,0:0:0:0:
27,179,73255,2,0,L|11:59,1,90,2|0,0:0|0:0,0:0:0:0:
183,163,73588,2,0,L|199:43,1,90,8|0,0:0|0:0,0:0:0:0:
48,103,73922,6,0,L|127:43,2,90,0|2|8,0:0|0:0|0:0,0:0:0:0:
351,192,74422,1,0,0:0:0:0:
406,171,74505,1,0,0:0:0:0:
406,111,74589,1,2,0:0:0:0:
351,92,74672,1,2,0:0:0:0:
204,119,74755,2,0,L|139:115,1,45,2|0,0:0|0:0,0:0:0:0:
336,128,74922,2,0,L|403:128,1,45,2|0,0:0|0:0,0:0:0:0:
211,119,75089,2,0,L|187:179,1,45,2|0,0:0|0:0,0:0:0:0:
358,247,75255,5,0,0:0:0:0:
462,192,75422,1,2,0:0:0:0:
403,119,75589,1,8,0:0:0:0:
156,111,75755,1,0,0:0:0:0:
104,135,75838,1,0,0:0:0:0:
100,195,75922,1,2,0:0:0:0:
143,235,76005,1,2,0:0:0:0:
183,275,76088,1,2,0:0:0:0:
183,335,76172,1,0,0:0:0:0:
135,367,76255,1,2,0:0:0:0:
91,327,76338,1,2,0:0:0:0:
91,267,76422,1,2,0:0:0:0:
131,227,76505,1,0,0:0:0:0:
358,247,76588,5,2,0:0:0:0:
462,192,76755,1,2,0:0:0:0:
403,119,76922,1,8,0:0:0:0:
156,111,77088,1,0,0:0:0:0:
104,135,77171,1,0,0:0:0:0:
100,195,77255,1,2,0:0:0:0:
143,235,77338,1,2,0:0:0:0:
183,275,77421,1,2,0:0:0:0:
183,335,77505,1,0,0:0:0:0:
135,367,77588,1,2,0:0:0:0:
91,327,77671,1,2,0:0:0:0:
91,267,77755,1,2,0:0:0:0:
131,227,77838,1,0,0:0:0:0:
347,215,77922,6,0,L|362:95,1,90,2|0,0:0|0:0,0:0:0:0:
127,211,78255,2,0,L|111:92,1,90,8|0,0:0|0:0,0:0:0:0:
343,71,78588,1,2,0:0:0:0:
211,187,78755,2,0,L|195:67,1,90,0|8,3:0|0:0,0:0:0:0:
427,195,79088,6,0,P|479:127|403:63,1,180,2|0,0:0|0:0,0:0:0:0:
179,223,79588,2,0,L|87:192,1,90,8|0,0:0|0:0,0:0:0:0:
223,192,79922,2,0,L|131:159,1,90,8|0,0:0|0:0,0:0:0:0:
383,63,80255,1,8,0:0:0:0:
439,88,80339,1,0,0:0:0:0:
439,147,80422,1,0,0:0:0:0:
387,171,80505,1,0,0:0:0:0:
147,167,80588,6,0,L|44:167,1,90,2|0,0:0|0:0,0:0:0:0:
299,167,80922,2,0,L|403:167,1,90,8|0,0:0|0:0,0:0:0:0:
143,155,81255,2,0,L|127:36,1,90,2|0,0:0|0:0,0:0:0:0:
299,140,81589,2,0,L|315:19,1,90,8|0,0:0|0:0,0:0:0:0:
135,47,81922,5,2,0:0:0:0:
55,47,82088,1,2,0:0:0:0:
135,47,82255,1,10,0:0:0:0:
362,63,82422,1,2,0:0:0:0:
423,115,82588,1,0,0:0:0:0:
399,192,82755,1,2,0:0:0:0:
295,211,82922,1,10,0:0:0:0:
131,219,83088,1,2,0:0:0:0:
358,259,83255,6,0,L|487:259,1,90,2|0,0:0|0:0,0:0:0:0:
215,255,83588,2,0,L|87:255,1,90,8|0,0:0|0:0,0:0:0:0:
375,207,83922,2,0,L|391:88,1,90,2|0,0:0|0:0,0:0:0:0:
219,192,84256,2,0,L|204:71,1,90,8|0,0:0|0:0,0:0:0:0:
439,71,84588,5,2,0:0:0:0:
340,72,84755,1,2,0:0:0:0:
439,71,84922,1,10,0:0:0:0:
171,183,85088,1,0,0:0:0:0:
115,163,85171,1,0,0:0:0:0:
115,103,85255,1,2,0:0:0:0:
171,83,85338,1,2,0:0:0:0:
355,109,85421,2,0,L|419:105,1,45,2|0,0:0|0:0,0:0:0:0:
207,111,85588,2,0,L|139:111,1,45,2|0,0:0|0:0,0:0:0:0:
335,119,85755,2,0,L|358:179,1,45,2|0,0:0|0:0,0:0:0:0:
123,51,85922,5,2,0:0:0:0:
39,103,86089,1,2,0:0:0:0:
143,159,86255,1,8,0:0:0:0:
387,315,86422,1,0,0:0:0:0:
443,287,86505,1,0,0:0:0:0:
455,231,86589,1,2,0:0:0:0:
431,187,86672,1,2,0:0:0:0:
379,175,86755,1,2,0:0:0:0:
207,231,86839,1,0,0:0:0:0:
152,203,86922,1,2,0:0:0:0:
139,147,87006,1,2,0:0:0:0:
163,103,87089,1,2,0:0:0:0:
215,92,87172,1,0,0:0:0:0:
379,63,87255,5,2,0:0:0:0:
462,111,87422,1,2,0:0:0:0:
343,143,87589,1,8,0:0:0:0:
115,315,87755,1,0,0:0:0:0:
59,287,87838,1,0,0:0:0:0:
48,231,87922,1,2,0:0:0:0:
71,187,88005,1,2,0:0:0:0:
123,175,88088,1,2,0:0:0:0:
295,231,88172,1,0,0:0:0:0:
351,203,88255,1,2,0:0:0:0:
362,147,88339,1,2,0:0:0:0:
339,103,88422,1,2,0:0:0:0:
287,92,88505,1,0,0:0:0:0:
123,63,88588,5,2,0:0:0:0:
39,111,88755,1,0,0:0:0:0:
179,143,88922,1,8,0:0:0:0:
410,143,89089,1,0,0:0:0:0:
299,143,89255,1,2,0:0:0:0:
410,143,89422,1,0,0:0:0:0:
167,151,89589,1,8,0:0:0:0:
399,92,89755,6,0,P|462:131|387:175,1,180,4|0,0:0|0:0,0:0:0:0:
152,140,90255,1,8,0:0:0:0:
91,163,90339,1,0,1:0:0:0:
91,227,90422,1,0,1:0:0:0:
147,259,90505,1,0,1:0:0:0:
324,252,90588,2,0,L|405:189,1,90,0|0,1:0|0:0,0:0:0:0:
240,200,90838,2,0,L|224:112,1,90,0|0,1:0|0:0,0:0:0:0:
384,128,91088,2,0,L|396:64,1,45,0|0,1:0|0:0,0:0:0:0:
207,83,91255,6,0,L|87:107,1,90,0|0,1:0|0:0,0:0:0:0:
347,103,91588,2,0,P|406:143|339:207,1,180,8|0,0:0|0:0,0:0:0:0:
223,203,92088,1,0,0:0:0:0:
96,207,92255,2,0,L|75:95,1,90,8|0,0:0|0:0,0:0:0:0:
306,83,92588,6,0,L|427:107,1,90
167,103,92921,2,0,P|107:143|175:207,1,180,8|0,0:0|0:0,0:0:0:0:
291,199,93421,1,0,0:0:0:0:
419,207,93588,2,0,L|439:95,1,90,8|0,0:0|0:0,0:0:0:0:
167,95,93922,6,0,P|107:135|175:199,1,180,2|8,0:0|0:0,0:0:0:0:
279,207,94422,1,0,0:0:0:0:
167,95,94588,2,0,P|107:135|175:199,1,180,2|8,0:0|0:0,0:0:0:0:
291,187,95088,1,0,0:0:0:0:
419,123,95255,6,0,P|479:163|410:227,1,180,2|8,0:0|0:0,0:0:0:0:
295,215,95755,2,0,L|291:107,1,90
426,125,96088,1,0,0:0:0:0:
279,192,96255,1,8,0:0:0:0:
243,171,96338,1,0,1:0:0:0:
239,131,96422,1,0,1:0:0:0:
275,103,96505,1,0,1:0:0:0:
466,175,96588,6,0,L|475:63,1,90,2|0,0:0|0:0,0:0:0:0:
211,92,96922,2,0,P|152:131|219:195,1,180,8|0,0:0|0:0,0:0:0:0:
323,199,97422,1,0,0:0:0:0:
206,197,97588,2,0,L|103:197,1,90,8|0,0:0|0:0,0:0:0:0:
351,140,97922,6,0,L|462:135,1,90
183,135,98256,2,0,P|123:175|191:239,1,180,8|0,0:0|0:0,0:0:0:0:
319,239,98756,1,0,0:0:0:0:
87,247,98922,1,8,0:0:0:0:
52,227,99005,1,0,1:0:0:0:
52,187,99088,1,0,1:0:0:0:
87,167,99172,1,0,1:0:0:0:
275,167,99255,6,0,L|375:167,1,90
127,151,99588,2,0,P|67:192|135:255,1,180,8|0,0:0|0:0,0:0:0:0:
243,259,100088,1,0,0:0:0:0:
122,257,100255,1,8,0:0:0:0:
358,155,100422,6,0,P|419:195|351:259,1,180,12|0,0:0|0:0,0:0:0:0:
119,263,100922,1,2,0:0:0:0:
83,242,101005,1,2,0:0:0:0:
83,203,101088,1,2,0:0:0:0:
119,187,101172,1,2,0:0:0:0:
355,32,101255,2,0,B|531:79|355:199|355:199|204:298|358:383,1,503.999984619141,4|0,0:0|0:0,0:0:0:0:
175,303,103255,5,2,0:0:0:0:
107,275,103422,1,2,0:0:0:0:
111,203,103588,1,0,0:0:0:0:
179,183,103755,1,0,0:0:0:0:
355,259,103922,1,2,0:0:0:0:
419,227,104088,1,2,0:0:0:0:
419,155,104255,1,0,0:0:0:0:
355,127,104422,1,0,0:0:0:0:
127,127,104588,1,2,0:0:0:0:
383,207,105922,5,2,0:0:0:0:
279,203,106088,1,2,0:0:0:0:
383,207,106255,1,2,0:0:0:0:
147,192,106422,1,0,0:0:0:0:
91,171,106505,1,0,0:0:0:0:
91,111,106589,1,2,0:0:0:0:
147,92,106672,1,2,0:0:0:0:
331,117,106755,2,0,L|395:113,1,45,2|0,0:0|0:0,0:0:0:0:
183,119,106922,2,0,L|115:119,1,45,2|0,0:0|0:0,0:0:0:0:
311,127,107089,2,0,L|335:187,1,45,2|0,0:0|0:0,0:0:0:0:
152,247,107255,5,2,0:0:0:0:
48,192,107422,1,2,0:0:0:0:
107,119,107589,1,8,0:0:0:0:
387,111,107755,1,0,0:0:0:0:
435,135,107838,1,0,0:0:0:0:
439,195,107922,1,2,0:0:0:0:
399,235,108005,1,2,0:0:0:0:
291,231,108088,1,2,0:0:0:0:
267,283,108172,1,0,0:0:0:0:
295,327,108255,1,2,0:0:0:0:
351,319,108338,1,2,0:0:0:0:
367,263,108422,1,2,0:0:0:0:
327,215,108505,1,0,0:0:0:0:
152,247,108588,5,2,0:0:0:0:
48,192,108755,1,2,0:0:0:0:
107,119,108922,1,8,0:0:0:0:
387,111,109088,1,0,0:0:0:0:
435,135,109171,1,0,0:0:0:0:
439,195,109255,1,2,0:0:0:0:
399,235,109338,1,2,0:0:0:0:
291,231,109421,1,2,0:0:0:0:
267,283,109505,1,0,0:0:0:0:
295,327,109588,1,2,0:0:0:0:
351,319,109671,1,2,0:0:0:0:
367,263,109755,1,2,0:0:0:0:
327,215,109838,1,0,0:0:0:0:
152,239,109922,6,0,L|127:127,1,90,0|0,1:0|0:0,0:0:0:0:
375,223,110255,2,0,L|399:111,1,90,0|0,1:0|0:0,0:0:0:0:
167,192,110588,6,0,L|91:127,1,90,0|0,1:0|0:0,0:0:0:0:
347,203,110922,2,0,L|423:140,1,90,0|0,1:0|0:0,0:0:0:0:
115,239,111255,6,0,L|227:239,1,90,0|0,1:0|1:0,0:0:0:0:
462,239,111588,2,0,L|351:239,1,90,0|0,1:0|1:0,0:0:0:0:
139,215,111922,5,0,1:0:0:0:
87,187,112005,1,0,1:0:0:0:
87,127,112088,1,0,1:0:0:0:
143,107,112172,1,0,0:0:0:0:
347,215,112255,1,0,1:0:0:0:
399,187,112338,1,0,1:0:0:0:
399,127,112421,1,0,1:0:0:0:
343,107,112505,1,0,0:0:0:0:
171,147,112588,6,0,L|67:147,1,90,2|0,0:0|0:0,0:0:0:0:
323,147,112922,2,0,L|427:147,1,90,8|0,0:0|0:0,0:0:0:0:
167,135,113255,2,0,L|152:15,1,90,2|0,0:0|0:0,0:0:0:0:
323,119,113589,2,0,L|339:0,1,90,8|0,0:0|0:0,0:0:0:0:
104,131,113922,5,2,0:0:0:0:
52,99,114089,1,2,0:0:0:0:
104,79,114255,1,10,0:0:0:0:
247,79,114422,1,2,0:0:0:0:
104,79,114589,1,0,0:0:0:0:
247,79,114756,1,2,0:0:0:0:
104,79,114922,1,8,0:0:0:0:
71,127,115089,1,2,0:0:0:0:
427,342,115255,6,0,L|295:335,1,90,2|0,0:0|0:0,0:0:0:0:
107,342,115588,2,0,L|239:335,1,90,8|0,0:0|0:0,0:0:0:0:
431,255,115922,2,0,L|447:135,1,90,2|0,0:0|0:0,0:0:0:0:
275,239,116255,2,0,L|259:119,1,90,8|0,0:0|0:0,0:0:0:0:
439,71,116588,5,2,0:0:0:0:
335,71,116755,1,2,0:0:0:0:
439,71,116922,1,8,0:0:0:0:
171,183,117088,1,0,0:0:0:0:
115,163,117171,1,0,0:0:0:0:
115,103,117255,1,2,0:0:0:0:
171,83,117338,1,2,0:0:0:0:
355,109,117421,2,0,L|419:105,1,45,2|0,0:0|0:0,0:0:0:0:
207,111,117588,2,0,L|139:111,1,45,2|0,0:0|0:0,0:0:0:0:
335,119,117755,2,0,L|358:179,1,45,2|0,0:0|0:0,0:0:0:0:
123,51,117922,5,2,0:0:0:0:
39,103,118089,1,2,0:0:0:0:
143,159,118255,1,8,0:0:0:0:
387,315,118422,1,0,0:0:0:0:
443,287,118505,1,0,0:0:0:0:
455,231,118589,1,2,0:0:0:0:
431,187,118672,1,2,0:0:0:0:
379,175,118755,1,2,0:0:0:0:
207,231,118839,1,0,0:0:0:0:
152,203,118922,1,2,0:0:0:0:
139,147,119006,1,2,0:0:0:0:
163,103,119089,1,2,0:0:0:0:
215,92,119172,1,0,0:0:0:0:
379,63,119255,5,2,0:0:0:0:
462,111,119422,1,2,0:0:0:0:
343,143,119589,1,8,0:0:0:0:
115,315,119755,1,0,0:0:0:0:
59,287,119838,1,0,0:0:0:0:
48,231,119922,1,2,0:0:0:0:
71,187,120005,1,2,0:0:0:0:
123,175,120088,1,2,0:0:0:0:
295,231,120172,1,0,0:0:0:0:
351,203,120255,1,2,0:0:0:0:
362,147,120339,1,2,0:0:0:0:
339,103,120422,1,2,0:0:0:0:
287,92,120505,1,0,0:0:0:0:
123,63,120588,5,2,0:0:0:0:
39,111,120755,1,2,0:0:0:0:
179,143,120922,1,8,0:0:0:0:
410,143,121089,1,2,0:0:0:0:
304,144,121255,1,2,0:0:0:0:
410,143,121422,1,2,0:0:0:0:
167,151,121589,1,8,0:0:0:0:
399,92,121755,6,0,P|462:131|387:175,1,180,4|0,0:0|0:0,0:0:0:0:
127,147,122255,2,0,L|52:151,1,45,8|0,0:0|1:0,0:0:0:0:
299,159,122422,2,0,L|315:227,1,45,0|0,1:0|1:0,0:0:0:0:
135,159,122588,1,4,0:0:0:0:
