osu file format v14

[General]
AudioFilename: audio.mp3
AudioLeadIn: 1500
PreviewTime: 101755
Countdown: 0
SampleSet: Soft
StackLeniency: 0.4
Mode: 0
LetterboxInBreaks: 0
WidescreenStoryboard: 1

[Editor]
DistanceSpacing: 1
BeatDivisor: 4
GridSize: 4
TimelineZoom: 1.5

[Metadata]
Title:yuima-ru*world
TitleUnicode:ゆいまーる☆わーるど
Artist:ayase rie
ArtistUnicode:綾瀬 理恵
Creator:Linada
Version:Kyuukai's Normal
Source:はいたい七葉
Tags:full haitai nanafa yuimaru _DT3 yaleufeu Kyuukai Akitoshi Corinn Realazy
BeatmapID:1176544
BeatmapSetID:555132

[Difficulty]
HPDrainRate:4
CircleSize:3.5
OverallDifficulty:4
ApproachRate:5
SliderMultiplier:0.999999999999998
SliderTickRate:1

[Events]
//Background and Video events
0,0,"haitai.jpg",0,0
//Break Periods
2,102122,103388
//Storyboard Layer 0 (Background)
//Storyboard Layer 1 (Fail)
//Storyboard Layer 2 (Pass)
//Storyboard Layer 3 (Foreground)
//Storyboard Sound Samples

[TimingPoints]
589,333.333333333333,4,2,1,70,1,0
27255,-100,4,2,1,70,0,1
47922,-100,4,2,1,70,0,0
69922,-100,4,2,1,70,0,1
90588,-100,4,2,1,70,0,0
112588,-100,4,2,1,70,0,1
122588,-100,4,2,1,70,0,0

[Colours]
Combo1 : 255,128,128
Combo2 : 209,164,255
Combo3 : 255,184,149
Combo4 : 128,255,128

[HitObjects]
377,155,589,5,6,0:0:0:0:
439,232,922,2,0,P|448:280|424:344,2,99.9999999999998,10|2|10,0:0|0:0|0:0,0:0:0:0:
349,277,1922,1,2,0:0:0:0:
281,201,2255,2,0,P|244:169|196:156,2,99.9999999999998,10|2|10,0:0|0:0|0:0,0:0:0:0:
198,257,3255,5,2,0:0:0:0:
114,201,3588,2,0,P|105:137|120:103,1,99.9999999999998,10|2,0:0|0:0,0:0:0:0:
205,56,4255,1,10,0:0:0:0:
205,56,4422,2,0,P|260:47|315:63,1,99.9999999999998,2|10,0:0|0:0,0:0:0:0:
349,74,4922,2,0,L|363:194,1,99.9999999999998,2|10,0:0|0:0,0:0:0:0:
372,272,5588,1,10,0:0:0:0:
279,230,5922,6,0,P|230:223|180:228,2,99.9999999999998,6|2|2,0:0|0:0|0:0,0:0:0:0:
228,316,6922,1,0,0:0:0:0:
228,316,7088,2,0,P|178:323|128:318,1,99.9999999999998,2|2,0:0|0:0,0:0:0:0:
85,293,7588,1,2,0:0:0:0:
42,202,7922,1,2,0:0:0:0:
78,108,8255,1,2,0:0:0:0:
78,108,8588,6,0,P|122:113|191:95,1,99.9999999999998,2|2,0:0|0:0,0:0:0:0:
259,46,9255,1,2,0:0:0:0:
356,66,9588,1,2,0:0:0:0:
418,144,9922,2,0,P|473:187|516:198,2,99.9999999999998,2|2|2,0:0|0:0|0:0,0:0:0:0:
384,104,10755,1,2,0:0:0:0:
356,66,10922,1,10,0:0:0:0:
260,88,11255,6,0,P|236:151|250:207,1,99.9999999999998,6|10,0:0|0:0,0:0:0:0:
260,284,11922,2,0,P|306:280|331:284,1,49.9999999999999
358,290,12255,2,0,P|412:308|471:295,2,99.9999999999998,10|2|10,0:0|0:0|0:0,0:0:0:0:
418,210,13255,2,0,L|475:211,2,49.9999999999999,2|0|8,0:0|0:0|0:0,0:0:0:0:
320,218,13922,6,0,P|270:219|222:204,1,99.9999999999998,2|10,0:0|0:0,0:0:0:0:
166,121,14588,2,0,L|217:82,2,49.9999999999999,2|0|10,0:0|0:0|0:0,0:0:0:0:
136,160,15088,1,0,0:0:0:0:
123,211,15255,2,0,P|140:258|176:292,2,99.9999999999998,2|2|2,0:0|0:0|0:0,0:0:0:0:
166,121,16255,1,10,0:0:0:0:
222,204,16588,6,0,P|320:184|390:103,1,200,6|2,0:0|0:0,0:0:0:0:
334,26,17588,1,10,0:0:0:0:
234,18,17922,2,0,P|136:38|66:119,1,200,2|2,0:0|0:0,0:0:0:0:
124,193,18922,1,10,0:0:0:0:
222,204,19255,6,0,P|195:261|156:288,2,99.9999999999998,2|0|2,0:0|0:0|0:0,0:0:0:0:
184,111,20255,1,10,0:0:0:0:
90,145,20588,2,0,P|70:222|108:351,1,200,2|2,0:0|0:0,0:0:0:0:
194,365,21588,2,0,P|248:368|316:357,1,99.9999999999998,8|2,0:0|0:0,0:0:0:0:
389,334,22255,5,10,0:0:0:0:
437,246,22588,1,2,0:0:0:0:
436,145,22922,1,8,0:0:0:0:
342,108,23255,2,0,P|341:171|360:212,2,99.9999999999998,2|10|2,0:0|0:0|0:0,0:0:0:0:
417,42,24255,1,10,0:0:0:0:
490,109,24588,6,0,L|491:227,1,99.9999999999998,8|8,0:0|0:0,0:0:0:0:
392,227,25255,2,0,L|391:127,1,99.9999999999998,8|8,0:0|0:0,0:0:0:0:
391,127,25755,1,2,0:0:0:0:
329,48,26088,1,10,0:0:0:0:
329,48,26255,2,0,P|373:28|440:35,2,99.9999999999998,2|2|8,0:0|0:0|0:0,0:0:0:0:
266,126,27255,6,0,L|146:117,1,99.9999999999998,6|10,0:0|0:0,0:0:0:0:
102,41,27922,2,0,L|222:32,1,99.9999999999998,2|10,0:0|0:0,0:0:0:0:
301,27,28588,1,2,0:0:0:0:
373,96,28922,1,10,0:0:0:0:
373,96,29088,2,0,P|384:171|352:267,1,150,0|10,0:0|0:0,0:0:0:0:
292,309,29922,5,2,0:0:0:0:
193,323,30255,1,10,0:0:0:0:
95,302,30588,2,0,L|83:177,1,99.9999999999998,2|10,0:0|0:0,0:0:0:0:
105,104,31255,1,2,0:0:0:0:
198,68,31588,1,10,0:0:0:0:
198,68,31755,2,0,P|265:77|375:56,1,150,2|10,0:0|0:0,0:0:0:0:
436,22,32588,5,6,0:0:0:0:
498,100,32922,1,10,0:0:0:0:
498,100,33088,2,0,L|489:251,1,150,6|10,0:0|0:0,0:0:0:0:
416,318,33922,1,6,0:0:0:0:
324,276,34255,1,8,0:0:0:0:
324,276,34422,2,0,L|174:280,1,150,6|10,0:0|0:0,0:0:0:0:
89,333,35255,6,0,P|75:275|97:215,2,99.9999999999998,6|10|2,0:0|0:0|0:0,0:0:0:0:
120,372,36088,1,8,0:0:0:0:
186,296,36422,2,0,L|335:300,1,150,2|8,0:0|0:0,0:0:0:0:
429,336,37255,1,8,0:0:0:0:
462,241,37588,1,8,0:0:0:0:
432,145,37922,6,0,P|371:131|321:137,1,99.9999999999998,6|10,0:0|0:0,0:0:0:0:
265,206,38588,2,0,P|215:207|167:194,1,99.9999999999998,2|10,0:0|0:0,0:0:0:0:
95,124,39255,1,2,0:0:0:0:
156,45,39588,1,10,0:0:0:0:
156,45,39755,2,0,L|333:42,1,150,0|10,0:0|0:0,0:0:0:0:
404,60,40588,5,6,0:0:0:0:
454,146,40922,1,10,0:0:0:0:
447,245,41255,2,0,P|416:309|373:342,1,99.9999999999998,2|10,0:0|0:0,0:0:0:0:
303,366,41922,1,2,0:0:0:0:
223,305,42255,1,10,0:0:0:0:
223,305,42422,2,0,L|54:282,1,150,0|10,0:0|0:0,0:0:0:0:
32,194,43255,5,6,0:0:0:0:
107,128,43588,1,8,0:0:0:0:
107,128,43755,2,0,P|187:105|270:142,1,150,6|10,0:0|0:0,0:0:0:0:
319,194,44588,1,6,0:0:0:0:
248,264,44922,1,10,0:0:0:0:
248,264,45089,2,0,P|168:287|85:250,1,150,6|10,0:0|0:0,0:0:0:0:
32,194,45922,5,8,0:0:0:0:
44,94,46255,1,8,0:0:0:0:
124,35,46588,2,0,P|175:25|237:38,1,99.9999999999998,10|8,0:0|0:0,0:0:0:0:
221,32,47088,1,6,0:0:0:0:
303,88,47422,1,2,0:0:0:0:
303,88,47588,2,0,P|351:93|426:83,1,99.9999999999998,10|10,0:0|0:0,0:0:0:0:
380,288,48588,6,0,P|424:304|492:304,2,99.9999999999998,6|2|2,0:0|0:0|0:0,0:0:0:0:
300,228,49588,2,0,L|251:188,1,49.9999999999999,2|0,0:0|0:0,0:0:0:0:
220,168,49922,2,0,P|176:152|108:152,2,99.9999999999998,2|2|2,0:0|0:0|0:0,0:0:0:0:
300,228,50922,1,0,0:0:0:0:
216,284,51255,6,0,P|172:300|104:300,1,99.9999999999998,2|2,0:0|0:0,0:0:0:0:
56,224,51922,1,2,0:0:0:0:
55,124,52255,2,0,P|70:69|113:22,2,99.9999999999998,2|2|2,0:0|0:0|0:0,0:0:0:0:
56,224,53255,1,2,0:0:0:0:
119,302,53588,1,10,0:0:0:0:
216,284,53922,6,0,P|270:278|344:293,1,99.9999999999998,6|10,0:0|0:0,0:0:0:0:
404,324,54588,2,0,P|423:300|433:282,1,49.9999999999999
458,240,54922,2,0,P|466:180|451:128,1,99.9999999999998,10|2,0:0|0:0,0:0:0:0:
381,75,55588,1,10,0:0:0:0:
318,152,55922,2,0,L|350:190,2,49.9999999999999,2|0|8,0:0|0:0|0:0,0:0:0:0:
254,74,56588,6,0,P|196:64|149:67,1,99.9999999999998,2|2,0:0|0:0,0:0:0:0:
60,98,57255,2,0,L|51:44,2,49.9999999999999,2|0|10,0:0|0:0|0:0,0:0:0:0:
103,188,57922,2,0,P|52:198|5:181,2,99.9999999999998,2|2|2,0:0|0:0|0:0,0:0:0:0:
148,165,58755,1,0,0:0:0:0:
191,140,58922,1,8,0:0:0:0:
278,92,59255,6,0,P|364:104|435:211,1,200,6|2,0:0|0:0,0:0:0:0:
433,288,60255,1,10,0:0:0:0:
344,333,60588,2,0,P|258:321|187:214,1,200,2|2,0:0|0:0,0:0:0:0:
191,140,61588,1,8,0:0:0:0:
254,62,61922,6,0,P|275:84|286:171,2,99.9999999999998,2|0|2,0:0|0:0|0:0,0:0:0:0:
167,11,62922,1,8,0:0:0:0:
75,50,63255,2,0,P|44:144|59:270,1,200,2|2,0:0|0:0,0:0:0:0:
118,317,64255,2,0,P|169:326|226:313,1,99.9999999999998,8|14,0:0|0:0,0:0:0:0:
304,271,64922,5,10,0:0:0:0:
394,227,65255,2,0,P|405:285|383:334,2,99.9999999999998,2|10|2,0:0|0:0|0:0,0:0:0:0:
324,154,66255,1,10,0:0:0:0:
249,87,66588,2,0,P|201:75|153:89,1,99.9999999999998,2|10,0:0|0:0,0:0:0:0:
81,158,67255,6,0,P|53:101|66:42,2,99.9999999999998,8|8|8,0:0|0:0|0:0,0:0:0:0:
160,218,68255,1,8,0:0:0:0:
160,218,68422,2,0,L|270:239,1,99.9999999999998,8|10,0:0|0:0,0:0:0:0:
307,246,68922,1,2,0:0:0:0:
404,265,69255,2,0,P|434:205|430:155,1,99.9999999999998,2|10,0:0|0:0,0:0:0:0:
407,76,69922,6,0,L|299:63,1,99.9999999999998,6|10,0:0|0:0,0:0:0:0:
214,27,70588,2,0,L|114:38,1,99.9999999999998,2|10,0:0|0:0,0:0:0:0:
45,111,71255,1,2,0:0:0:0:
24,208,71588,1,10,0:0:0:0:
24,208,71755,2,0,P|34:277|107:342,1,150,2|10,0:0|0:0,0:0:0:0:
183,363,72588,5,2,0:0:0:0:
283,357,72922,1,10,0:0:0:0:
382,347,73255,2,0,P|397:293|395:224,1,99.9999999999998,2|10,0:0|0:0,0:0:0:0:
365,154,73922,1,2,0:0:0:0:
293,84,74255,1,10,0:0:0:0:
293,84,74422,2,0,L|114:76,1,150,2|10,0:0|0:0,0:0:0:0:
43,78,75255,5,14,0:0:0:0:
36,177,75588,1,10,0:0:0:0:
36,177,75755,2,0,L|215:169,1,150,6|10,0:0|0:0,0:0:0:0:
286,167,76588,1,6,0:0:0:0:
369,222,76922,1,10,0:0:0:0:
369,222,77088,2,0,P|356:290|267:336,1,150,6|10,0:0|0:0,0:0:0:0:
198,299,77922,6,0,L|87:329,2,99.9999999999998,2|10|2,0:0|0:0|0:0,0:0:0:0:
248,288,78755,1,8,0:0:0:0:
328,232,79088,2,0,P|346:146|334:51,1,150,6|8,0:0|0:0,0:0:0:0:
251,44,79922,1,8,0:0:0:0:
155,13,80255,1,8,0:0:0:0:
56,30,80588,6,0,L|45:157,1,99.9999999999998,6|10,0:0|0:0,0:0:0:0:
114,203,81255,2,0,L|122:302,1,99.9999999999998,2|10,0:0|0:0,0:0:0:0:
202,362,81922,1,2,0:0:0:0:
285,307,82255,1,10,0:0:0:0:
285,307,82422,2,0,P|357:314|448:281,1,150,2|10,0:0|0:0,0:0:0:0:
440,192,83255,5,2,0:0:0:0:
448,92,83588,1,10,0:0:0:0:
367,33,83922,2,0,P|318:23|260:36,1,99.9999999999998,2|10,0:0|0:0,0:0:0:0:
180,77,84588,1,2,0:0:0:0:
112,151,84922,1,10,0:0:0:0:
112,151,85088,2,0,P|175:179|267:130,1,150,2|10,0:0|0:0,0:0:0:0:
325,90,85922,5,14,0:0:0:0:
404,149,86255,1,10,0:0:0:0:
404,149,86422,2,0,L|396:324,1,150,6|10,0:0|0:0,0:0:0:0:
316,357,87255,1,6,0:0:0:0:
234,301,87588,1,10,0:0:0:0:
234,301,87755,2,0,L|227:151,1,150,6|10,0:0|0:0,0:0:0:0:
185,60,88588,5,8,0:0:0:0:
86,39,88922,1,8,0:0:0:0:
6,99,89255,2,0,P|4:150|12:223,1,99.9999999999998,10|10,0:0|0:0,0:0:0:0:
7,198,89755,1,6,0:0:0:0:
90,253,90088,1,2,0:0:0:0:
90,253,90255,2,0,P|86:302|88:352,2,99.9999999999998,10|10|0,0:0|0:0|0:0,0:0:0:0:
135,163,91255,5,6,0:0:0:0:
227,126,91588,1,8,0:0:0:0:
313,175,91922,2,0,L|290:258,2,49.9999999999999,2|0|8,0:0|0:0|0:0,0:0:0:0:
343,79,92588,2,0,P|397:71|447:88,1,99.9999999999998,2|8,0:0|0:0,0:0:0:0:
439,83,93088,1,2,0:0:0:0:
500,163,93422,1,0,0:0:0:0:
500,163,93588,2,0,P|504:231|484:287,1,99.9999999999998,8|2,0:0|0:0,0:0:0:0:
425,331,94255,5,8,0:0:0:0:
363,252,94588,2,0,L|390:210,2,49.9999999999999,2|0|8,0:0|0:0|0:0,0:0:0:0:
278,305,95255,2,0,L|148:306,1,99.9999999999998,2|8,0:0|0:0,0:0:0:0:
178,305,95755,1,2,0:0:0:0:
83,271,96088,1,0,0:0:0:0:
83,271,96255,2,0,P|76:212|91:149,1,99.9999999999998,10|2,0:0|0:0,0:0:0:0:
144,93,96922,5,8,0:0:0:0:
144,93,97088,2,0,L|274:90,1,99.9999999999998,2|0,0:0|0:0,0:0:0:0:
273,130,97588,2,0,L|372:127,1,99.9999999999998,10|2,0:0|0:0,0:0:0:0:
460,78,98255,1,8,0:0:0:0:
460,78,98422,2,0,P|473:134|454:190,1,99.9999999999998,2|0,0:0|0:0,0:0:0:0:
434,214,98922,2,0,L|334:216,1,99.9999999999998,10|8,0:0|0:0,0:0:0:0:
234,218,99588,5,8,0:0:0:0:
152,276,99922,2,0,L|163:347,2,49.9999999999999,2|2|10,0:0|0:0|0:0,0:0:0:0:
145,226,100422,1,6,0:0:0:0:
133,126,100755,1,2,0:0:0:0:
133,126,100922,2,0,L|257:106,1,99.9999999999998,10|14,0:0|0:0,0:0:0:0:
429,78,101922,5,6,0:0:0:0:
256,192,104588,12,0,106588,0:0:0:0:
429,78,107255,5,14,0:0:0:0:
389,169,107588,1,10,0:0:0:0:
389,169,107755,2,0,L|235:177,1,150,6|10,0:0|0:0,0:0:0:0:
182,94,108588,1,6,0:0:0:0:
279,70,108921,1,10,0:0:0:0:
279,70,109088,2,0,L|433:78,1,150,6|10,0:0|0:0,0:0:0:0:
495,153,109922,5,12,0:0:0:0:
476,251,110255,1,8,0:0:0:0:
401,317,110588,2,0,L|294:310,1,99.9999999999998,8|8,0:0|0:0,0:0:0:0:
251,304,111088,2,0,P|167:261|134:208,1,150,2|10,0:0|0:0,0:0:0:0:
112,119,111922,1,10,0:0:0:0:
176,43,112255,1,10,0:0:0:0:
273,23,112588,6,0,P|319:29|375:54,1,99.9999999999998,6|10,0:0|0:0,0:0:0:0:
428,129,113255,2,0,P|382:148|332:155,1,99.9999999999998,2|10,0:0|0:0,0:0:0:0:
233,168,113922,1,2,0:0:0:0:
140,130,114255,1,10,0:0:0:0:
140,130,114422,2,0,L|123:287,1,150,2|10,0:0|0:0,0:0:0:0:
191,353,115255,5,2,0:0:0:0:
289,371,115588,1,10,0:0:0:0:
385,344,115922,2,0,L|396:244,1,99.9999999999998,2|10,0:0|0:0,0:0:0:0:
369,148,116588,1,2,0:0:0:0:
313,64,116922,1,10,0:0:0:0:
313,64,117088,2,0,P|218:56|142:68,1,150,2|10,0:0|0:0,0:0:0:0:
69,97,117922,5,14,0:0:0:0:
30,189,118255,1,10,0:0:0:0:
30,189,118422,2,0,L|39:360,1,150,6|10,0:0|0:0,0:0:0:0:
132,370,119255,1,6,0:0:0:0:
222,327,119588,1,10,0:0:0:0:
222,327,119754,2,0,L|214:177,1,150,6|10,0:0|0:0,0:0:0:0:
209,77,120588,5,6,0:0:0:0:
292,22,120922,1,10,0:0:0:0:
384,56,121255,2,0,P|410:127|407:201,1,150,2|10,0:0|0:0,0:0:0:0:
337,272,122088,1,2,0:0:0:0:
337,272,122255,2,0,P|311:214|315:168,1,99.9999999999998,10|14,0:0|0:0,0:0:0:0:
