osu file format v14

[General]
AudioFilename: audio.mp3
AudioLeadIn: 1500
PreviewTime: 101755
Countdown: 0
SampleSet: Soft
StackLeniency: 0.4
Mode: 0
LetterboxInBreaks: 0
WidescreenStoryboard: 1

[Editor]
DistanceSpacing: 1
BeatDivisor: 4
GridSize: 4
TimelineZoom: 3.499998

[Metadata]
Title:yuima-ru*world
TitleUnicode:ゆいまーる☆わーるど
Artist:ayase rie
ArtistUnicode:綾瀬 理恵
Creator:Linada
Version:Extra
Source:はいたい七葉
Tags:full haitai nanafa yuimaru _DT3 yaleufeu Kyuukai Akitoshi Corinn Realazy
BeatmapID:1178526
BeatmapSetID:555132

[Difficulty]
HPDrainRate:6.2
CircleSize:3.8
OverallDifficulty:9
ApproachRate:9.3
SliderMultiplier:1.8
SliderTickRate:1

[Events]
//Background and Video events
0,0,"haitai.jpg",0,0
//Break Periods
//Storyboard Layer 0 (Background)
//Storyboard Layer 1 (Fail)
//Storyboard Layer 2 (Pass)
//Storyboard Layer 3 (Foreground)
//Storyboard Sound Samples

[TimingPoints]
589,333.333333333333,4,2,1,70,1,0
589,-133.333333333333,4,2,1,70,0,0
5922,-100,4,2,1,70,0,0
10922,-100,4,2,1,70,0,0
16588,-133.333333333333,4,2,1,70,0,0
21922,-100,4,2,1,70,0,0
27255,-100,4,2,1,70,0,1
47922,-100,4,2,1,70,0,0
48588,-100,4,2,1,70,0,0
53588,-100,4,2,1,70,0,0
59255,-133.333333333333,4,2,1,70,0,0
64588,-100,4,2,1,70,0,0
69922,-100,4,2,1,70,0,1
90588,-100,4,2,1,70,0,0
107255,-100,4,2,1,70,0,0
112588,-100,4,2,1,70,0,1
122588,-100,4,2,1,70,0,0

[Colours]
Combo1 : 255,128,128
Combo2 : 209,164,255
Combo3 : 255,184,149
Combo4 : 128,255,128

[HitObjects]
184,234,589,5,6,0:0:0:0:
184,234,755,1,2,0:0:0:0:
262,144,922,2,0,L|264:211,1,67.5000025749208,10|0,0:0|0:0,0:0:0:0:
342,88,1255,2,0,L|344:155,1,67.5000025749208,2|0,0:0|0:0,0:0:0:0:
422,32,1588,2,0,L|424:99,1,67.5000025749208,10|0,0:0|0:0,0:0:0:0:
423,317,1922,5,2,0:0:0:0:
423,317,2088,1,2,0:0:0:0:
333,239,2255,2,0,L|400:236,1,67.5000025749208,10|0,0:0|0:0,0:0:0:0:
277,158,2588,2,0,L|344:155,1,67.5000025749208,2|0,0:0|0:0,0:0:0:0:
221,79,2921,2,0,L|288:76,1,67.5000025749208,10|0,0:0|0:0,0:0:0:0:
117,297,3255,5,2,0:0:0:0:
117,297,3422,1,2,0:0:0:0:
188,164,3588,2,0,L|120:161,1,67.5000025749208,10|0,0:0|0:0,0:0:0:0:
208,301,3922,5,2,0:0:0:0:
65,234,4089,1,2,0:0:0:0:
203,157,4255,1,10,0:0:0:0:
115,312,4422,1,2,0:0:0:0:
116,332,4755,5,10,0:0:0:0:
228,285,4922,2,0,P|261:280|294:285,1,67.5000025749208,2|0,0:0|0:0,0:0:0:0:
406,176,5255,5,10,0:0:0:0:
230,175,5422,1,0,0:0:0:0:
413,82,5588,5,10,0:0:0:0:
237,81,5755,1,0,0:0:0:0:
408,197,5922,6,0,P|419:240|412:284,1,90,6|0,0:0|0:0,0:0:0:0:
227,283,6255,2,0,P|220:238|231:195,1,90,2|0,0:0|0:0,0:0:0:0:
323,247,6588,1,2,0:0:0:0:
187,359,6755,1,0,0:0:0:0:
141,187,6922,2,0,L|230:195,1,90,2|0,0:0|0:0,0:0:0:0:
443,114,7255,6,0,B|404:110|404:110|353:122,1,90,2|0,0:0|0:0,0:0:0:0:
230,195,7588,1,2,0:0:0:0:
342,249,7755,1,2,0:0:0:0:
247,115,7922,2,0,P|166:143|156:228,1,180,2|2,0:0|0:0,0:0:0:0:
367,263,8588,5,2,0:0:0:0:
156,228,8755,1,2,0:0:0:0:
263,378,8922,2,0,L|257:287,1,90,2|0,0:0|0:0,0:0:0:0:
247,115,9255,2,0,L|252:204,1,90,2|0,0:0|0:0,0:0:0:0:
167,333,9588,1,2,0:0:0:0:
353,276,9755,1,2,0:0:0:0:
238,184,9922,6,0,P|194:175|150:185,1,90,2|0,0:0|0:0,0:0:0:0:
39,289,10255,2,0,B|29:257|30:234|30:234|45:198|44:156,1,135,2|0,0:0|0:0,0:0:0:0:
42,129,10588,5,2,0:0:0:0:
192,258,10755,1,2,0:0:0:0:
244,68,10922,1,10,0:0:0:0:
251,51,11255,6,0,L|365:41,1,90,6|0,0:0|0:0,0:0:0:0:
480,148,11588,2,0,P|436:157|392:144,1,90,10|0,0:0|0:0,0:0:0:0:
280,260,11922,2,0,P|322:247|366:256,1,90,2|0,0:0|0:0,0:0:0:0:
325,331,12255,1,10,0:0:0:0:
200,148,12422,1,0,0:0:0:0:
175,283,12588,6,0,L|264:275,1,90,2|0,0:0|0:0,0:0:0:0:
173,127,12922,2,0,L|83:119,1,90,10|0,0:0|0:0,0:0:0:0:
281,62,13255,1,2,0:0:0:0:
120,32,13422,1,0,0:0:0:0:
260,142,13588,2,0,P|304:143|343:121,1,90,8|0,0:0|0:0,0:0:0:0:
396,22,13922,5,2,0:0:0:0:
342,234,14088,1,2,0:0:0:0:
465,129,14255,2,0,L|375:129,1,90,10|0,0:0|0:0,0:0:0:0:
188,200,14588,1,2,0:0:0:0:
343,120,14755,1,0,0:0:0:0:
189,16,14922,2,0,L|199:105,1,90,10|0,0:0|0:0,0:0:0:0:
335,329,15255,6,0,P|340:284|321:244,1,90,2|0,0:0|0:0,0:0:0:0:
108,142,15588,1,2,0:0:0:0:
265,296,15755,1,0,0:0:0:0:
364,127,15922,1,2,0:0:0:0:
175,223,16088,5,2,0:0:0:0:
431,208,16255,1,10,0:0:0:0:
458,190,16588,6,0,B|478:121|436:132|457:55,1,135.000005149842,6|0,0:0|0:0,0:0:0:0:
456,57,17088,1,0,0:0:0:0:
317,192,17255,2,0,P|378:171|431:208,1,135.000005149842,2|10,0:0|0:0,0:0:0:0:
376,373,17922,6,0,B|390:310|390:310|368:243,1,135.000005149842,2|0,0:0|0:0,0:0:0:0:
368,243,18422,1,0,0:0:0:0:
276,101,18588,1,2,0:0:0:0:
260,257,18755,1,0,0:0:0:0:
374,61,18922,1,10,0:0:0:0:
184,194,19255,6,0,B|153:207|123:204|123:204|104:216|104:216|82:208|54:212,1,135.000005149842,2|0,0:0|0:0,0:0:0:0:
54,212,19755,1,0,0:0:0:0:
219,122,19922,2,0,P|259:173|251:238,1,135.000005149842,2|10,0:0|0:0,0:0:0:0:
341,118,20588,5,2,0:0:0:0:
179,197,20755,1,0,0:0:0:0:
357,234,20922,1,2,0:0:0:0:
227,107,21088,1,2,0:0:0:0:
256,287,21255,1,2,0:0:0:0:
235,91,21422,5,8,0:0:0:0:
170,284,21588,1,8,0:0:0:0:
163,299,21671,1,8,0:0:0:0:
157,315,21754,1,8,0:0:0:0:
150,330,21837,1,8,0:0:0:0:
143,345,21922,6,0,P|99:350|57:336,1,90,6|0,0:0|0:0,0:0:0:0:
56,128,22255,2,0,P|98:114|143:120,1,90,10|0,0:0|0:0,0:0:0:0:
246,324,22588,1,2,0:0:0:0:
107,237,22755,1,2,0:0:0:0:
246,156,22922,2,0,L|336:99,1,90,8|0,0:0|0:0,0:0:0:0:
235,334,23255,6,0,B|198:347|175:345|175:345|180:327|194:309,1,90,6|0,0:0|0:0,0:0:0:0:
343,248,23588,2,0,B|381:257|399:271|399:271|385:283|363:291,1,90,10|0,0:0|0:0,0:0:0:0:
224,203,23922,2,0,B|216:164|222:142|222:142|239:149|255:166,1,90,2|2,0:0|0:0,0:0:0:0:
327,359,24255,1,10,0:0:0:0:
311,374,24588,5,12,0:0:0:0:
348,144,24755,1,2,0:0:0:0:
102,355,24922,5,8,0:0:0:0:
222,120,25088,1,2,0:0:0:0:
206,367,25255,5,8,0:0:0:0:
101,103,25422,1,2,0:0:0:0:
8,349,25588,5,8,0:0:0:0:
332,250,25755,1,6,0:0:0:0:
359,245,26088,5,6,0:0:0:0:
124,115,26255,1,6,0:0:0:0:
227,336,26422,1,4,0:0:0:0:
296,89,26588,6,0,B|302:73|308:47|308:47|329:93|301:134,1,135,6|0,0:0|0:0,0:0:0:0:
290,164,26922,1,8,0:0:0:0:
290,164,27255,6,0,B|336:158|336:158|378:166,1,90,6|0,0:0|0:0,0:0:0:0:
381,327,27588,2,0,B|338:335|338:335|292:329,1,90,10|0,0:0|0:0,0:0:0:0:
87,151,27922,2,0,L|176:165,1,90,2|0,0:0|0:0,0:0:0:0:
175,329,28255,2,0,L|86:342,1,90,10|0,0:0|0:0,0:0:0:0:
6,180,28588,5,2,0:0:0:0:
174,246,28755,1,2,0:0:0:0:
164,65,28922,1,10,0:0:0:0:
73,253,29088,2,0,L|85:342,1,90,2|0,0:0|0:0,0:0:0:0:
50,74,29422,5,2,0:0:0:0:
251,148,29588,1,10,0:0:0:0:
6,180,29755,1,2,0:0:0:0:
202,75,29922,6,0,P|245:63|289:70,1,90,2|0,0:0|0:0,0:0:0:0:
289,313,30255,2,0,P|245:320|202:309,1,90,10|0,0:0|0:0,0:0:0:0:
318,71,30588,2,0,L|408:60,1,90,2|0,0:0|0:0,0:0:0:0:
408,324,30922,2,0,L|318:312,1,90,10|0,0:0|0:0,0:0:0:0:
57,254,31255,5,2,0:0:0:0:
247,234,31422,1,2,0:0:0:0:
121,105,31588,1,10,0:0:0:0:
173,338,31755,1,2,0:0:0:0:
327,199,31922,5,2,0:0:0:0:
295,167,32005,1,2,0:0:0:0:
253,153,32088,1,10,0:0:0:0:
209,161,32171,1,2,0:0:0:0:
175,189,32255,2,0,L|170:240,1,45,10|2,0:0|0:0,0:0:0:0:
121,105,32422,2,0,L|115:54,1,45,10|10,0:0|0:0,0:0:0:0:
84,225,32588,5,6,0:0:0:0:
209,82,32755,1,0,0:0:0:0:
70,241,32922,1,10,0:0:0:0:
221,69,33088,2,0,B|263:70|289:57|289:57|326:65|326:65|351:53|398:53,1,180,6|2,0:0|0:0,0:0:0:0:
386,208,33588,1,10,0:0:0:0:
376,233,33672,1,2,0:0:0:0:
367,258,33755,1,2,0:0:0:0:
357,283,33838,1,2,0:0:0:0:
348,309,33922,5,6,0:0:0:0:
222,170,34088,1,2,0:0:0:0:
422,102,34255,1,8,0:0:0:0:
339,332,34422,2,0,B|291:333|263:342|263:342|226:333|226:333|193:342|161:340,1,180,6|2,0:0|0:0,0:0:0:0:
102,221,34922,1,10,0:0:0:0:
147,230,35006,1,2,0:0:0:0:
192,238,35089,1,2,0:0:0:0:
237,245,35172,1,2,0:0:0:0:
281,251,35255,6,0,P|315:197|289:138,1,135,6|0,0:0|0:0,0:0:0:0:
264,117,35588,1,10,0:0:0:0:
431,192,35755,1,0,0:0:0:0:
383,46,35922,1,2,0:0:0:0:
319,204,36088,2,0,P|312:248|326:290,1,90,2|8,0:0|0:0,0:0:0:0:
83,258,36422,6,0,P|161:222|235:267,1,180,6|0,0:0|0:0,0:0:0:0:
118,126,36922,5,10,0:0:0:0:
157,317,37088,1,2,0:0:0:0:
288,137,37255,5,10,0:0:0:0:
83,258,37422,1,10,0:0:0:0:
314,251,37588,5,10,0:0:0:0:
192,59,37755,1,10,0:0:0:0:
192,59,37838,1,8,0:0:0:0:
192,59,37922,6,0,B|143:51|143:51|103:59,1,90,6|0,0:0|0:0,0:0:0:0:
100,242,38255,2,0,B|139:250|139:250|188:242,1,90,10|0,0:0|0:0,0:0:0:0:
356,91,38588,2,0,P|371:133|361:177,1,90,2|0,0:0|0:0,0:0:0:0:
204,341,38922,2,0,P|193:297|208:255,1,90,10|0,0:0|0:0,0:0:0:0:
297,138,39255,5,2,0:0:0:0:
377,302,39422,1,0,0:0:0:0:
468,140,39588,1,10,0:0:0:0:
296,245,39755,2,0,L|207:256,1,90,2|0,0:0|0:0,0:0:0:0:
104,306,40088,5,2,0:0:0:0:
148,97,40255,1,10,0:0:0:0:
104,306,40422,1,2,0:0:0:0:
148,97,40588,6,0,P|106:84|64:98,1,90,2|0,0:0|0:0,0:0:0:0:
62,369,40922,2,0,P|104:382|146:369,1,90,10|0,0:0|0:0,0:0:0:0:
364,187,41255,2,0,L|364:97,1,90,2|0,0:0|0:0,0:0:0:0:
148,97,41588,2,0,L|148:187,1,90,10|0,0:0|0:0,0:0:0:0:
337,292,41922,5,2,0:0:0:0:
256,97,42088,1,2,0:0:0:0:
145,281,42255,1,10,0:0:0:0:
367,283,42422,1,0,0:0:0:0:
180,137,42588,5,2,0:0:0:0:
212,169,42671,1,2,0:0:0:0:
254,183,42754,1,10,0:0:0:0:
298,175,42837,1,2,0:0:0:0:
332,147,42921,2,0,L|337:96,1,45,10|2,0:0|0:0,0:0:0:0:
386,231,43088,2,0,L|391:281,1,45,10|10,0:0|0:0,0:0:0:0:
290,353,43255,5,6,0:0:0:0:
124,199,43422,1,2,0:0:0:0:
332,147,43588,1,8,0:0:0:0:
144,292,43755,2,0,B|126:303|111:327|111:327|96:253|124:195,1,180,6|2,0:0|0:0,0:0:0:0:
223,101,44255,1,10,0:0:0:0:
249,117,44338,1,2,0:0:0:0:
280,119,44421,1,2,0:0:0:0:
311,113,44505,1,2,0:0:0:0:
336,94,44588,5,6,0:0:0:0:
270,228,44755,1,0,0:0:0:0:
275,28,44922,1,8,0:0:0:0:
346,257,45088,2,0,P|279:311|202:275,1,180,6|0,0:0|0:0,0:0:0:0:
130,149,45588,1,10,0:0:0:0:
122,104,45672,1,2,0:0:0:0:
137,62,45755,1,2,0:0:0:0:
167,29,45838,1,10,0:0:0:0:
209,13,45922,5,8,0:0:0:0:
343,170,46088,1,2,0:0:0:0:
118,234,46255,5,8,0:0:0:0:
358,184,46422,1,2,0:0:0:0:
49,176,46588,5,10,0:0:0:0:
283,310,46755,1,2,0:0:0:0:
325,42,46922,1,8,0:0:0:0:
100,246,47088,6,0,L|188:262,1,90,6|0,0:0|0:0,0:0:0:0:
357,211,47422,1,2,0:0:0:0:
170,373,47588,1,10,0:0:0:0:
192,177,47754,1,10,0:0:0:0:
195,181,47838,1,8,0:0:0:0:
198,185,47921,1,10,0:0:0:0:
181,213,48588,6,0,P|170:256|177:300,1,90,6|0,0:0|0:0,0:0:0:0:
361,299,48921,2,0,P|368:254|357:211,1,90,2|0,0:0|0:0,0:0:0:0:
190,120,49255,2,0,B|135:120|108:156|108:156|78:115|30:115,1,180,2|2,0:0|0:0,0:0:0:0:
181,213,49755,1,2,0:0:0:0:
314,130,49922,6,0,P|357:118|401:126,1,90,2|0,0:0|0:0,0:0:0:0:
403,373,50255,2,0,P|358:380|315:369,1,90,2|0,0:0|0:0,0:0:0:0:
106,160,50588,2,0,P|183:160|158:233,1,180,2|0,0:0|0:0,0:0:0:0:
158,233,51255,5,2,0:0:0:0:
247,99,51422,1,2,0:0:0:0:
305,246,51588,2,0,P|310:290|296:332,1,90,2|0,0:0|0:0,0:0:0:0:
87,187,51922,2,0,P|81:143|95:101,1,90,2|0,0:0|0:0,0:0:0:0:
245,12,52255,1,2,0:0:0:0:
170,157,52422,1,2,0:0:0:0:
353,31,52588,6,0,P|308:36|265:25,1,90,2|0,0:0|0:0,0:0:0:0:
326,255,52922,2,0,P|369:243|413:249,1,90,2|0,0:0|0:0,0:0:0:0:
376,333,53255,1,2,0:0:0:0:
268,177,53422,1,2,0:0:0:0:
455,160,53588,1,10,0:0:0:0:
466,150,53922,5,6,0:0:0:0:
351,235,54088,1,2,0:0:0:0:
351,89,54255,2,0,L|351:0,1,90,10|0,0:0|0:0,0:0:0:0:
126,55,54588,5,2,0:0:0:0:
261,142,54754,1,2,0:0:0:0:
104,225,54922,2,0,B|97:175|97:175|107:137,1,90,10|0,0:0|0:0,0:0:0:0:
258,343,55255,6,0,P|215:332|173:344,1,90,2|0,0:0|0:0,0:0:0:0:
46,297,55588,1,10,0:0:0:0:
203,190,55755,1,2,0:0:0:0:
74,127,55922,2,0,L|88:215,1,90,2|0,0:0|0:0,0:0:0:0:
312,217,56255,2,0,L|327:129,1,90,8|0,0:0|0:0,0:0:0:0:
202,32,56588,5,2,0:0:0:0:
197,207,56755,1,2,0:0:0:0:
332,103,56922,1,2,0:0:0:0:
95,105,57088,1,2,0:0:0:0:
286,33,57255,2,0,P|329:21|372:30,1,90,2|0,0:0|0:0,0:0:0:0:
375,197,57588,2,0,P|331:206|288:194,1,90,10|0,0:0|0:0,0:0:0:0:
119,70,57922,5,2,0:0:0:0:
152,310,58088,1,2,0:0:0:0:
265,117,58255,5,2,0:0:0:0:
201,384,58422,1,2,0:0:0:0:
58,227,58588,5,2,0:0:0:0:
255,316,58755,1,2,0:0:0:0:
425,183,58922,1,8,0:0:0:0:
446,179,59255,6,0,B|468:156|468:156|485:218|465:259,1,135.000005149842,6|0,0:0|0:0,0:0:0:0:
465,257,59755,1,0,0:0:0:0:
255,316,59922,2,0,L|300:266,1,67.5000025749208,2|0,0:0|0:0,0:0:0:0:
288,122,60255,2,0,L|242:171,1,67.5000025749208,10|0,0:0|0:0,0:0:0:0:
111,313,60588,6,0,P|84:253|110:192,1,135.000005149842,2|0,0:0|0:0,0:0:0:0:
110,192,61088,1,0,0:0:0:0:
243,125,61255,2,0,P|247:91|237:59,1,67.5000025749208,2|0,0:0|0:0,0:0:0:0:
140,183,61588,1,8,0:0:0:0:
403,47,61922,6,0,B|354:48|326:37|326:37|300:36|270:45,1,135.000005149842,2|0,0:0|0:0,0:0:0:0:
270,44,62422,1,0,0:0:0:0:
384,213,62588,2,0,P|395:181|392:147,1,67.5000025749208,2|0,0:0|0:0,0:0:0:0:
307,272,62922,2,0,P|303:305|314:337,1,67.5000025749208,8|0,0:0|0:0,0:0:0:0:
390,291,63255,5,2,0:0:0:0:
299,170,63422,1,2,0:0:0:0:
221,300,63588,1,0,0:0:0:0:
384,213,63755,1,2,0:0:0:0:
216,137,63922,1,2,0:0:0:0:
307,272,64088,5,8,0:0:0:0:
331,102,64255,1,8,0:0:0:0:
333,85,64338,1,8,0:0:0:0:
336,68,64421,1,8,0:0:0:0:
339,52,64504,1,8,0:0:0:0:
342,36,64588,6,0,B|304:22|304:22|255:27,1,90,14|0,0:0|0:0,0:0:0:0:
165,208,64922,2,0,B|203:222|203:222|251:216,1,90,10|0,0:0|0:0,0:0:0:0:
98,161,65255,2,0,P|82:202|91:245,1,90,2|0,0:0|0:0,0:0:0:0:
282,326,65588,2,0,P|291:282|275:241,1,90,10|0,0:0|0:0,0:0:0:0:
172,126,65922,6,0,B|106:124|106:124|125:137,1,90,6|0,0:0|0:0,0:0:0:0:
344,187,66255,2,0,B|372:127|372:127|352:139,1,90,10|0,0:0|0:0,0:0:0:0:
174,260,66588,2,0,B|216:310|216:310|213:286,1,90,2|0,0:0|0:0,0:0:0:0:
107,125,66922,1,10,0:0:0:0:
95,108,67255,5,12,0:0:0:0:
394,181,67422,1,2,0:0:0:0:
86,212,67588,5,8,0:0:0:0:
388,102,67755,1,2,0:0:0:0:
82,90,67922,5,8,0:0:0:0:
452,244,68088,1,2,0:0:0:0:
94,315,68255,5,8,0:0:0:0:
437,36,68422,1,4,0:0:0:0:
452,244,68755,5,6,0:0:0:0:
244,213,68922,1,6,0:0:0:0:
388,102,69088,1,6,0:0:0:0:
323,318,69255,6,0,B|314:332|311:360|311:360|290:314|318:273,1,135,6|0,0:0|0:0,0:0:0:0:
332,243,69589,1,10,0:0:0:0:
332,243,69922,6,0,B|286:249|286:249|244:241,1,90,6|0,0:0|0:0,0:0:0:0:
73,154,70255,2,0,B|119:160|119:160|161:152,1,90,10|0,0:0|0:0,0:0:0:0:
297,50,70588,2,0,L|287:139,1,90,2|0,0:0|0:0,0:0:0:0:
150,355,70922,2,0,L|140:265,1,90,10|0,0:0|0:0,0:0:0:0:
111,76,71255,5,2,0:0:0:0:
229,253,71422,1,2,0:0:0:0:
297,50,71588,1,10,0:0:0:0:
140,265,71755,2,0,L|229:253,1,90,2|0,0:0|0:0,0:0:0:0:
420,209,72088,5,2,0:0:0:0:
217,352,72255,1,10,0:0:0:0:
180,107,72422,1,2,0:0:0:0:
420,209,72588,6,0,P|428:165|415:122,1,90,2|0,0:0|0:0,0:0:0:0:
224,267,72922,2,0,P|209:309|218:353,1,90,10|0,0:0|0:0,0:0:0:0:
269,109,73255,2,0,B|227:101|227:101|181:107,1,90,2|0,0:0|0:0,0:0:0:0:
289,314,73588,2,0,B|335:320|335:320|377:312,1,90,10|0,0:0|0:0,0:0:0:0:
417,111,73922,5,2,0:0:0:0:
221,229,74088,1,2,0:0:0:0:
429,220,74255,1,10,0:0:0:0:
224,65,74422,1,2,0:0:0:0:
151,273,74588,5,2,0:0:0:0:
186,300,74671,1,2,0:0:0:0:
229,308,74754,1,2,0:0:0:0:
272,294,74837,1,2,0:0:0:0:
303,262,74922,2,0,L|296:217,1,45,10|2,0:0|0:0,0:0:0:0:
200,150,75088,2,0,L|206:105,1,45,10|10,0:0|0:0,0:0:0:0:
304,31,75254,5,14,0:0:0:0:
221,229,75422,1,2,0:0:0:0:
417,111,75588,1,10,0:0:0:0:
206,106,75755,2,0,B|162:100|129:113|129:113|91:96|91:96|63:103|26:100,1,180,6|2,0:0|0:0,0:0:0:0:
76,218,76255,1,10,0:0:0:0:
105,234,76338,1,2,0:0:0:0:
138,237,76421,1,2,0:0:0:0:
170,227,76504,1,2,0:0:0:0:
195,204,76588,5,6,0:0:0:0:
148,354,76755,1,2,0:0:0:0:
124,148,76922,1,10,0:0:0:0:
256,322,77088,2,0,B|299:326|326:320|326:320|363:331|363:331|405:325|435:329,1,180,6|2,0:0|0:0,0:0:0:0:
477,26,77588,1,10,0:0:0:0:
439,2,77672,1,2,0:0:0:0:
394,0,77755,1,2,0:0:0:0:
350,10,77838,1,2,0:0:0:0:
317,42,77922,6,0,L|312:176,1,135,6|0,0:0|0:0,0:0:0:0:
311,176,78255,1,10,0:0:0:0:
211,104,78422,1,0,0:0:0:0:
404,105,78588,1,2,0:0:0:0:
273,276,78755,1,2,0:0:0:0:
317,42,78922,1,8,0:0:0:0:
469,284,79088,6,0,B|379:314|380:245|294:272,1,180,6|0,0:0|0:0,0:0:0:0:
161,318,79588,5,8,0:0:0:0:
160,74,79755,1,2,0:0:0:0:
294,271,79922,5,8,0:0:0:0:
33,189,80088,1,10,0:0:0:0:
310,86,80255,5,8,0:0:0:0:
152,328,80422,1,10,0:0:0:0:
146,335,80505,1,8,0:0:0:0:
141,343,80588,6,0,L|51:351,1,90,6|0,0:0|0:0,0:0:0:0:
51,72,80922,2,0,L|140:80,1,90,10|0,0:0|0:0,0:0:0:0:
282,217,81255,2,0,P|239:230|197:215,1,90,2|0,0:0|0:0,0:0:0:0:
310,86,81588,2,0,P|351:71|394:84,1,90,10|0,0:0|0:0,0:0:0:0:
458,319,81922,5,2,0:0:0:0:
352,148,82088,1,2,0:0:0:0:
252,329,82255,1,10,0:0:0:0:
361,128,82422,2,0,L|349:38,1,90,2|0,0:0|0:0,0:0:0:0:
198,216,82755,5,2,0:0:0:0:
458,319,82921,1,10,0:0:0:0:
349,38,83088,1,2,0:0:0:0:
252,329,83255,6,0,L|341:327,1,90,2|0,0:0|0:0,0:0:0:0:
207,108,83588,2,0,L|117:106,1,90,10|0,0:0|0:0,0:0:0:0:
351,56,83922,2,0,B|359:101|359:101|346:143,1,90,2|0,0:0|0:0,0:0:0:0:
203,270,84255,2,0,B|195:225|195:225|207:182,1,90,10|0,0:0|0:0,0:0:0:0:
349,276,84588,5,2,0:0:0:0:
100,261,84755,1,2,0:0:0:0:
344,164,84922,1,10,0:0:0:0:
89,148,85088,1,2,0:0:0:0:
284,93,85255,5,2,0:0:0:0:
326,77,85338,1,2,0:0:0:0:
370,81,85421,1,2,0:0:0:0:
409,102,85504,1,2,0:0:0:0:
437,143,85588,2,0,L|394:157,1,45,10|2,0:0|0:0,0:0:0:0:
261,261,85755,2,0,L|304:275,1,45,10|10,0:0|0:0,0:0:0:0:
438,311,85921,5,14,0:0:0:0:
207,182,86088,1,2,0:0:0:0:
440,226,86255,1,10,0:0:0:0:
145,240,86422,2,0,P|124:157|184:96,1,180,6|2,0:0|0:0,0:0:0:0:
216,297,86922,1,10,0:0:0:0:
190,318,87005,1,2,0:0:0:0:
158,328,87088,1,2,0:0:0:0:
124,326,87171,1,2,0:0:0:0:
94,311,87255,5,6,0:0:0:0:
207,182,87422,1,2,0:0:0:0:
189,365,87588,1,8,0:0:0:0:
2,179,87755,2,0,L|181:164,1,180,6|2,0:0|0:0,0:0:0:0:
337,347,88255,1,10,0:0:0:0:
373,372,88338,1,2,0:0:0:0:
417,376,88421,1,2,0:0:0:0:
457,356,88504,1,2,0:0:0:0:
481,319,88588,5,14,0:0:0:0:
201,270,88755,1,2,0:0:0:0:
403,285,88922,5,8,0:0:0:0:
217,367,89088,1,2,0:0:0:0:
436,179,89255,5,10,0:0:0:0:
318,368,89422,1,2,0:0:0:0:
205,181,89588,1,10,0:0:0:0:
334,9,89755,6,0,B|327:65|327:65|338:93|338:93|338:143,1,135,6|0,0:0|0:0,0:0:0:0:
342,176,90088,1,2,0:0:0:0:
120,257,90255,1,10,0:0:0:0:
258,277,90422,2,0,L|253:232,1,45,10|8,0:0|0:0,0:0:0:0:
208,85,90588,6,0,B|150:68|150:68|92:87,2,120,10|10|10,0:0|0:0|0:0,0:0:0:0:
229,161,91144,1,8,0:0:0:0:
151,176,91255,6,0,P|119:256|170:325,1,180,6|8,0:0|0:0,0:0:0:0:
338,267,91755,1,2,0:0:0:0:
207,248,91922,1,2,0:0:0:0:
332,363,92088,1,0,0:0:0:0:
344,167,92255,2,0,L|348:77,1,90,8|0,0:0|0:0,0:0:0:0:
452,28,92588,6,0,B|467:66|471:108|471:108|450:142|457:207,1,180,2|8,0:0|0:0,0:0:0:0:
439,338,93088,1,2,0:0:0:0:
305,261,93255,2,0,P|349:267|392:257,1,90,2|0,0:0|0:0,0:0:0:0:
250,196,93588,2,0,P|226:232|223:277,1,90,8|0,0:0|0:0,0:0:0:0:
342,178,93922,6,0,P|287:111|200:119,1,180,2|8,0:0|0:0,0:0:0:0:
90,224,94422,1,2,0:0:0:0:
90,224,94505,1,0,0:0:0:0:
90,224,94588,1,2,0:0:0:0:
99,85,94755,1,0,0:0:0:0:
2,211,94922,2,0,P|4:255|29:292,1,90,8|0,0:0|0:0,0:0:0:0:
263,243,95255,6,0,B|173:199|172:270|90:224,1,180,2|8,0:0|0:0,0:0:0:0:
206,304,95755,6,0,P|230:219|171:151,1,180,2|0,0:0|0:0,0:0:0:0:
140,239,96255,1,10,0:0:0:0:
374,312,96422,1,10,0:0:0:0:
377,303,96505,1,8,0:0:0:0:
380,294,96588,6,0,B|380:260|392:234|392:234|374:189|374:189|386:164|380:118,1,180,2|8,0:0|0:0,0:0:0:0:
454,184,97088,2,0,P|373:216|299:170,1,180,2|0,0:0|0:0,0:0:0:0:
206,41,97588,2,0,L|209:130,1,90,10|0,0:0|0:0,0:0:0:0:
137,266,97922,6,0,B|122:279|108:313|108:313|92:252|105:189,1,180,2|8,0:0|0:0,0:0:0:0:
208,82,98422,2,0,P|289:54|351:114,1,180,2|0,0:0|0:0,0:0:0:0:
202,195,98922,1,10,0:0:0:0:
288,330,99088,1,10,0:0:0:0:
288,330,99171,1,8,0:0:0:0:
288,329,99255,6,0,P|217:357|222:281,1,180,8|8,0:0|0:0,0:0:0:0:
271,130,99755,1,2,0:0:0:0:
370,299,99922,1,2,0:0:0:0:
176,213,100088,1,2,0:0:0:0:
379,166,100255,1,10,0:0:0:0:
259,360,100422,6,0,B|216:349|183:361|183:361|158:343|158:343|132:357|79:344,1,180,6|2,0:0|0:0,0:0:0:0:
90,57,100922,1,10,0:0:0:0:
92,80,101005,1,8,0:0:0:0:
94,102,101088,1,10,0:0:0:0:
96,125,101171,1,8,0:0:0:0:
99,147,101255,6,0,P|124:217|106:131,1,360,14|6,0:0|0:0,0:0:0:0:
161,165,103255,5,6,0:0:0:0:
408,129,103922,1,6,0:0:0:0:
136,79,104588,1,6,0:0:0:0:
300,374,105922,5,6,0:0:0:0:
150,244,106089,1,10,0:0:0:0:
346,260,106256,1,10,0:0:0:0:
177,362,106422,1,2,0:0:0:0:
250,177,106588,5,2,0:0:0:0:
246,154,106671,1,2,0:0:0:0:
242,132,106754,1,10,0:0:0:0:
238,110,106837,1,2,0:0:0:0:
229,67,106922,5,10,0:0:0:0:
194,95,107005,1,10,0:0:0:0:
150,102,107088,1,10,0:0:0:0:
109,86,107171,1,10,0:0:0:0:
72,46,107255,5,14,0:0:0:0:
159,213,107422,2,0,L|69:202,1,90,2|10,0:0|0:0,0:0:0:0:
193,356,107755,2,0,P|271:320|342:368,1,180,6|2,0:0|0:0,0:0:0:0:
307,205,108256,1,10,0:0:0:0:
278,170,108339,1,2,0:0:0:0:
277,126,108422,1,2,0:0:0:0:
306,92,108505,1,2,0:0:0:0:
344,68,108588,5,6,0:0:0:0:
205,205,108755,1,2,0:0:0:0:
411,198,108922,1,10,0:0:0:0:
231,63,109088,6,0,B|166:41|101:57|101:57|129:62|158:85,1,180,6|2,0:0|0:0,0:0:0:0:
198,232,109588,1,10,0:0:0:0:
242,228,109672,1,2,0:0:0:0:
278,200,109755,1,2,0:0:0:0:
302,162,109838,1,2,0:0:0:0:
298,117,109922,5,12,0:0:0:0:
206,328,110088,1,2,0:0:0:0:
198,136,110255,5,8,0:0:0:0:
304,341,110422,1,2,0:0:0:0:
404,133,110588,5,8,0:0:0:0:
164,239,110755,1,2,0:0:0:0:
351,46,110922,5,8,0:0:0:0:
392,307,111088,1,2,0:0:0:0:
231,63,111255,5,14,0:0:0:0:
459,193,111422,1,10,0:0:0:0:
243,258,111588,1,10,0:0:0:0:
462,54,111755,1,10,0:0:0:0:
245,50,111922,5,10,0:0:0:0:
211,48,112005,1,8,0:0:0:0:
177,46,112088,1,8,0:0:0:0:
143,45,112171,1,8,0:0:0:0:
101,82,112255,5,8,0:0:0:0:
157,85,112338,1,8,0:0:0:0:
214,89,112421,1,8,0:0:0:0:
272,93,112504,1,8,0:0:0:0:
330,95,112588,6,0,L|419:97,1,90,6|0,0:0|0:0,0:0:0:0:
420,321,112922,2,0,L|331:323,1,90,10|0,0:0|0:0,0:0:0:0:
90,321,113255,2,0,P|132:308|176:317,1,90,2|0,0:0|0:0,0:0:0:0:
180,91,113588,2,0,P|136:100|93:87,1,90,10|0,0:0|0:0,0:0:0:0:
332,0,113922,5,2,0:0:0:0:
315,302,114088,1,2,0:0:0:0:
180,91,114255,1,10,0:0:0:0:
401,152,114422,2,0,L|488:173,1,90,2|0,0:0|0:0,0:0:0:0:
330,323,114755,5,2,0:0:0:0:
180,91,114922,1,10,0:0:0:0:
330,323,115088,1,2,0:0:0:0:
180,91,115255,6,0,L|90:79,1,90,2|0,0:0|0:0,0:0:0:0:
89,360,115588,2,0,L|178:348,1,90,10|0,0:0|0:0,0:0:0:0:
465,212,115922,2,0,P|421:200|378:211,1,90,2|0,0:0|0:0,0:0:0:0:
149,236,116255,2,0,P|192:247|235:236,1,90,10|0,0:0|0:0,0:0:0:0:
359,132,116588,5,2,0:0:0:0:
116,39,116755,1,2,0:0:0:0:
353,43,116922,1,10,0:0:0:0:
194,167,117088,1,2,0:0:0:0:
413,201,117255,5,2,0:0:0:0:
441,166,117338,1,2,0:0:0:0:
449,122,117421,1,2,0:0:0:0:
432,80,117504,1,2,0:0:0:0:
398,49,117588,2,0,P|375:44|353:44,1,45,10|2,0:0|0:0,0:0:0:0:
194,167,117755,2,0,P|216:171|238:171,1,45,10|10,0:0|0:0,0:0:0:0:
359,132,117922,5,14,0:0:0:0:
183,296,118088,1,2,0:0:0:0:
139,68,118255,1,10,0:0:0:0:
331,267,118422,2,0,L|510:249,1,180,6|2,0:0|0:0,0:0:0:0:
251,199,118922,1,10,0:0:0:0:
233,228,119005,1,2,0:0:0:0:
226,261,119088,1,2,0:0:0:0:
233,293,119171,1,2,0:0:0:0:
252,322,119255,5,6,0:0:0:0:
205,80,119422,1,2,0:0:0:0:
331,267,119588,1,10,0:0:0:0:
179,64,119755,2,0,B|135:54|95:66|95:66|58:51|58:51|35:58|0:54,1,180,6|2,0:0|0:0,0:0:0:0:
251,199,120255,1,10,0:0:0:0:
283,230,120338,1,2,0:0:0:0:
296,272,120421,1,10,0:0:0:0:
291,317,120505,1,10,0:0:0:0:
269,356,120588,5,6,0:0:0:0:
152,164,120755,1,2,0:0:0:0:
337,86,120922,5,10,0:0:0:0:
186,341,121088,1,2,0:0:0:0:
425,156,121255,5,10,0:0:0:0:
110,247,121422,1,2,0:0:0:0:
419,303,121588,1,10,0:0:0:0:
163,36,121755,6,0,B|161:70|147:92|147:92|159:117|159:117|148:135|151:165,1,135,6|0,0:0|0:0,0:0:0:0:
110,247,122088,1,2,0:0:0:0:
277,75,122255,6,0,L|232:79,1,45,14|10,0:0|0:0,0:0:0:0:
25,140,122422,2,0,L|69:144,1,45,10|10,0:0|0:0,0:0:0:0:
307,222,122588,5,14,0:0:0:0:
