osu file format v14

[General]
AudioFilename: yakubyougami.ogg
AudioLeadIn: 0
PreviewTime: 185085
Countdown: 0
SampleSet: Normal
StackLeniency: 0.7
Mode: 1
LetterboxInBreaks: 0
WidescreenStoryboard: 1

[Editor]
Bookmarks: 1228,10370,19513,28656,37799,46942,56085,65228,74370,83513,92656,101799,110942,120085,129228,138370,147513,156656,165799,174942,185228,194370,205799,214942
DistanceSpacing: 1
BeatDivisor: 4
GridSize: 32
TimelineZoom: 3.199999

[Metadata]
Title:Yakubyougami
TitleUnicode:ヤクビョウガミ
Artist:ayaponzu*
ArtistUnicode:あやぽんず*
Creator:gaston_2199
Version:Futsuu
Source:
Tags:chocolate pop* 歌い手 utaite 歌ってみた utattemita まふまふ mafumafu ボーカロイド vocaloid カバー cover みみぃ mimy C89 comiket japanese j-pop jpop jrock j-rock japanese female vocal qoot8123 Star Stream S.S
BeatmapID:2740474
BeatmapSetID:742938

[Difficulty]
HPDrainRate:7
CircleSize:2
OverallDifficulty:4
ApproachRate:10
SliderMultiplier:1.4
SliderTickRate:1

[Events]
//Background and Video events
0,0,"BG.jpg",0,0
//Break Periods
//Storyboard Layer 0 (Background)
//Storyboard Layer 1 (Fail)
//Storyboard Layer 2 (Pass)
//Storyboard Layer 3 (Foreground)
//Storyboard Layer 4 (Overlay)
//Storyboard Sound Samples

[TimingPoints]
228,285.714285714286,4,1,0,50,1,8
1079,-100,4,1,0,90,0,0
19654,-100,5,1,0,70,0,0
24221,-100,5,1,0,80,0,0
28649,-100,5,1,0,90,0,0
37935,-100,5,1,0,80,0,0
42363,-100,5,1,0,90,0,0
47078,-100,5,1,0,80,0,0
51506,-100,5,1,0,90,0,0
54078,-100,5,1,0,80,0,0
56085,-100,5,1,0,100,0,1
74370,-100,5,1,0,90,0,0
92792,-100,5,1,0,70,0,0
97364,-100,5,1,0,80,0,0
101792,-100,5,1,0,90,0,0
111078,-100,5,1,0,80,0,0
115506,-100,5,1,0,90,0,0
120221,-100,5,1,0,80,0,0
124649,-100,5,1,0,90,0,0
126935,-100,5,1,0,50,0,0
128078,-100,5,1,0,80,0,0
129228,-100,5,1,0,100,0,1
147513,-100,5,1,0,90,0,0
165940,-100,5,1,0,80,0,0
170363,-100,5,1,0,90,0,0
175078,-100,5,1,0,80,0,0
179506,-100,5,1,0,90,0,0
182078,-100,5,1,0,80,0,0
185228,-100,5,1,0,100,0,1
205799,-100,5,1,0,100,0,0
205940,-100,5,1,0,90,0,0

[HitObjects]
256,192,1228,5,4,0:0:0:0:
256,192,1656,1,8,0:0:0:0:
256,192,1942,1,0,0:0:0:0:
256,192,2370,1,0,0:0:0:0:
256,160,3085,1,0,0:0:0:0:
241,113,3228,1,0,0:0:0:0:
256,192,3513,1,0,0:0:0:0:
256,160,3942,1,8,0:0:0:0:
256,160,4228,1,0,0:0:0:0:
256,160,4656,1,0,0:0:0:0:
256,160,5370,1,8,0:0:0:0:
256,160,5513,1,8,0:0:0:0:
256,160,5799,1,4,0:0:0:0:
256,160,6228,1,8,0:0:0:0:
256,160,6513,1,0,0:0:0:0:
256,160,6942,1,0,0:0:0:0:
256,160,7656,1,0,0:0:0:0:
217,102,7799,1,0,0:0:0:0:
256,160,8085,1,0,0:0:0:0:
256,160,8513,1,8,0:0:0:0:
256,160,8799,1,0,0:0:0:0:
256,160,9228,1,8,0:0:0:0:
256,160,9656,1,8,0:0:0:0:
256,160,9799,1,0,0:0:0:0:
256,160,9942,1,8,0:0:0:0:
256,160,10370,1,4,0:0:0:0:
256,160,10799,1,8,0:0:0:0:
256,160,11085,1,0,0:0:0:0:
256,160,11513,1,0,0:0:0:0:
256,160,12228,1,8,0:0:0:0:
256,160,12370,1,0,0:0:0:0:
256,160,12656,1,0,0:0:0:0:
256,160,13085,1,8,0:0:0:0:
256,160,13370,1,0,0:0:0:0:
256,160,13799,1,0,0:0:0:0:
256,160,14513,1,8,0:0:0:0:
256,160,14656,1,8,0:0:0:0:
256,160,14942,1,4,0:0:0:0:
256,160,15370,1,8,0:0:0:0:
256,160,15656,1,0,0:0:0:0:
256,160,16085,1,0,0:0:0:0:
256,160,16799,1,0,0:0:0:0:
256,160,16942,1,0,0:0:0:0:
256,160,17228,1,0,0:0:0:0:
256,160,17656,1,8,0:0:0:0:
256,160,17942,1,0,0:0:0:0:
256,160,18370,1,0,0:0:0:0:
256,160,18799,1,8,0:0:0:0:
256,160,18942,1,0,0:0:0:0:
256,160,19085,1,8,0:0:0:0:
256,160,19513,1,0,0:0:0:0:
256,160,20799,1,0,0:0:0:0:
133,154,21370,1,0,0:0:0:0:
256,160,21656,1,8,0:0:0:0:
256,192,23085,1,0,0:0:0:0:
256,192,23656,1,0,0:0:0:0:
256,192,23942,1,8,0:0:0:0:
256,192,24228,1,0,0:0:0:0:
256,192,25656,1,0,0:0:0:0:
248,127,25942,1,8,0:0:0:0:
256,192,26228,1,8,0:0:0:0:
256,192,26513,1,0,0:0:0:0:
256,192,27085,1,0,0:0:0:0:
288,192,27656,1,8,0:0:0:0:
256,192,27799,1,8,0:0:0:0:
256,192,28085,1,8,0:0:0:0:
300,131,28513,1,8,0:0:0:0:
256,192,28656,1,4,0:0:0:0:
256,192,29370,1,0,0:0:0:0:
256,192,29656,1,8,0:0:0:0:
256,192,29799,1,0,0:0:0:0:
256,192,30228,1,8,0:0:0:0:
256,192,30513,1,0,0:0:0:0:
256,192,30942,1,0,0:0:0:0:
256,192,31513,1,0,0:0:0:0:
168,9,31942,1,8,0:0:0:0:
256,192,32085,1,0,0:0:0:0:
256,192,32799,1,0,0:0:0:0:
256,192,33085,1,8,0:0:0:0:
256,192,33228,1,4,0:0:0:0:
256,192,33942,1,0,0:0:0:0:
256,192,34085,1,8,0:0:0:0:
256,192,34370,1,12,0:0:0:0:
256,192,35085,1,0,0:0:0:0:
256,192,35228,1,0,0:0:0:0:
256,192,35513,1,8,0:0:0:0:
256,192,36228,1,0,0:0:0:0:
256,192,36370,1,0,0:0:0:0:
256,192,36656,1,8,0:0:0:0:
256,192,37370,1,8,0:0:0:0:
256,192,37656,1,8,0:0:0:0:
256,192,37799,1,4,0:0:0:0:
256,192,38513,1,0,0:0:0:0:
256,192,38942,1,8,0:0:0:0:
256,192,39656,1,8,0:0:0:0:
256,192,40085,1,0,0:0:0:0:
256,192,40513,1,8,0:0:0:0:
256,192,40799,1,0,0:0:0:0:
228,144,40942,1,8,0:0:0:0:
256,192,41228,1,0,0:0:0:0:
256,192,41942,1,0,0:0:0:0:
256,192,42228,1,8,0:0:0:0:
256,160,42370,1,4,0:0:0:0:
256,160,43085,1,8,0:0:0:0:
256,160,43513,1,0,0:0:0:0:
256,160,43942,1,8,0:0:0:0:
256,160,44228,1,0,0:0:0:0:
256,160,44370,1,8,0:0:0:0:
256,160,44656,1,0,0:0:0:0:
224,160,45370,1,8,0:0:0:0:
224,160,45799,1,0,0:0:0:0:
256,160,46228,1,8,0:0:0:0:
256,160,46513,1,8,0:0:0:0:
256,160,46656,1,8,0:0:0:0:
288,192,46942,1,4,0:0:0:0:
256,192,47656,1,8,0:0:0:0:
256,192,48085,1,0,0:0:0:0:
256,192,48799,1,8,0:0:0:0:
256,192,49228,1,0,0:0:0:0:
256,192,49942,1,8,0:0:0:0:
256,192,50370,5,0,0:0:0:0:
121,75,50799,1,8,0:0:0:0:
256,192,51085,1,8,0:0:0:0:
256,192,51228,1,8,0:0:0:0:
256,192,51513,1,4,0:0:0:0:
256,192,52228,1,0,0:0:0:0:
256,192,52656,1,12,0:0:0:0:
256,192,53370,1,0,0:0:0:0:
256,192,53799,5,4,0:0:0:0:
256,192,54228,1,8,0:0:0:0:
256,192,54513,1,0,0:0:0:0:
256,192,54799,1,8,0:0:0:0:
256,192,54942,1,0,0:0:0:0:
256,192,55085,1,8,0:0:0:0:
256,192,55370,1,0,0:0:0:0:
256,192,55656,1,8,0:0:0:0:
256,192,56085,1,4,0:0:0:0:
256,192,56656,1,0,0:0:0:0:
256,192,56799,1,0,0:0:0:0:
256,192,57228,1,0,0:0:0:0:
256,192,57799,1,8,0:0:0:0:
256,192,57942,1,0,0:0:0:0:
256,192,58370,1,0,0:0:0:0:
256,192,58799,1,8,0:0:0:0:
256,192,59085,1,8,0:0:0:0:
256,192,59513,1,0,0:0:0:0:
256,192,60228,1,8,0:0:0:0:
256,192,60513,1,8,0:0:0:0:
256,192,60656,1,4,0:0:0:0:
256,192,61085,1,8,0:0:0:0:
256,192,61656,1,8,0:0:0:0:
256,192,61799,1,0,0:0:0:0:
256,192,62228,1,8,0:0:0:0:
256,192,62799,1,8,0:0:0:0:
256,192,62942,1,8,0:0:0:0:
256,192,63370,1,0,0:0:0:0:
256,192,63656,1,8,0:0:0:0:
256,192,64085,1,0,0:0:0:0:
256,192,64513,1,8,0:0:0:0:
256,192,64799,1,0,0:0:0:0:
256,192,64942,1,0,0:0:0:0:
256,192,65228,1,4,0:0:0:0:
256,192,65799,1,8,0:0:0:0:
256,192,65942,1,0,0:0:0:0:
256,192,66370,1,0,0:0:0:0:
256,192,66942,1,8,0:0:0:0:
256,192,67085,1,8,0:0:0:0:
256,192,67513,1,0,0:0:0:0:
256,192,67942,1,8,0:0:0:0:
256,192,68228,1,0,0:0:0:0:
256,192,68370,1,8,0:0:0:0:
256,192,68656,1,0,0:0:0:0:
256,192,69370,1,8,0:0:0:0:
256,192,69656,1,8,0:0:0:0:
256,192,69799,1,4,0:0:0:0:
256,192,70799,1,8,0:0:0:0:
256,192,71085,1,0,0:0:0:0:
256,192,71370,1,8,0:0:0:0:
256,192,71656,1,0,0:0:0:0:
256,192,71942,1,8,0:0:0:0:
256,192,72085,1,0,0:0:0:0:
256,192,72513,1,8,0:0:0:0:
256,192,73085,1,8,0:0:0:0:
256,192,73370,1,0,0:0:0:0:
256,192,73656,1,8,0:0:0:0:
256,192,73942,1,8,0:0:0:0:
256,192,74085,1,8,0:0:0:0:
256,192,74370,1,4,0:0:0:0:
256,192,74799,1,8,0:0:0:0:
256,192,75085,1,0,0:0:0:0:
256,192,75513,1,0,0:0:0:0:
256,160,76228,1,0,0:0:0:0:
256,192,76370,1,0,0:0:0:0:
256,192,76656,1,0,0:0:0:0:
256,160,77085,1,8,0:0:0:0:
256,160,77370,1,0,0:0:0:0:
256,160,77799,1,0,0:0:0:0:
256,160,78513,1,8,0:0:0:0:
256,160,78656,1,8,0:0:0:0:
256,160,78942,1,4,0:0:0:0:
256,160,79370,1,8,0:0:0:0:
256,160,79656,1,0,0:0:0:0:
256,160,80085,1,0,0:0:0:0:
256,160,80799,1,0,0:0:0:0:
224,160,80942,1,0,0:0:0:0:
256,160,81228,1,0,0:0:0:0:
256,160,81656,1,8,0:0:0:0:
256,160,81942,1,0,0:0:0:0:
256,160,82370,1,8,0:0:0:0:
256,160,82799,1,8,0:0:0:0:
256,160,82942,1,0,0:0:0:0:
256,160,83085,1,8,0:0:0:0:
256,160,83513,1,4,0:0:0:0:
256,160,83942,1,8,0:0:0:0:
256,160,84228,1,0,0:0:0:0:
256,160,84656,1,0,0:0:0:0:
256,160,85370,1,8,0:0:0:0:
256,160,85513,1,0,0:0:0:0:
256,160,85799,1,0,0:0:0:0:
256,160,86228,1,8,0:0:0:0:
256,160,86513,1,0,0:0:0:0:
256,160,86942,1,0,0:0:0:0:
256,160,87656,1,8,0:0:0:0:
256,160,87799,1,8,0:0:0:0:
256,160,88085,1,4,0:0:0:0:
256,160,88513,1,8,0:0:0:0:
256,160,88799,1,0,0:0:0:0:
256,160,89228,1,0,0:0:0:0:
256,160,89942,1,0,0:0:0:0:
256,160,90085,1,0,0:0:0:0:
256,160,90370,1,0,0:0:0:0:
256,160,90799,1,8,0:0:0:0:
256,160,91085,1,0,0:0:0:0:
256,160,91513,1,0,0:0:0:0:
256,160,91942,1,8,0:0:0:0:
256,160,92085,1,0,0:0:0:0:
256,160,92228,1,8,0:0:0:0:
256,160,92656,1,0,0:0:0:0:
256,160,93942,1,0,0:0:0:0:
256,160,94513,1,0,0:0:0:0:
256,160,94799,1,8,0:0:0:0:
256,192,96228,1,0,0:0:0:0:
256,192,96799,1,0,0:0:0:0:
256,192,97085,1,8,0:0:0:0:
256,192,97370,1,0,0:0:0:0:
256,192,98799,1,0,0:0:0:0:
248,127,99085,1,8,0:0:0:0:
256,192,99370,1,8,0:0:0:0:
256,192,99656,1,0,0:0:0:0:
256,192,100228,1,0,0:0:0:0:
288,192,100799,1,8,0:0:0:0:
256,192,100942,1,8,0:0:0:0:
256,192,101228,1,8,0:0:0:0:
300,131,101656,1,8,0:0:0:0:
256,192,101799,1,4,0:0:0:0:
256,192,102513,1,0,0:0:0:0:
256,192,102799,1,8,0:0:0:0:
256,192,102942,1,0,0:0:0:0:
256,192,103370,1,8,0:0:0:0:
256,192,103656,1,0,0:0:0:0:
256,192,104085,1,0,0:0:0:0:
256,192,104656,1,0,0:0:0:0:
70,93,105085,1,8,0:0:0:0:
256,192,105228,1,0,0:0:0:0:
256,192,105942,1,0,0:0:0:0:
256,192,106228,1,8,0:0:0:0:
256,192,106370,1,4,0:0:0:0:
256,192,107085,1,0,0:0:0:0:
256,192,107228,1,8,0:0:0:0:
256,192,107513,1,12,0:0:0:0:
256,192,108228,1,0,0:0:0:0:
256,192,108370,1,0,0:0:0:0:
256,192,108656,1,8,0:0:0:0:
256,192,109370,1,0,0:0:0:0:
256,192,109513,1,0,0:0:0:0:
256,192,109799,1,8,0:0:0:0:
256,192,110513,1,8,0:0:0:0:
256,192,110799,1,8,0:0:0:0:
256,192,110942,1,4,0:0:0:0:
256,192,111656,1,0,0:0:0:0:
256,192,112085,1,8,0:0:0:0:
256,192,112799,1,8,0:0:0:0:
256,192,113228,1,0,0:0:0:0:
256,192,113656,1,8,0:0:0:0:
256,192,113942,1,0,0:0:0:0:
220,129,114085,1,8,0:0:0:0:
256,192,114370,1,0,0:0:0:0:
256,192,115085,1,0,0:0:0:0:
256,192,115370,1,8,0:0:0:0:
256,160,115513,1,4,0:0:0:0:
256,160,116228,1,8,0:0:0:0:
256,160,116656,1,0,0:0:0:0:
256,160,117085,1,8,0:0:0:0:
256,160,117370,1,0,0:0:0:0:
256,160,117513,1,0,0:0:0:0:
256,160,117799,1,0,0:0:0:0:
224,160,118513,1,8,0:0:0:0:
224,160,118942,1,0,0:0:0:0:
256,160,119370,1,8,0:0:0:0:
256,160,119656,1,8,0:0:0:0:
256,160,119799,1,8,0:0:0:0:
288,192,120085,1,4,0:0:0:0:
256,192,120799,1,8,0:0:0:0:
256,192,121228,1,0,0:0:0:0:
256,192,121942,1,8,0:0:0:0:
256,192,122370,1,0,0:0:0:0:
256,192,123085,1,8,0:0:0:0:
256,192,123513,5,0,0:0:0:0:
68,20,123942,1,8,0:0:0:0:
256,192,124228,1,8,0:0:0:0:
256,192,124370,1,8,0:0:0:0:
256,192,124656,1,4,0:0:0:0:
256,192,125370,1,0,0:0:0:0:
256,192,125799,1,12,0:0:0:0:
256,192,126513,1,0,0:0:0:0:
256,192,126942,5,0,0:0:0:0:
256,192,128085,1,12,0:0:0:0:
256,192,128513,1,0,0:0:0:0:
256,192,128799,5,8,0:0:0:0:
256,192,129228,1,4,0:0:0:0:
256,192,129799,1,0,0:0:0:0:
256,192,129942,1,0,0:0:0:0:
256,192,130370,1,0,0:0:0:0:
256,192,130942,1,8,0:0:0:0:
256,192,131085,1,0,0:0:0:0:
256,192,131513,1,0,0:0:0:0:
256,192,131942,1,8,0:0:0:0:
256,192,132228,1,8,0:0:0:0:
256,192,132656,1,0,0:0:0:0:
256,192,133370,1,0,0:0:0:0:
256,192,133656,1,8,0:0:0:0:
256,192,133799,1,4,0:0:0:0:
256,192,134228,1,8,0:0:0:0:
256,192,134942,1,0,0:0:0:0:
256,192,135370,1,8,0:0:0:0:
256,192,135942,1,0,0:0:0:0:
256,192,136085,1,0,0:0:0:0:
256,192,136513,1,8,0:0:0:0:
256,192,136799,1,8,0:0:0:0:
256,192,137228,1,0,0:0:0:0:
256,192,137656,1,8,0:0:0:0:
256,192,137942,1,0,0:0:0:0:
256,192,138085,1,0,0:0:0:0:
256,192,138370,1,4,0:0:0:0:
256,192,138942,1,8,0:0:0:0:
256,192,139085,1,0,0:0:0:0:
256,192,139513,1,0,0:0:0:0:
256,192,140085,1,8,0:0:0:0:
256,192,140228,1,8,0:0:0:0:
256,192,140656,1,0,0:0:0:0:
256,192,141085,1,8,0:0:0:0:
256,192,141370,1,0,0:0:0:0:
256,192,141513,1,8,0:0:0:0:
256,192,141799,1,0,0:0:0:0:
256,192,142513,1,8,0:0:0:0:
256,192,142799,1,8,0:0:0:0:
256,192,142942,1,4,0:0:0:0:
256,192,143942,1,8,0:0:0:0:
256,192,144228,1,8,0:0:0:0:
256,192,144513,1,0,0:0:0:0:
256,192,144799,1,8,0:0:0:0:
256,192,145085,1,8,0:0:0:0:
256,192,145228,1,0,0:0:0:0:
256,192,145656,1,8,0:0:0:0:
256,192,146228,1,8,0:0:0:0:
256,192,146513,1,0,0:0:0:0:
256,192,146799,1,8,0:0:0:0:
256,192,147085,1,8,0:0:0:0:
256,192,147228,1,8,0:0:0:0:
256,192,147513,5,4,0:0:0:0:
256,192,148228,1,0,0:0:0:0:
256,192,148656,1,8,0:0:0:0:
256,192,149085,1,8,0:0:0:0:
256,192,149370,1,0,0:0:0:0:
256,192,149513,1,0,0:0:0:0:
256,192,149799,1,0,0:0:0:0:
256,192,150513,1,0,0:0:0:0:
256,192,150942,1,0,0:0:0:0:
256,192,151370,1,8,0:0:0:0:
256,192,151656,1,0,0:0:0:0:
256,192,151799,1,8,0:0:0:0:
256,192,152085,1,4,0:0:0:0:
256,192,152799,1,0,0:0:0:0:
256,192,153228,1,8,0:0:0:0:
256,192,153656,1,8,0:0:0:0:
256,192,153942,1,0,0:0:0:0:
256,192,154085,1,0,0:0:0:0:
256,192,154370,1,0,0:0:0:0:
256,192,155085,1,0,0:0:0:0:
256,192,155513,1,0,0:0:0:0:
256,192,155942,1,8,0:0:0:0:
256,192,156228,1,8,0:0:0:0:
256,192,156370,1,8,0:0:0:0:
256,192,156656,1,4,0:0:0:0:
256,192,157085,1,8,0:0:0:0:
256,192,157370,1,0,0:0:0:0:
256,192,157513,1,0,0:0:0:0:
256,192,157799,1,0,0:0:0:0:
256,192,158228,1,8,0:0:0:0:
256,192,158513,1,0,0:0:0:0:
256,192,158656,1,8,0:0:0:0:
256,192,158942,1,0,0:0:0:0:
256,192,159513,1,8,0:0:0:0:
256,192,160085,1,0,0:0:0:0:
256,192,160513,1,8,0:0:0:0:
256,192,160799,1,8,0:0:0:0:
256,192,160942,1,8,0:0:0:0:
256,192,161228,1,4,0:0:0:0:
256,192,161656,1,8,0:0:0:0:
256,192,161942,1,0,0:0:0:0:
256,192,162370,1,0,0:0:0:0:
227,90,162799,1,8,0:0:0:0:
256,192,163085,1,8,0:0:0:0:
256,192,163228,1,8,0:0:0:0:
256,192,163513,1,0,0:0:0:0:
256,192,164085,1,8,0:0:0:0:
256,192,164656,1,0,0:0:0:0:
256,192,165085,1,8,0:0:0:0:
256,192,165228,1,0,0:0:0:0:
256,192,165370,1,8,0:0:0:0:
256,192,165799,5,4,0:0:0:0:
256,192,166513,1,0,0:0:0:0:
256,192,166942,1,8,0:0:0:0:
256,192,167656,1,8,0:0:0:0:
256,192,168085,1,0,0:0:0:0:
256,192,168513,1,8,0:0:0:0:
256,192,168799,1,0,0:0:0:0:
256,192,168942,1,0,0:0:0:0:
256,192,169228,1,0,0:0:0:0:
256,192,169942,1,0,0:0:0:0:
256,192,170228,1,8,0:0:0:0:
256,160,170370,1,4,0:0:0:0:
256,160,171085,1,8,0:0:0:0:
256,160,171513,1,0,0:0:0:0:
256,160,171942,1,8,0:0:0:0:
256,160,172228,1,0,0:0:0:0:
256,160,172370,1,0,0:0:0:0:
256,160,172656,1,0,0:0:0:0:
224,160,173370,1,8,0:0:0:0:
224,160,173799,1,0,0:0:0:0:
256,160,174228,1,8,0:0:0:0:
256,160,174513,1,8,0:0:0:0:
256,160,174656,1,8,0:0:0:0:
288,192,174942,1,4,0:0:0:0:
256,192,175656,1,8,0:0:0:0:
256,192,176085,1,0,0:0:0:0:
256,192,176799,1,8,0:0:0:0:
256,192,177228,1,0,0:0:0:0:
256,192,177942,1,8,0:0:0:0:
256,192,178370,5,0,0:0:0:0:
256,192,178799,1,8,0:0:0:0:
256,192,179085,1,8,0:0:0:0:
256,192,179228,1,8,0:0:0:0:
256,192,179513,1,4,0:0:0:0:
256,192,180228,1,0,0:0:0:0:
256,192,180656,1,12,0:0:0:0:
256,192,181370,1,8,0:0:0:0:
256,192,181799,5,4,0:0:0:0:
256,192,182228,1,8,0:0:0:0:
256,192,182513,1,0,0:0:0:0:
256,192,182799,1,8,0:0:0:0:
256,192,182942,1,0,0:0:0:0:
256,192,183228,1,0,0:0:0:0:
256,192,183370,1,8,0:0:0:0:
254,144,183513,1,0,0:0:0:0:
256,192,183656,1,8,0:0:0:0:
256,192,185228,1,4,0:0:0:0:
256,192,185799,1,0,0:0:0:0:
256,192,185942,1,0,0:0:0:0:
256,192,186370,1,0,0:0:0:0:
256,192,186942,1,8,0:0:0:0:
256,192,187085,1,0,0:0:0:0:
256,192,187513,1,0,0:0:0:0:
256,192,187942,1,8,0:0:0:0:
256,192,188085,1,0,0:0:0:0:
256,192,188228,1,8,0:0:0:0:
256,192,188656,1,0,0:0:0:0:
256,192,189370,1,0,0:0:0:0:
256,192,189656,1,8,0:0:0:0:
256,192,189799,1,4,0:0:0:0:
256,192,190228,1,8,0:0:0:0:
253,162,190799,1,8,0:0:0:0:
256,192,190942,1,0,0:0:0:0:
256,192,191370,1,8,0:0:0:0:
256,192,191942,1,8,0:0:0:0:
256,192,192085,1,8,0:0:0:0:
256,192,192513,1,0,0:0:0:0:
198,117,192656,1,0,0:0:0:0:
256,192,192799,1,8,0:0:0:0:
256,192,193228,1,0,0:0:0:0:
256,192,193656,1,8,0:0:0:0:
256,192,193942,1,0,0:0:0:0:
256,192,194085,1,0,0:0:0:0:
256,192,194370,1,4,0:0:0:0:
256,192,194942,1,8,0:0:0:0:
256,192,195085,1,0,0:0:0:0:
256,192,195513,1,0,0:0:0:0:
256,192,196085,1,0,0:0:0:0:
256,192,196228,1,8,0:0:0:0:
256,192,196656,1,0,0:0:0:0:
256,192,196942,1,0,0:0:0:0:
256,192,197085,1,8,0:0:0:0:
256,192,197370,1,0,0:0:0:0:
256,192,197513,1,8,0:0:0:0:
256,192,197799,1,0,0:0:0:0:
256,192,198513,1,8,0:0:0:0:
256,192,198799,1,8,0:0:0:0:
256,192,198942,1,4,0:0:0:0:
256,192,199942,1,8,0:0:0:0:
256,192,200228,1,0,0:0:0:0:
256,192,200513,1,8,0:0:0:0:
256,192,200799,1,0,0:0:0:0:
256,192,201085,1,8,0:0:0:0:
256,192,201228,1,0,0:0:0:0:
256,192,201656,1,8,0:0:0:0:
256,192,202228,1,8,0:0:0:0:
256,192,202513,1,0,0:0:0:0:
256,192,202799,1,8,0:0:0:0:
256,192,203085,1,8,0:0:0:0:
256,192,203370,1,8,0:0:0:0:
256,192,203513,1,4,0:0:0:0:
256,192,203942,1,8,0:0:0:0:
256,192,204228,1,8,0:0:0:0:
256,192,204513,1,8,0:0:0:0:
256,192,204656,1,0,0:0:0:0:
256,192,204799,1,8,0:0:0:0:
256,192,205085,1,8,0:0:0:0:
256,192,205370,1,8,0:0:0:0:
256,192,205656,1,8,0:0:0:0:
256,160,205799,1,4,0:0:0:0:
256,160,206228,1,8,0:0:0:0:
256,160,206513,1,0,0:0:0:0:
256,160,206942,1,0,0:0:0:0:
256,160,207656,1,0,0:0:0:0:
256,160,207799,1,0,0:0:0:0:
256,160,208085,1,0,0:0:0:0:
256,160,208513,1,8,0:0:0:0:
256,160,208799,1,0,0:0:0:0:
256,160,209228,1,0,0:0:0:0:
256,160,209942,1,8,0:0:0:0:
256,160,210085,1,8,0:0:0:0:
256,160,210370,1,4,0:0:0:0:
256,160,210799,1,8,0:0:0:0:
256,160,211085,1,0,0:0:0:0:
256,160,211513,1,0,0:0:0:0:
256,160,212228,1,0,0:0:0:0:
256,160,212370,1,0,0:0:0:0:
256,160,212656,1,0,0:0:0:0:
256,160,213085,1,8,0:0:0:0:
256,160,213370,1,0,0:0:0:0:
256,160,213799,1,0,0:0:0:0:
256,160,214228,1,8,0:0:0:0:
256,160,214370,1,0,0:0:0:0:
256,160,214513,1,8,0:0:0:0:
256,160,214942,1,4,0:0:0:0:
256,160,215370,1,8,0:0:0:0:
256,160,215656,1,0,0:0:0:0:
256,160,216085,1,0,0:0:0:0:
256,160,216799,1,8,0:0:0:0:
256,160,216942,1,0,0:0:0:0:
256,160,217228,1,0,0:0:0:0:
256,160,217656,1,8,0:0:0:0:
256,160,217942,1,0,0:0:0:0:
256,160,218370,1,0,0:0:0:0:
256,160,219085,1,8,0:0:0:0:
256,160,219228,1,8,0:0:0:0:
256,160,219513,1,4,0:0:0:0:
256,160,219942,1,8,0:0:0:0:
256,160,220228,1,0,0:0:0:0:
256,160,220656,1,0,0:0:0:0:
256,160,221370,1,0,0:0:0:0:
256,160,221513,1,0,0:0:0:0:
256,160,221799,1,0,0:0:0:0:
256,160,222228,1,8,0:0:0:0:
256,160,222513,1,0,0:0:0:0:
191,3,222799,1,0,0:0:0:0:
256,160,222942,1,8,0:0:0:0:
256,160,223370,1,8,0:0:0:0:
256,160,223513,1,0,0:0:0:0:
256,160,223656,1,8,0:0:0:0:
238,69,223942,1,8,0:0:0:0:
