osu file format v14

[General]
AudioFilename: audio.mp3
AudioLeadIn: 0
PreviewTime: 883
Countdown: 1
SampleSet: Soft
StackLeniency: 0.7
Mode: 0
LetterboxInBreaks: 0
WidescreenStoryboard: 1

[Editor]
Bookmarks: 47454,52668,108597,151311,171883
DistanceSpacing: 0.1
BeatDivisor: 4
GridSize: 4
TimelineZoom: 2.799999

[Metadata]
Title:Yakubyougami
TitleUnicode:ヤクビョウガミ
Artist:ayaponzu*
ArtistUnicode:あやぽんず*
Creator:cRyo[iceeicee]
Version:B(
Source:
Tags:
BeatmapID:976190
BeatmapSetID:455419

[Difficulty]
HPDrainRate:7
CircleSize:4.2
OverallDifficulty:8
ApproachRate:9.4
SliderMultiplier:2.1
SliderTickRate:1

[Events]
//Background and Video events
0,0,"gb.jpg",0,0
//Break Periods
2,74368,92186
2,183654,184329
//Storyboard Layer 0 (Background)
//Storyboard Layer 1 (Fail)
//Storyboard Layer 2 (Pass)
//Storyboard Layer 3 (Foreground)
//Storyboard Sound Samples

[TimingPoints]
26,285.714285714286,4,1,1,60,1,0
26,-90.9090909090909,4,1,1,60,0,0
454,-90.9090909090909,4,1,5,30,0,0
554,-90.9090909090909,4,1,1,20,0,0
668,-90.9090909090909,4,1,1,60,0,0
954,-90.9090909090909,4,2,1,5,0,0
1026,-90.9090909090909,4,1,2,60,0,0
1126,-90.9090909090909,4,1,1,60,0,0
5168,-83.3333333333333,4,1,1,80,0,0
5383,-90.9090909090909,4,1,1,60,0,0
5597,-90.9090909090909,4,1,2,60,0,0
5697,-90.9090909090909,4,1,1,60,0,0
9454,-76.9230769230769,4,1,1,60,0,0
9740,-90.9090909090909,4,1,1,60,0,0
10168,-90.9090909090909,4,1,2,60,0,0
10268,-90.9090909090909,4,1,1,60,0,0
14311,-90.9090909090909,4,1,1,80,0,0
14526,-90.9090909090909,4,1,1,60,0,0
19311,-90.9090909090909,4,1,25,50,0,0
19411,-90.9090909090909,4,1,1,60,0,0
19454,-200,4,1,5,60,0,0
21026,-200,4,1,5,30,0,0
21126,-200,4,1,5,60,0,0
21883,-200,4,1,5,30,0,0
21983,-200,4,1,5,60,0,0
22168,-200,4,1,5,30,0,0
22268,-200,4,1,5,60,0,0
23311,-200,4,1,5,40,0,0
23411,-200,4,1,5,60,0,0
24026,-200,4,1,6,50,0,0
24126,-200,4,1,5,50,0,0
25740,-166.666666666667,4,1,5,60,0,0
25840,-200,4,1,5,60,0,0
26026,-133.333333333333,4,1,5,60,0,0
26126,-200,4,1,5,60,0,0
26311,-200,4,1,6,60,0,0
26411,-200,4,1,5,60,0,0
27168,-200,4,1,5,70,0,0
27454,-76.9230769230769,4,1,10,80,0,0
28454,-83.3333333333333,4,1,2,60,0,0
28526,-83.3333333333333,4,1,1,80,0,0
32311,-83.3333333333333,4,1,1,60,0,0
33026,-100,4,1,2,60,0,0
33126,-100,4,1,1,70,0,0
34168,-100,4,1,1,70,0,0
34268,-100,4,1,1,70,0,0
35311,-76.9230769230769,4,1,1,75,0,0
37168,-76.9230769230769,4,1,1,60,0,0
37597,-100,4,1,2,60,0,0
37697,-100,4,1,1,60,0,0
37883,-100,4,3,10,90,0,0
43883,-100,4,1,1,90,0,0
43983,-100,4,3,10,90,0,0
50883,-83.3333333333333,4,3,10,90,0,0
51026,-83.3333333333333,4,3,10,100,0,0
51126,-100,4,3,10,90,0,0
51597,-100,4,1,10,80,0,0
54883,-80,4,1,10,80,0,0
55883,-90.9090909090909,4,1,1,80,0,0
62740,-76.9230769230769,4,1,1,80,0,0
62840,-90.9090909090909,4,1,1,80,0,0
68454,-76.9230769230769,4,1,1,80,0,0
69268,-90.9090909090909,4,1,1,80,0,0
74168,-90.9090909090909,4,1,2,80,0,0
92883,-200,4,1,5,60,0,0
97168,-200,4,1,1,60,0,0
97268,-200,4,1,5,50,0,0
99168,-200,4,1,5,60,0,0
99740,-200,4,1,5,70,0,0
100026,-166.666666666667,4,1,5,80,0,0
100597,-76.9230769230769,4,1,10,80,0,0
101168,-200,4,1,10,80,0,0
101454,-100,4,1,10,80,0,0
101597,-66.6666666666667,4,1,10,80,0,0
101697,-83.3333333333333,4,1,10,70,0,0
103097,-111.111111111111,4,1,10,80,0,0
103383,-83.3333333333333,4,1,10,80,0,0
105740,-83.3333333333333,4,1,10,80,0,0
105811,-100,4,1,10,80,0,0
106168,-100,4,1,10,70,0,0
106268,-100,4,1,10,70,0,0
108454,-76.9230769230769,4,1,1,75,0,0
110240,-100,4,1,1,70,0,0
110311,-100,4,1,1,60,0,0
110740,-100,4,1,2,70,0,0
111026,-100,4,3,10,90,0,0
115311,-100,4,3,10,80,0,0
120168,-100,4,3,10,90,0,0
123883,-83.3333333333333,4,3,10,80,0,0
124454,-100,4,1,10,80,0,0
126740,-200,4,1,5,50,0,0
127883,-76.9230769230769,4,1,10,50,0,0
127954,-76.9230769230769,4,1,10,50,0,0
128740,-90.9090909090909,4,1,10,50,0,0
129168,-90.9090909090909,4,1,1,80,0,0
135883,-76.9230769230769,4,1,1,80,0,0
135983,-90.9090909090909,4,1,1,80,0,0
137026,-76.9230769230769,4,1,1,80,0,0
137740,-90.9090909090909,4,3,10,70,0,0
138168,-90.9090909090909,4,1,1,80,0,0
140454,-83.3333333333333,4,1,1,80,0,0
141597,-76.9230769230769,4,1,1,80,0,0
141697,-76.9230769230769,4,1,1,80,0,0
142311,-83.3333333333333,4,1,1,80,0,0
145026,-83.3333333333333,4,1,15,80,0,0
146883,-90.9090909090909,4,1,1,80,0,0
147311,-90.9090909090909,4,1,2,70,0,0
147347,-90.9090909090909,4,1,1,80,0,0
150740,-83.3333333333333,4,1,1,80,0,0
151026,-76.9230769230769,4,1,1,80,0,0
151883,-90.9090909090909,4,1,2,70,0,0
151918,-90.9090909090909,4,1,1,80,0,0
155311,-76.9230769230769,4,1,1,80,0,0
156454,-76.9230769230769,4,1,2,80,0,0
156597,-100,4,3,10,85,0,0
161026,-83.3333333333333,4,1,1,80,0,0
164883,-83.3333333333333,4,1,1,60,0,0
165597,-100,4,1,2,80,0,0
165883,-100,4,3,10,90,0,0
170168,-100,4,3,10,80,0,0
174740,-100,4,1,10,80,0,0
174840,-100,4,3,10,80,0,0
175026,-100,4,3,10,90,0,0
178740,-83.3333333333333,4,3,10,80,0,0
179311,-100,4,1,10,80,0,0
181883,-83.3333333333333,4,1,10,80,0,0
182168,-117.647058823529,4,1,10,80,0,0
183168,-117.647058823529,4,1,10,90,0,0
183551,-200,4,2,2,60,0,0
184026,-200,4,2,10,60,0,0
185026,-90.9090909090909,4,1,1,80,0,0
189597,-90.9090909090909,4,1,2,80,0,0
189697,-90.9090909090909,4,1,1,80,0,0
191883,-76.9230769230769,4,1,1,80,0,0
194168,-90.9090909090909,4,1,1,80,0,0
197097,-76.9230769230769,4,1,1,80,0,0
197597,-76.9230769230769,4,1,1,80,0,0
197668,-83.3333333333333,4,1,1,80,0,0
203311,-100,4,1,1,80,0,0
204311,-83.3333333333333,4,1,1,80,0,0
205454,-90.9090909090909,4,1,1,70,0,0
208311,-90.9090909090909,4,1,40,70,0,0
208526,-90.9090909090909,4,1,1,70,0,0
209740,-90.9090909090909,4,1,1,80,0,0
209883,-90.9090909090909,4,1,1,70,0,0
213597,-76.9230769230769,4,1,1,60,0,0
214311,-90.9090909090909,4,1,1,60,0,0
214740,-90.9090909090909,4,1,2,60,0,0
214840,-90.9090909090909,4,1,1,70,0,0
215168,-90.9090909090909,4,1,40,70,0,0
215268,-90.9090909090909,4,1,1,70,0,0
216311,-90.9090909090909,4,1,40,70,0,0
216411,-90.9090909090909,4,1,1,70,0,0
216883,-90.9090909090909,4,1,40,70,0,0
216983,-90.9090909090909,4,1,1,70,0,0
219311,-90.9090909090909,4,1,2,70,0,0
219411,-90.9090909090909,4,1,1,70,0,0
220311,-90.9090909090909,4,1,40,70,0,0
220411,-90.9090909090909,4,1,1,70,0,0
221883,-90.9090909090909,4,1,1,30,0,0
222026,-90.9090909090909,4,1,1,35,0,0
222168,-90.9090909090909,4,1,1,40,0,0
222311,-90.9090909090909,4,1,1,45,0,0
222454,-90.9090909090909,4,1,1,55,0,0
222597,-90.9090909090909,4,1,1,60,0,0
222740,-90.9090909090909,4,1,1,65,0,0
222883,-90.9090909090909,4,1,1,70,0,0
223026,-90.9090909090909,4,1,1,75,0,0
223168,-90.9090909090909,4,1,1,80,0,0
223311,-90.9090909090909,4,1,1,85,0,0
223454,-90.9090909090909,4,1,1,60,0,0

[Colours]
Combo1 : 255,23,23
Combo2 : 174,255,174
Combo3 : 119,181,255
Combo4 : 203,151,255
Combo5 : 255,230,151
Combo6 : 255,255,255
Combo7 : 255,23,23

[HitObjects]
347,125,454,5,4,1:2:0:0:
200,208,597,1,0,3:0:0:0:
188,76,883,2,0,L|196:156,1,57.7500017623902,0|0,1:0|2:0,0:0:0:0:
360,272,1026,6,2,P|392:192|336:120,1,173.250005287171,6|0,0:0|2:0,0:0:0:0:
336,120,1311,1,8,0:0:0:0:
200,208,1454,2,0,B|260:220|260:220|328:196,1,115.50000352478,6|0,0:0|2:0,0:0:0:0:
432,104,1740,5,6,0:0:0:0:
172,200,1883,1,8,0:0:0:0:
336,312,2026,1,6,0:0:0:0:
252,144,2168,2,0,B|240:84|240:84|264:16,1,115.50000352478,10|0,0:0|2:0,0:0:0:0:
500,160,2454,1,0,0:2:0:0:
500,160,2526,1,0,0:2:0:0:
500,160,2597,2,0,B|464:192|428:192|428:192|384:168,1,115.50000352478,6|0,0:0|2:0,0:0:0:0:
258,32,2883,5,6,0:0:0:0:
167,224,3026,1,8,0:0:0:0:
52,112,3168,1,6,0:0:0:0:
252,144,3311,2,2,B|232:212|244:276|244:276|220:312,1,173.250005287171,0|0,0:1|2:0,0:0:0:0:
212,316,3597,1,8,1:0:0:0:
58,234,3740,2,0,B|110:211|110:211|167:224,1,115.50000352478,6|0,0:0|2:0,0:0:0:0:
408,288,4026,5,6,0:0:0:0:
408,288,4097,1,0,0:3:0:0:
408,288,4168,1,0,0:0:0:0:
268,192,4311,1,4,0:0:0:0:
364,52,4454,2,0,B|388:188|388:188|424:136,1,173.250005287171,10|0,0:0|2:0,0:0:0:0:
463,170,4740,38,0,P|436:159|408:159,1,57.7500017623902,4|0,0:0|2:0,0:0:0:0:
240,52,4883,2,0,P|238:90|208:144,1,57.7500017623902,6|0,0:0|2:0,0:0:0:0:
88,264,5026,2,0,P|52:256|28:256,1,57.7500017623902,4|0,0:0|0:0,0:0:0:0:
104,56,5168,2,0,B|144:48|168:72|168:72|148:128|184:164,1,125.999996154785,2|2,1:2|0:2,0:2:0:0:
52,184,5383,1,8,0:3:0:0:
52,184,5454,1,8,0:3:0:0:
52,184,5526,1,8,0:3:0:0:
52,184,5597,6,2,B|96:180|132:200|132:200|188:188|224:216|224:216|268:169,1,231.000007049561,6|0,0:0|0:0,0:0:0:0:
400,96,5954,1,0,0:0:0:0:
400,96,6026,2,0,P|335:91|296:124,1,115.50000352478,6|0,0:0|2:0,0:0:0:0:
168,276,6311,5,6,0:0:0:0:
360,160,6454,1,10,0:0:0:0:
372,340,6597,1,4,0:0:0:0:
192,276,6740,2,2,B|308:296|308:296|328:270|384:256,1,173.250005287171,10|0,0:0|2:0,0:0:0:0:
423,282,7026,1,8,0:0:0:0:
284,221,7168,2,0,B|198:206|198:206|188:180,1,115.50000352478,6|0,0:0|2:0,0:0:0:0:
336,56,7454,5,6,0:0:0:0:
404,28,7526,1,0,0:0:0:0:
464,72,7597,1,0,0:0:0:0:
456,148,7668,1,0,0:0:0:0:
388,180,7740,1,6,0:0:0:0:
328,136,7811,1,0,0:0:0:0:
396,104,7883,6,0,B|280:88|280:88|232:128,1,173.250005287171,2|0,0:0|2:0,0:0:0:0:
188,180,8168,1,8,0:0:0:0:
248,290,8311,2,0,P|280:246|260:190,1,115.50000352478,6|0,0:0|2:0,0:0:0:0:
16,60,8597,37,6,0:0:0:0:
237,123,8740,1,8,0:0:0:0:
52,224,8883,1,6,0:0:0:0:
148,109,9026,2,2,B|212:85|252:161|328:129,1,173.250005287171,2|0,0:0|2:0,0:0:0:0:
314,133,9311,1,0,1:0:0:0:
314,133,9383,1,0,1:0:0:0:
388,146,9454,6,0,P|387:112|370:83,1,68.2499968757631,4|0,0:0|0:0,0:0:0:0:
200,36,9597,2,0,P|168:36|124:44,1,68.2499968757631,4|0,0:0|0:0,0:0:0:0:
24,228,9740,1,10,0:0:0:0:
24,228,9811,1,8,0:0:0:0:
24,228,9883,1,8,0:0:0:0:
24,228,9954,1,8,0:0:0:0:
24,228,10026,1,8,0:0:0:0:
24,228,10097,1,8,0:0:0:0:
24,228,10168,6,0,L|148:216,1,115.50000352478,6|0,0:0|2:0,0:0:0:0:
344,120,10454,1,0,0:0:0:0:
344,120,10526,1,0,0:0:0:0:
344,120,10597,1,6,0:0:0:0:
284,192,10740,1,0,0:0:0:0:
400,48,10883,5,6,0:0:0:0:
228,100,11026,1,8,0:0:0:0:
396,225,11168,1,4,0:0:0:0:
188,344,11311,2,0,B|176:282|176:282|204:208,1,115.50000352478,10|0,0:0|2:0,0:0:0:0:
360,136,11597,1,0,0:0:0:0:
360,136,11668,1,0,0:0:0:0:
360,136,11740,1,10,0:0:0:0:
292,244,11883,1,0,0:0:0:0:
212,144,12026,5,6,0:0:0:0:
376,232,12168,1,4,0:0:0:0:
340,40,12311,1,8,0:0:0:0:
128,168,12454,2,0,L|0:152,1,115.50000352478,6|0,0:0|2:0,0:0:0:0:
24,324,12740,1,8,0:0:0:0:
152,340,12883,2,0,B|212:345|212:345|262:299,1,115.50000352478,6|0,0:0|2:0,0:0:0:0:
424,136,13168,37,6,0:0:0:0:
412,308,13311,1,10,0:0:0:0:
504,228,13454,1,4,0:0:0:0:
336,124,13597,2,2,B|292:116|292:116|264:124|240:172|244:212|272:248,1,173.250005287171,8|0,0:0|2:0,0:0:0:0:
200,264,13883,6,0,P|184:228|183:195,1,57.7500017623902,4|0,0:0|2:0,0:0:0:0:
56,80,14026,2,0,P|48:120|28:152,1,57.7500017623902,6|0,0:0|2:0,0:0:0:0:
44,296,14168,2,0,L|112:283,1,57.7500017623902,4|0,0:0|2:0,0:0:0:0:
335,312,14311,5,2,1:2:0:0:
384,316,14383,1,2,1:2:0:0:
424,296,14454,1,2,0:2:0:0:
440,252,14526,1,0,0:2:0:0:
428,208,14597,1,4,0:0:0:0:
388,184,14668,1,4,0:0:0:0:
367,247,14740,6,2,B|351:195|367:135|367:135|343:71|343:71|407:87,1,231.000007049561,2|8,0:0|0:0,0:0:0:0:
496,69,15168,2,0,B|445:99|445:99|384:81,1,115.50000352478,6|0,0:0|2:0,0:0:0:0:
154,165,15454,5,6,0:0:0:0:
368,248,15597,1,10,0:0:0:0:
391,83,15740,1,4,0:0:0:0:
319,159,15883,2,2,B|279:147|247:147|247:147|203:171|203:171|180:172|154:165,1,173.250005287171,8|0,0:0|2:0,0:0:0:0:
144,160,16168,1,4,0:0:0:0:
36,292,16311,2,0,B|88:296|120:304|120:304|143:285,1,115.50000352478,6|0,0:0|2:0,0:0:0:0:
400,192,16597,37,6,0:0:0:0:
320,304,16740,1,4,0:0:0:0:
320,304,16811,1,0,0:2:0:0:
320,304,16883,1,2,0:0:0:0:
256,168,17026,2,2,B|240:108|240:108|272:48,1,115.50000352478,6|0,0:0|2:3,0:0:0:0:
448,32,17311,1,8,0:0:0:0:
472,144,17454,2,2,B|488:204|488:204|456:264,1,115.50000352478,6|0,0:0|2:3,0:0:0:0:
320,304,17740,5,6,0:0:0:0:
180,224,17883,1,10,0:0:0:0:
24,264,18026,1,4,0:0:0:0:
162,329,18168,2,0,P|190:279|180:224,1,115.50000352478,10|0,0:0|2:0,0:0:0:0:
56,96,18454,5,8,0:0:0:0:
316,152,18597,1,4,0:0:0:0:
108,260,18740,1,4,0:0:0:0:
372,316,18883,5,4,0:0:0:0:
412,308,18954,1,4,0:0:0:0:
452,300,19026,1,4,0:0:0:0:
468,256,19097,1,4,0:0:0:0:
432,228,19168,1,4,0:0:0:0:
392,236,19240,1,4,0:0:0:0:
352,244,19311,1,4,0:0:0:0:
88,248,19597,5,0,2:0:0:0:
88,160,19740,2,0,P|120:152|160:160,1,52.5,8|0,0:2|0:0,0:0:0:0:
137,262,20026,2,0,P|101:255|77:238,1,52.5,8|0,0:2|0:0,0:0:0:0:
16,172,20311,2,0,P|14:146|25:122,1,52.5,8|0,0:2|0:0,0:0:0:0:
208,100,20597,37,8,0:2:0:0:
139,153,20740,1,8,0:2:0:0:
140,40,20883,1,8,0:2:0:0:
284,104,21026,1,0,2:2:0:0:
192,216,21168,2,0,P|168:228|136:232,1,52.5,8|0,0:2|0:0,0:0:0:0:
300,272,21454,2,0,P|324:284|356:288,1,52.5,8|0,0:2|0:0,0:0:0:0:
200,352,21740,1,8,0:2:0:0:
268,204,21883,5,0,2:0:0:0:
300,272,22026,1,8,0:2:0:0:
280,184,22168,1,0,2:2:0:0:
208,316,22311,1,8,0:2:0:0:
208,316,22454,1,8,0:2:0:0:
372,264,22597,2,0,L|432:256,1,52.5,8|0,0:2|0:0,0:0:0:0:
280,184,22883,5,8,0:2:0:0:
340,96,23026,1,8,0:2:0:0:
258,186,23168,1,8,0:2:0:0:
424,257,23311,1,0,2:2:0:0:
405,169,23454,2,0,L|352:175,1,52.5,8|0,0:2|0:0,0:0:0:0:
264,88,23740,2,0,P|268:56|292:28,1,52.5,8|0,0:2|0:0,0:0:0:0:
460,252,24026,69,0,1:0:0:0:
376,324,24168,1,2,2:2:0:0:
348,256,24311,1,10,1:2:0:0:
420,268,24454,5,2,1:2:0:0:
356,340,24597,1,10,1:2:0:0:
332,244,24740,1,2,1:2:0:0:
416,164,24883,5,10,1:2:0:0:
436,280,25026,1,2,0:2:0:0:
312,232,25168,1,10,0:2:0:0:
424,148,25311,1,2,0:2:0:0:
308,72,25454,6,0,L|256:92,1,52.5,10|2,0:2|0:2,0:0:0:0:
80,180,25740,2,0,L|140:204,1,62.9999980773926,10|2,0:2|0:2,0:0:0:0:
228,276,26026,2,0,P|252:244|248:200,1,78.7500030040742,10|2,0:2|0:2,0:0:0:0:
56,92,26311,5,0,1:0:0:0:
139,107,26454,1,2,1:2:0:0:
190,42,26597,1,10,1:2:0:0:
42,87,26740,37,2,1:2:0:0:
125,103,26883,1,10,1:2:0:0:
176,38,27026,1,2,1:2:0:0:
28,80,27168,5,10,1:2:0:0:
77,176,27311,1,2,1:2:0:0:
207,124,27454,6,0,P|238:111|272:108,1,68.2499968757631,8|0,1:0|2:0,1:0:0:0:
443,108,27597,2,0,P|439:142|420:178,1,68.2499968757631,8|0,1:0|2:0,1:0:0:0:
304,336,27740,2,0,L|287:266,1,68.2499968757631,8|0,1:0|2:0,1:0:0:0:
272,108,27883,2,0,P|305:111|336:124,1,68.2499968757631,8|0,1:0|2:0,1:0:0:0:
492,224,28026,1,8,0:0:0:0:
492,224,28097,2,0,P|467:247|434:257,2,68.2499968757631,8|0|0,1:0|1:1|2:0,1:0:0:0:
465,40,28311,1,8,0:0:0:0:
314,196,28454,6,0,B|273:189|237:210|237:210|185:200|185:200|137:220|137:220|108:197|76:200,1,251.999992309571,4|0,0:0|0:0,0:0:0:0:
40,76,28811,1,2,0:2:0:0:
48,68,28883,2,0,P|48:100|60:144,1,62.9999980773926,2|0,0:2|0:0,0:0:0:0:
80,276,29026,2,0,L|68:348,1,62.9999980773926
12,216,29168,5,2,0:2:0:0:
44,208,29240,1,2,0:2:0:0:
76,200,29311,1,2,0:2:0:0:
108,192,29383,1,2,0:2:0:0:
140,184,29454,1,2,0:2:0:0:
172,177,29526,1,2,0:2:0:0:
232,227,29597,38,0,B|280:231|308:211|308:211|340:244|376:248|436:240|448:168,1,251.999992309571,0|2,0:0|0:2,0:0:0:0:
412,44,29954,1,2,0:2:0:0:
400,51,30026,2,0,P|364:103|373:165,1,125.999996154785,2|0,0:2|0:0,0:0:0:0:
276,362,30311,5,2,0:2:0:0:
232,350,30383,1,2,0:2:0:0:
204,314,30454,1,2,0:2:0:0:
204,266,30526,1,2,0:2:0:0:
232,227,30597,1,2,0:2:0:0:
276,211,30668,1,2,0:2:0:0:
343,268,30740,2,0,B|302:271|274:289|274:289|348:276|380:308|380:308|420:312|452:284,1,251.999992309571,0|2,0:0|0:2,0:0:0:0:
488,196,31097,5,2,0:2:0:0:
496,188,31168,2,0,P|500:118|467:69,1,125.999996154785,2|2,0:2|0:2,0:0:0:0:
324,28,31383,1,2,0:2:0:0:
312,33,31454,2,0,P|262:72|247:133,1,125.999996154785,2|0,0:2|0:2,0:0:0:0:
228,304,31740,5,8,0:0:0:0:
14,341,31883,2,0,B|54:285|113:263|113:263|182:265|228:304,1,251.999992309571,8|0,0:0|0:0,0:0:0:0:
388,240,32311,1,4,0:0:0:0:
388,240,32383,1,4,0:0:0:0:
388,240,32454,1,4,0:0:0:0:
241,204,32597,6,0,L|254:79,1,125.999996154785,4|4,0:0|0:0,0:0:0:0:
254,79,32811,1,0,0:0:0:0:
200,132,32883,1,4,0:0:0:0:
149,183,32954,1,4,0:0:0:0:
94,236,33026,38,0,P|24:164|66:75,1,210,4|0,0:2|1:0,0:0:0:0:
191,27,33454,2,0,P|194:79|200:132,1,105,8|0,0:0|2:0,0:0:0:0:
278,303,33740,5,0,0:0:0:0:
94,342,33883,1,0,0:0:0:0:
260,212,34026,1,8,0:0:0:0:
76,252,34168,2,0,B|176:264|176:264|280:304,1,210,4|0,0:2|0:0,0:0:0:0:
404,196,34597,2,0,P|407:144|390:95,1,105,8|0,0:0|2:0,0:0:0:0:
200,120,34883,5,2,0:2:0:0:
164,112,34954,1,2,0:2:0:0:
128,104,35026,1,2,0:2:0:0:
160,84,35097,1,2,0:2:0:0:
192,68,35168,1,2,0:2:0:0:
224,52,35240,1,2,0:2:0:0:
256,36,35311,6,2,B|272:104|328:136|328:136|280:160|268:200,1,204.749990627289,2|0,0:0|2:0,0:0:0:0:
232,248,35597,2,0,P|208:228|204:176,1,68.2499968757631,2|0,2:2|2:0,0:0:0:0:
20,328,35740,2,0,B|52:348|52:348|100:320|156:336,1,136.499993751526,2|2,0:0|0:2,0:0:0:0:
248,324,35954,1,2,0:2:0:0:
248,324,36026,2,0,P|276:312|304:272,1,68.2499968757631,2|0,0:0|2:0,0:0:0:0:
367,204,36168,2,0,P|398:200|432:218,1,68.2499968757631,2|0,0:0|2:0,0:0:0:0:
500,141,36311,5,2,0:2:0:0:
500,141,36383,1,2,0:2:0:0:
500,141,36454,2,2,B|472:144|458:149|458:149|439:137|407:123|370:125|330:141|330:141|306:119,1,204.749990627289,2|0,0:0|2:0,0:0:0:0:
192,84,36740,1,2,0:2:0:0:
192,84,36811,1,2,0:2:0:0:
192,84,36883,2,0,B|148:83|102:108|102:108|135:129|144:150,1,136.499993751526,2|2,0:0|2:2,0:0:0:0:
192,176,37097,1,2,0:2:0:0:
292,272,37168,37,4,0:0:0:0:
296,277,37240,1,4,0:0:0:0:
300,281,37311,1,4,0:0:0:0:
304,285,37383,1,4,0:0:0:0:
308,289,37454,21,4,0:0:0:0:
236,312,37526,1,4,0:0:0:0:
164,332,37597,1,4,0:0:0:0:
28,152,37883,85,4,0:0:0:0:
116,96,38026,85,8,0:1:0:0:
208,144,38168,5,4,0:0:0:0:
204,164,38240,1,0,0:0:0:0:
200,184,38311,1,0,0:0:0:0:
196,204,38383,1,0,0:0:0:0:
192,224,38454,1,0,0:0:0:0:
156,88,38597,85,8,0:1:0:0:
272,204,38740,5,0,0:0:0:0:
352,180,38883,1,0,0:0:0:0:
432,156,39026,1,0,0:3:0:0:
196,80,39168,85,8,0:1:0:0:
76,232,39311,5,4,0:0:0:0:
68,212,39383,1,0,0:0:0:0:
60,192,39454,1,0,0:0:0:0:
64,172,39526,1,0,0:0:0:0:
72,152,39597,1,0,0:0:0:0:
236,72,39740,85,8,0:1:0:0:
236,72,39811,1,8,0:1:0:0:
236,72,39883,1,0,0:1:0:0:
220,200,40026,5,0,0:0:0:0:
136,192,40168,1,0,0:0:0:0:
276,64,40311,85,8,0:1:0:0:
392,168,40454,5,4,0:0:0:0:
397,188,40526,1,0,0:0:0:0:
402,209,40597,1,0,0:0:0:0:
407,230,40668,1,0,0:0:0:0:
413,251,40740,1,0,0:0:0:0:
316,56,40883,85,8,0:1:0:0:
304,208,41026,5,0,0:0:0:0:
220,200,41168,1,0,0:0:0:0:
136,192,41311,1,0,0:0:0:0:
356,48,41454,85,8,0:1:0:0:
472,168,41597,5,4,0:0:0:0:
468,188,41668,1,4,0:0:0:0:
464,208,41740,1,4,0:0:0:0:
460,228,41811,1,4,0:0:0:0:
424,292,41883,5,0,1:0:0:0:
352,296,41954,1,0,1:0:0:0:
280,272,42026,1,0,1:0:0:0:
252,204,42097,1,0,1:0:0:0:
268,132,42168,2,0,B|228:300|228:300|192:232,1,210,4|0,1:0|0:0,0:0:0:0:
55,245,42597,2,0,P|52:192|49:128,1,105,2|0,1:2|2:0,0:0:0:0:
244,88,42883,5,2,0:2:0:0:
160,144,43026,2,0,B|140:92|140:92|156:44,1,105,0|0,0:0|1:0,0:0:0:0:
438,63,43311,2,0,B|389:99|324:113|324:113|244:88,1,210,2|0,0:2|0:0,0:0:0:0:
244,88,43740,6,0,L|248:156,1,52.5,0|0,1:0|2:3,0:0:0:0:
358,174,43883,2,0,L|354:226,1,52.5,0|0,1:0|2:0,0:0:0:0:
476,252,44026,1,2,0:2:0:0:
480,260,44097,1,2,0:2:0:0:
484,268,44168,1,2,0:2:0:0:
352,336,44311,37,0,1:0:0:0:
251,241,44454,2,0,B|235:191|235:191|247:139,1,105,2|0,0:2|2:0,0:0:0:0:
444,144,44740,1,2,0:2:0:0:
444,144,44811,1,2,0:2:0:0:
444,144,44883,1,0,1:2:0:0:
379,259,45026,1,0,0:0:0:0:
488,308,45168,5,2,0:2:0:0:
251,241,45311,1,2,0:2:0:0:
468,116,45454,1,0,1:2:0:0:
367,257,45597,2,2,P|314:250|255:241,1,105,2|0,0:2|2:0,0:2:0:0:
60,156,45883,5,2,0:2:0:0:
77,144,45954,1,2,0:2:0:0:
93,132,46026,2,0,L|159:148,1,52.5,0|0,1:2|2:2,1:2:0:0:
253,165,46168,1,0,1:0:0:0:
277,19,46311,5,2,0:2:0:0:
257,25,46382,1,2,0:2:0:0:
238,32,46454,2,0,L|244:97,1,52.5,0|0,1:2|2:2,1:2:0:0:
263,242,46597,1,0,1:0:0:0:
264,251,46668,1,0,1:0:0:0:
265,261,46740,1,4,1:0:0:0:
424,248,47026,5,0,0:1:0:0:
360,32,47168,1,8,0:1:0:0:
444,120,47311,1,0,0:0:0:0:
444,120,47383,1,0,0:0:0:0:
444,120,47454,2,0,L|435:171,1,52.5
414,328,47597,1,0,0:0:0:0:
252,196,47740,37,8,0:1:0:0:
424,248,47883,1,8,0:1:0:0:
224,336,48026,1,0,0:0:0:0:
352,280,48168,1,0,0:1:0:0:
172,192,48310,1,8,0:1:0:0:
312,100,48453,5,0,0:0:0:0:
312,100,48525,1,0,0:0:0:0:
312,100,48596,2,0,L|377:110,1,52.5
512,124,48739,1,0,0:0:0:0:
414,328,48882,5,8,0:1:0:0:
324,208,49026,1,8,0:1:0:0:
328,200,49097,1,0,0:0:0:0:
332,192,49168,1,0,0:0:0:0:
236,84,49311,1,0,0:1:0:0:
124,264,49454,1,8,0:1:0:0:
24,156,49597,5,0,0:0:0:0:
35,157,49668,1,0,0:0:0:0:
47,158,49740,2,0,L|110:165,1,52.5
236,176,49883,1,0,0:0:0:0:
44,276,50026,5,0,1:1:0:0:
280,344,50168,1,0,1:1:0:0:
124,264,50311,1,0,0:0:0:0:
312,184,50454,1,0,0:0:0:0:
76,120,50597,1,8,1:0:0:0:
200,252,50740,37,0,0:0:0:0:
200,252,50811,1,0,0:0:0:0:
200,252,50883,2,0,L|275:240,1,62.9999980773926,0|0,1:1|0:0,0:0:0:0:
461,283,51026,2,0,P|493:231|473:163,1,125.999996154785,4|0,1:0|2:0,0:0:0:0:
360,28,51311,6,0,L|356:160,1,105,4|0,2:2|2:0,0:0:0:0:
351,320,51597,1,0,0:0:0:0:
461,283,51740,2,0,B|386:261|306:293|306:293|376:334,1,210,8|0,0:0|0:0,0:0:0:0:
416,352,52097,1,0,0:0:0:0:
416,352,52168,1,0,0:0:0:0:
216,256,52311,1,8,0:0:0:0:
344,168,52454,2,0,B|420:160|484:196|484:196|504:160|488:124,1,210,4|0,0:2|0:0,0:0:0:0:
340,48,52883,2,0,P|282:56|224:64,1,105,8|0,0:0|2:0,0:0:0:0:
48,84,53168,6,0,L|40:152,1,52.5,8|0,0:0|0:0,0:0:0:0:
156,148,53311,2,0,L|149:200,1,52.5,8|0,0:0|0:0,0:0:0:0:
264,212,53454,2,0,L|256:280,1,52.5,8|0,0:0|0:0,0:0:0:0:
424,328,53597,1,4,2:2:0:0:
424,328,53883,5,8,0:0:0:0:
192,236,54026,1,0,0:0:0:0:
372,132,54168,5,8,0:0:0:0:
136,224,54311,1,0,0:0:0:0:
348,308,54454,37,8,0:0:0:0:
84,212,54597,1,0,0:0:0:0:
420,76,54740,1,8,0:0:0:0:
127,261,54883,69,8,0:0:0:0:
111,269,54954,1,8,0:0:0:0:
91,277,55026,2,0,L|83:205,1,65.625
304,44,55168,5,8,0:0:0:0:
320,36,55239,1,8,0:0:0:0:
340,28,55311,2,0,L|348:100,1,65.625
376,324,55454,1,8,0:1:0:0:
384,332,55740,5,4,2:2:0:0:
256,192,55883,6,0,L|267:74,1,115.50000352478,0|0,0:2|2:0,0:0:0:0:
448,212,56168,1,2,0:2:0:0:
452,216,56240,1,2,0:2:0:0:
456,220,56311,1,8,1:1:0:0:
284,288,56454,1,0,0:0:0:0:
469,340,56597,2,0,P|465:282|462:225,1,115.50000352478,0|0,0:2|0:0,0:0:0:0:
260,280,56883,5,4,2:0:0:0:
132,140,57026,2,0,L|143:22,1,115.50000352478,0|0,1:0|2:0,0:0:0:0:
324,160,57311,1,2,0:2:0:0:
328,164,57383,1,2,0:2:0:0:
332,168,57454,1,8,0:1:0:0:
152,236,57597,1,0,0:0:0:0:
348,289,57740,2,0,P|343:231|340:173,1,115.50000352478
40,168,58026,1,8,0:1:0:0:
152,236,58168,2,0,P|209:231|267:228,1,115.50000352478,4|0,0:2|2:0,0:0:0:0:
436,216,58454,5,2,0:2:0:0:
204,324,58597,1,0,0:0:0:0:
384,220,58740,1,2,0:2:0:0:
184,148,58883,1,2,0:2:0:0:
392,32,59026,2,0,P|395:89|399:147,1,115.50000352478,2|0,0:2|0:0,0:0:0:0:
360,340,59311,5,2,0:2:0:0:
320,352,59382,1,2,0:2:0:0:
280,348,59454,1,2,0:2:0:0:
64,260,59597,37,2,0:2:0:0:
72,220,59668,1,2,0:2:0:0:
97,187,59740,1,2,0:2:0:0:
256,36,59883,5,2,0:2:0:0:
286,64,59954,1,2,0:2:0:0:
302,102,60026,1,2,0:2:0:0:
200,248,60168,5,8,0:0:0:0:
188,260,60240,1,8,0:0:0:0:
176,272,60311,1,8,0:0:0:0:
164,284,60383,1,8,0:0:0:0:
152,296,60454,6,0,B|212:296|264:312|264:312|336:280,1,173.250005287171,0|0,0:0|2:0,0:0:0:0:
332,280,60740,1,4,0:0:0:0:
488,160,60883,2,0,B|428:144|428:144|360:172,1,115.50000352478,8|0,0:0|2:0,0:0:0:0:
240,224,61168,5,8,0:0:0:0:
424,264,61311,1,8,0:0:0:0:
308,96,61454,1,4,0:0:0:0:
152,176,61597,2,0,P|104:180|24:188,1,115.50000352478,0|0,0:0|2:0,0:0:0:0:
80,80,61883,1,4,0:0:0:0:
240,224,62026,2,0,P|288:220|368:212,1,115.50000352478,8|0,0:0|2:0,0:0:0:0:
360,56,62311,1,8,0:0:0:0:
360,56,62383,1,8,0:0:0:0:
360,56,62454,1,8,0:0:0:0:
349,299,62597,37,4,0:2:0:0:
502,212,62740,2,6,B|444:215|410:238|410:238|354:214|354:214|299:234|240:224,1,272.999987503052,2|2,0:0|0:0,0:0:0:0:
72,88,63168,1,6,0:0:0:0:
72,88,63311,1,6,0:0:0:0:
354,215,63454,5,10,0:0:0:0:
120,268,63597,1,6,0:0:0:0:
384,120,63740,1,8,0:0:0:0:
140,44,63883,2,0,P|111:92|112:149,1,115.50000352478,6|0,0:0|2:0,0:0:0:0:
216,344,64168,1,6,0:0:0:0:
344,262,64311,5,0,0:3:0:0:
324,218,64382,1,0,0:3:0:0:
288,190,64454,1,0,0:3:0:0:
244,182,64525,1,0,0:3:0:0:
196,186,64597,1,4,0:3:0:0:
152,206,64668,1,4,0:3:0:0:
108,214,64740,1,4,0:3:0:0:
64,202,64811,1,4,0:3:0:0:
36,166,64883,1,4,0:3:0:0:
32,122,64954,1,4,0:3:0:0:
61,83,65026,6,0,B|94:94|120:91|120:91|169:115|169:115|192:112|223:92,1,173.250005287171,4|0,0:2|2:0,0:0:0:0:
223,92,65311,1,0,0:0:0:0:
428,216,65454,2,0,P|370:217|296:220,1,115.50000352478,8|2,0:0|0:2,0:0:0:0:
225,199,65668,1,2,0:2:0:0:
225,199,65740,2,0,P|205:145|223:91,1,115.50000352478,2|0,0:2|0:0,0:0:0:0:
328,296,66026,5,8,0:1:0:0:
451,139,66168,2,0,B|328:132|328:132|280:144,1,173.250005287171,4|0,0:2|2:0,0:0:0:0:
280,144,66454,1,0,0:0:0:0:
75,267,66597,2,0,P|133:268|207:271,1,115.50000352478,8|2,0:0|0:2,0:0:0:0:
278,251,66811,1,2,0:2:0:0:
278,251,66883,2,0,P|297:197|279:143,1,115.50000352478,2|0,0:2|0:0,0:0:0:0:
156,344,67168,37,4,0:2:0:0:
76,184,67311,2,0,P|81:121|84:64,1,115.50000352478,0|0,0:2|2:0,0:0:0:0:
280,64,67597,1,2,0:2:0:0:
172,168,67740,1,2,0:2:0:0:
336,260,67883,1,0,0:2:0:0:
144,328,68026,2,0,L|20:316,1,115.50000352478,2|2,0:2|0:2,0:2:0:0:
20,308,68240,1,2,0:2:0:0:
12,300,68311,1,8,0:1:0:0:
172,168,68454,2,0,B|220:164|252:188|252:188|276:180|296:160|296:160|265:135|265:135|248:188,1,204.749990627289,4|0,0:2|2:0,0:0:0:0:
204,96,68740,5,0,0:0:0:0:
136,104,68811,1,0,0:0:0:0:
100,164,68883,1,0,0:0:0:0:
124,228,68954,1,0,0:0:0:0:
192,240,69026,1,0,0:0:0:0:
260,252,69097,1,0,0:0:0:0:
328,264,69168,2,0,B|432:280|432:280|456:224,1,136.499993751526,4|8,0:2|0:0,0:0:0:0:
464,72,69383,1,8,0:0:0:0:
464,72,69454,1,8,0:0:0:0:
464,72,69526,1,8,0:0:0:0:
464,72,69597,6,0,B|407:77|375:101|375:101|327:77|327:77|280:92|231:65,1,231.000007049561,4|0,0:2|0:0,0:0:0:0:
96,288,70026,2,0,B|156:301|156:301|205:274,1,115.50000352478,8|0,0:0|2:0,0:0:0:0:
368,172,70311,1,0,0:0:0:0:
144,212,70454,1,0,0:0:0:0:
316,88,70597,6,0,P|373:93|430:99,1,115.50000352478,2|0,0:1|2:0,0:0:0:0:
196,296,70883,2,0,P|139:291|82:285,1,115.50000352478,2|0,0:1|2:0,0:0:0:0:
36,128,71168,2,0,L|44:48,3,57.7500017623902,2|0|0|0,0:0|0:0|0:0|0:0,0:0:0:0:
128,40,71454,1,2,0:0:0:0:
156,52,71526,1,0,0:0:0:0:
184,64,71597,1,0,0:0:0:0:
212,76,71668,1,0,0:0:0:0:
240,88,71740,2,0,L|304:76,1,57.7500017623902,2|0,0:0|0:0,0:0:0:0:
416,52,71883,6,0,B|440:100|440:100|432:164,1,115.50000352478,2|0,0:0|2:0,0:0:0:0:
364,304,72168,1,8,0:0:0:0:
236,204,72311,2,0,B|296:196|296:196|354:215,1,115.50000352478,8|0,0:0|2:0,0:0:0:0:
468,260,72597,37,8,0:0:0:0:
288,272,72740,1,8,0:0:0:0:
464,344,72883,1,0,0:0:0:0:
348,213,73026,2,0,B|330:130|330:130|352:100,1,115.50000352478,8|0,0:0|2:0,0:0:0:0:
484,124,73311,5,0,0:0:0:0:
484,124,73383,1,0,0:0:0:0:
484,124,73454,2,0,L|404:108,1,57.7500017623902,0|0,0:0|2:0,0:0:0:0:
260,184,73597,2,0,L|180:168,1,57.7500017623902,0|0,0:0|2:0,0:0:0:0:
32,144,73740,5,0,0:0:0:0:
36,180,73811,1,0,0:0:0:0:
40,216,73883,1,0,0:0:0:0:
68,240,73954,5,0,0:0:0:0:
72,276,74025,1,0,0:0:0:0:
76,312,74097,1,0,0:0:0:0:
140,356,74168,5,4,0:0:0:0:
179,130,92740,37,0,2:0:0:0:
164,260,92883,2,0,L|172:184,1,52.5,8|0,1:2|1:0,0:0:0:0:
64,72,93168,2,0,P|90:73|113:85,1,52.5,8|0,1:2|1:0,0:0:0:0:
256,140,93454,1,8,0:2:0:0:
256,140,93597,1,8,0:2:0:0:
152,336,93740,5,8,0:2:0:0:
56,272,93883,1,8,1:2:0:0:
52,264,93954,1,8,0:2:0:0:
48,256,94026,1,8,1:2:0:0:
120,180,94168,1,0,2:2:0:0:
162,284,94311,2,0,L|151:335,1,52.5,8|0,0:2|1:0,0:0:0:0:
205,211,94597,2,0,P|255:198|304:216,1,105,8|8,0:2|0:2,0:0:0:0:
452,288,95026,5,0,2:0:0:0:
468,200,95168,1,8,0:2:0:0:
428,120,95311,1,0,2:0:0:0:
304,216,95454,5,8,0:2:0:0:
452,200,95597,1,8,0:2:0:0:
292,217,95740,2,0,L|239:223,1,52.5,8|0,0:2|0:0,0:0:0:0:
32,132,96026,5,8,0:2:0:0:
164,188,96168,1,8,0:2:0:0:
164,188,96240,1,8,0:2:0:0:
164,188,96311,1,8,0:2:0:0:
168,44,96454,1,0,2:2:0:0:
32,148,96597,38,0,L|40:216,1,52.5,8|0,0:2|0:0,0:0:0:0:
164,108,96883,2,0,L|168:52,1,52.5,8|0,0:2|0:0,0:0:0:0:
432,176,97168,53,0,0:0:0:0:
324,224,97311,1,2,0:2:0:0:
380,76,97454,1,10,0:2:0:0:
440,190,97597,53,2,0:2:0:0:
330,234,97740,1,10,0:2:0:0:
391,88,97883,1,2,0:2:0:0:
447,205,98026,5,10,0:2:0:0:
336,245,98169,1,2,0:2:0:0:
402,102,98312,1,10,0:2:0:0:
454,220,98454,5,2,0:2:0:0:
356,336,98597,1,10,0:2:0:0:
344,332,98668,1,2,0:2:0:0:
332,328,98740,1,2,0:2:0:0:
324,324,98811,1,2,0:2:0:0:
316,320,98883,1,10,0:2:0:0:
308,316,98954,1,2,0:2:0:0:
300,312,99026,1,2,0:2:0:0:
288,308,99097,1,2,0:2:0:0:
280,304,99168,2,0,L|264:232,1,52.5,10|8,0:2|0:2,0:0:0:0:
188,184,99383,5,8,0:2:0:0:
180,176,99454,2,0,L|188:112,1,52.5,8|0,1:2|0:2,0:0:0:0:
116,28,99740,2,0,P|92:48|76:80,1,52.5,8|0,1:2|1:2,1:2:0:0:
16,176,100026,1,8,0:2:0:0:
16,176,100097,2,0,P|59:169|92:152,1,62.9999980773926,8|8,0:2|0:2,0:0:0:0:
88,156,100311,1,8,0:2:0:0:
4,268,100454,1,8,0:2:0:0:
128,332,100597,38,0,L|136:260,1,68.2499968757631,8|0,1:0|2:0,1:0:0:0:
244,176,100740,2,0,B|288:176|288:176|309:188,1,68.2499968757631,8|0,1:0|2:0,1:0:0:0:
440,352,100883,2,0,B|396:352|396:352|374:339,1,68.2499968757631,8|0,1:0|2:0,1:0:0:0:
236,243,101026,2,0,L|244:176,1,68.2499968757631,8|0,1:0|2:0,1:0:0:0:
264,28,101168,1,0,0:0:0:0:
264,28,101240,1,0,0:0:0:0:
264,28,101311,1,0,0:0:0:0:
440,232,101454,5,2,2:0:0:0:
222,103,101597,6,0,B|186:87|186:87|138:95|138:95|122:67|62:31|20:32|-14:99|5:142|86:143|110:115,1,315.000012016297
148,212,101954,1,0,0:0:0:0:
161,211,102026,2,0,L|252:196,1,62.9999980773926
377,241,102168,2,0,L|457:229,1,62.9999980773926
340,80,102311,5,2,0:2:0:0:
327,117,102383,1,2,0:2:0:0:
316,151,102454,1,2,0:2:0:0:
303,189,102526,1,2,0:2:0:0:
292,223,102597,2,0,P|292:184|280:152,1,62.9999980773926,2|0,0:2|0:0,0:0:0:0:
198,59,102740,2,0,B|171:63|154:56|154:56|130:92|130:92|85:89|48:123|48:123|65:93|49:52,1,251.999992309571
49,52,103097,1,2,0:2:0:0:
56,76,103168,1,2,0:2:0:0:
56,100,103239,1,2,0:2:0:0:
48,124,103311,1,2,0:2:0:0:
16,200,103382,5,0,0:0:0:0:
12,244,103454,1,0,0:0:0:0:
24,288,103525,1,0,0:0:0:0:
56,316,103596,1,0,0:0:0:0:
100,328,103668,1,0,0:0:0:0:
144,324,103739,1,0,0:0:0:0:
188,308,103811,1,0,0:0:0:0:
216,276,103883,2,0,B|256:244|260:176|260:176|276:224|333:238|333:238|312:256|288:296,1,251.999992309571
368,304,104240,37,0,0:0:0:0:
384,288,104311,2,0,P|401:255|396:204,1,62.9999980773926,8|0,0:0|2:0,0:0:0:0:
484,168,104454,2,0,P|467:135|422:109,1,62.9999980773926,8|0,0:0|2:0,0:0:0:0:
332,48,104597,1,2,0:2:0:0:
332,48,104668,1,2,0:2:0:0:
332,48,104740,1,2,0:2:0:0:
232,204,104883,5,8,0:0:0:0:
24,140,105026,2,0,B|168:104|168:104|164:148,1,188.999994232178,8|0,0:0|2:0,0:0:0:0:
239,141,105311,1,2,0:2:0:0:
239,141,105383,1,2,0:2:0:0:
239,141,105454,2,0,L|231:209,1,62.9999980773926,2|0,0:2|2:0,0:0:0:0:
212,356,105597,1,2,0:2:0:0:
444,292,105740,2,0,P|472:236|424:152,1,125.999996154785
440,168,105954,5,0,0:2:0:0:
368,204,106026,1,0,0:2:0:0:
296,240,106097,1,0,0:2:0:0:
224,276,106168,2,0,B|176:288|144:272|144:272|100:272|56:292|56:292|80:228,1,210,4|0,0:2|0:0,0:0:0:0:
104,40,106597,2,0,L|124:164,1,105,8|0,0:0|2:0,0:0:0:0:
152,352,106883,5,0,0:0:0:0:
272,160,107026,1,0,0:0:0:0:
80,244,107168,1,8,0:0:0:0:
248,280,107311,2,0,B|308:264|376:284|376:284|344:316,1,157.5,4|0,0:2|2:0,0:0:0:0:
349,310,107597,5,0,0:0:0:0:
464,260,107740,2,0,P|484:208|452:152,1,105,8|0,0:0|2:0,0:0:0:0:
383,56,108026,1,0,0:0:0:0:
383,56,108097,1,0,0:0:0:0:
383,56,108168,1,0,0:0:0:0:
220,228,108311,1,8,0:0:0:0:
240,59,108454,38,2,B|274:23|274:23|317:17|317:17|300:52|312:88|312:88|282:120|279:161|303:208,1,272.999987503052,2|0,0:0|0:0,0:0:0:0:
188,308,108883,2,0,B|132:300|88:320|88:320|52:272,1,136.499993751526,2|2,0:0|0:2,0:0:0:0:
24,232,109097,1,2,0:2:0:0:
24,232,109168,2,0,P|55:220|89:222,1,68.2499968757631,2|0,0:1|2:0,0:0:0:0:
294,187,109311,2,0,P|285:148|252:119,1,68.2499968757631,2|0,0:1|2:0,0:0:0:0:
60,76,109454,5,2,0:2:0:0:
60,76,109526,1,2,0:2:0:0:
60,76,109597,2,2,B|110:87|144:60|144:60|200:80|200:80|236:56|280:52|280:52|344:84,1,272.999987503052,2|2,0:0|0:2,0:0:0:0:
448,208,109954,1,0,0:2:0:0:
448,208,110026,2,0,B|470:233|470:233|460:128,1,136.499993751526,2|2,0:0|2:0,0:0:0:0:
456,120,110240,1,2,0:2:0:0:
266,127,110311,5,4,0:0:0:0:
234,147,110383,1,4,0:0:0:0:
202,131,110454,1,4,0:0:0:0:
174,155,110526,1,4,0:0:0:0:
142,139,110598,1,4,0:0:0:0:
118,163,110669,1,4,0:0:0:0:
84,152,110740,2,0,B|52:276|52:276|8:220,1,157.5,4|0,0:0|2:0,0:0:0:0:
24,244,111026,5,0,0:0:0:0:
216,320,111168,1,8,0:1:0:0:
96,328,111311,1,0,0:0:0:0:
96,328,111383,1,0,0:0:0:0:
96,328,111454,1,0,0:0:0:0:
96,328,111526,1,0,0:0:0:0:
96,328,111597,2,0,P|108:295|128:272,1,52.5,0|0,0:0|2:0,0:0:0:0:
216,164,111740,1,8,0:1:0:0:
344,208,111883,5,0,0:0:0:0:
348,224,111954,1,0,0:0:0:0:
352,240,112026,1,0,0:0:0:0:
456,316,112168,1,0,0:0:0:0:
272,284,112311,1,8,0:1:0:0:
416,200,112454,37,0,0:0:0:0:
412,184,112525,1,0,0:0:0:0:
408,168,112597,1,0,0:0:0:0:
404,152,112668,1,0,0:0:0:0:
400,136,112740,2,0,L|352:116,1,52.5,0|0,0:0|2:0,0:0:0:0:
184,76,112883,1,8,0:1:0:0:
64,192,113026,5,0,0:0:0:0:
80,196,113097,1,0,0:0:0:0:
96,200,113168,1,0,0:0:0:0:
208,228,113311,1,0,0:0:0:0:
36,296,113454,1,8,0:1:0:0:
100,128,113597,5,0,0:0:0:0:
116,132,113668,1,0,0:0:0:0:
132,136,113739,1,0,0:0:0:0:
148,140,113811,1,0,0:0:0:0:
164,144,113883,2,0,L|240:128,1,52.5,0|0,0:0|2:0,0:0:0:0:
400,88,114026,1,8,0:1:0:0:
440,228,114168,5,4,0:3:0:0:
424,240,114240,1,0,0:0:0:0:
408,252,114311,1,0,0:0:0:0:
268,324,114454,5,4,0:3:0:0:
256,308,114526,1,0,0:0:0:0:
244,292,114597,1,8,0:1:0:0:
68,288,114740,37,4,0:3:0:0:
75,269,114812,1,0,0:0:0:0:
83,250,114883,1,0,0:0:0:0:
90,232,114954,1,0,0:0:0:0:
168,216,115026,5,0,1:0:0:0:
246,200,115097,1,0,1:0:0:0:
324,184,115168,1,0,1:0:0:0:
402,168,115240,1,0,1:0:0:0:
476,152,115311,2,0,B|428:104|428:104|456:264,1,210,4|0,1:0|0:0,0:0:0:0:
336,328,115740,2,0,P|280:340|240:316,1,105,0|2,1:0|1:2,0:0:0:0:
160,284,115954,5,2,0:2:0:0:
160,284,116026,2,0,L|164:216,1,52.5,2|0,0:2|2:0,0:0:0:0:
168,40,116168,1,2,0:2:0:0:
32,172,116311,1,0,1:0:0:0:
240,108,116454,2,0,B|292:88|328:108|328:108|376:80|376:80|408:80|448:108,1,210,2|2,0:2|1:2,0:0:0:0:
482,177,116811,5,2,0:2:0:0:
482,177,116883,2,0,P|448:188|422:184,1,52.5,0|0,1:0|2:0,0:0:0:0:
249,241,117026,2,0,P|281:246|316:271,1,52.5,0|0,1:0|2:0,0:0:0:0:
440,324,117168,5,2,0:2:0:0:
456,320,117240,1,2,0:2:0:0:
472,316,117311,1,2,0:2:0:0:
356,192,117454,1,0,1:2:0:0:
184,288,117597,2,0,P|128:296|81:255,1,105,2|0,0:2|2:0,0:0:0:0:
32,164,117883,1,2,0:2:0:0:
120,56,118026,38,0,P|134:73|144:132,1,52.5,0|0,1:0|2:0,0:0:0:0:
231,213,118168,2,0,P|239:188|256:168,1,52.5,0|0,1:0|2:0,0:0:0:0:
387,79,118311,5,2,0:2:0:0:
403,83,118383,1,2,0:2:0:0:
419,87,118454,1,2,0:2:0:0:
492,204,118597,1,0,1:1:0:0:
380,284,118740,1,2,0:2:0:0:
364,280,118812,1,2,0:2:0:0:
348,276,118883,1,2,0:2:0:0:
256,168,119026,1,0,0:0:0:0:
128,40,119168,6,0,P|116:64|112:112,1,52.5,2|0,1:2|2:0,0:0:0:0:
32,180,119311,2,0,P|37:205|49:229,1,52.5,2|0,1:2|2:0,0:0:0:0:
168,336,119454,1,8,1:0:0:0:
168,336,119526,1,8,1:0:0:0:
168,336,119597,1,8,1:0:0:0:
168,336,119668,1,8,1:0:0:0:
168,336,119740,1,8,1:0:0:0:
168,336,119811,1,8,1:0:0:0:
168,336,119883,2,0,B|203:334|223:318|223:318|284:340|284:340|316:314|388:308,1,210,4|0,1:0|0:0,0:0:0:0:
357,141,120311,6,0,L|304:175,1,52.5,8|0,0:1|2:0,0:0:0:0:
144,264,120454,1,0,0:0:0:0:
144,264,120526,1,0,0:0:0:0:
144,264,120597,1,0,0:0:0:0:
144,264,120668,1,0,0:0:0:0:
144,264,120740,1,0,0:0:0:0:
12,288,120883,6,0,L|84:276,1,52.5,8|0,0:1|2:0,0:0:0:0:
352,228,121026,1,0,0:0:0:0:
352,228,121168,1,0,0:0:0:0:
352,228,121311,1,0,0:0:0:0:
336,356,121454,38,0,L|342:303,1,52.5,8|0,0:1|2:0,0:0:0:0:
368,68,121597,1,0,0:0:0:0:
368,68,121669,1,0,0:0:0:0:
368,68,121740,1,0,0:0:0:0:
368,68,121811,1,0,0:0:0:0:
368,68,121883,1,0,0:0:0:0:
500,48,122026,6,0,L|428:60,1,52.5,8|0,0:1|2:0,0:0:0:0:
144,100,122169,1,0,0:0:0:0:
144,100,122311,1,0,0:0:0:0:
144,100,122454,1,0,0:0:0:0:
70,63,122597,6,0,L|63:115,1,52.5,8|0,0:1|2:0,0:0:0:0:
40,316,122740,1,0,0:0:0:0:
40,316,122811,1,0,0:0:0:0:
40,316,122883,1,0,0:0:0:0:
40,316,122954,1,0,0:0:0:0:
40,316,123026,1,0,0:0:0:0:
32,236,123168,6,0,L|93:248,1,52.5,8|0,0:1|2:0,0:0:0:0:
248,324,123311,1,0,0:0:0:0:
292,344,123382,1,0,0:0:0:0:
340,344,123454,1,0,0:0:0:0:
384,324,123525,1,0,0:0:0:0:
408,284,123597,1,0,0:0:0:0:
492,200,123740,2,0,L|424:216,1,52.5,8|0,0:1|2:0,0:0:0:0:
224,192,123883,5,0,0:0:0:0:
224,192,123954,1,0,0:0:0:0:
224,192,124026,2,0,L|280:140,1,62.9999980773926,0|0,1:0|0:0,0:0:0:0:
352,40,124168,2,0,L|364:188,1,125.999996154785,4|0,1:0|2:0,0:0:0:0:
372,340,124454,38,0,B|256:308|256:308|152:336,1,210,4|0,0:2|0:0,0:0:0:0:
112,272,124811,1,0,0:0:0:0:
112,272,124883,2,0,L|228:240,1,105,0|0,0:0|2:0,0:0:0:0:
436,176,125168,5,0,0:2:0:0:
436,176,125240,1,0,0:2:0:0:
436,176,125311,1,0,0:2:0:0:
216,116,125454,1,0,0:0:0:0:
356,40,125597,2,0,B|380:92|380:92|356:176|356:176|380:260,1,210,4|0,0:2|0:0,0:0:0:0:
308,336,126026,2,0,P|264:312|204:308,1,105,0|0,0:0|2:0,0:0:0:0:
40,284,126311,5,8,0:0:0:0:
40,284,126383,1,8,0:0:0:0:
40,284,126454,1,8,0:0:0:0:
40,284,126526,1,8,0:0:0:0:
40,284,126597,1,8,0:0:0:0:
40,284,126668,1,8,0:0:0:0:
79,207,126740,6,2,L|183:223,1,105,2|2,2:1|0:2,0:0:0:0:
183,223,127168,1,0,2:1:0:0:
329,161,127311,5,2,0:1:0:0:
432,145,127454,2,2,L|328:161,1,105,0|2,2:1|0:1,0:1:0:0:
100,68,127883,38,0,B|176:56|176:56|272:92|272:92|396:72,1,272.999987503052,4|0,0:0|1:0,0:0:0:0:
432,145,128240,1,0,0:0:0:0:
432,145,128311,1,0,0:0:0:0:
432,145,128383,1,0,0:0:0:0:
432,145,128454,1,0,0:0:0:0:
432,145,128526,1,0,0:0:0:0:
432,145,128597,2,0,L|344:160,1,68.2499968757631,0|0,0:1|2:0,0:0:0:0:
108,296,128740,5,0,0:0:0:0:
144,324,128811,1,0,0:0:0:0:
188,332,128883,1,0,0:0:0:0:
232,320,128954,1,0,0:0:0:0:
264,288,129026,2,0,L|248:108,1,173.250005287171,4|0,0:1|2:0,0:0:0:0:
248,96,129311,5,8,0:0:0:0:
52,200,129454,1,8,0:0:0:0:
64,44,129597,1,2,0:2:0:0:
64,44,129668,1,2,0:2:0:0:
64,44,129740,2,0,L|196:76,1,115.50000352478,2|0,0:2|0:0,0:0:0:0:
428,216,130026,5,4,0:2:0:0:
272,276,130168,2,0,P|248:224|280:152,1,115.50000352478,0|0,0:0|2:0,0:0:0:0:
472,144,130454,1,8,0:0:0:0:
248,64,130597,1,8,0:0:0:0:
424,80,130740,1,2,0:2:0:0:
424,80,130811,1,2,0:2:0:0:
424,80,130883,2,0,L|292:108,1,115.50000352478,2|0,0:2|0:0,0:0:0:0:
64,224,131168,5,4,0:2:0:0:
216,304,131311,2,0,P|252:240|212:156,1,173.250005287171,0|0,0:2|2:0,0:0:0:0:
200,152,131597,37,2,0:2:0:0:
424,180,131740,1,2,0:2:0:0:
144,324,131883,1,2,0:2:0:0:
368,232,132026,1,2,0:2:0:0:
128,128,132168,1,2,0:2:0:0:
428,56,132311,1,0,0:2:0:0:
216,28,132454,2,0,L|248:268,1,231.000007049561,4|0,0:2|0:0,0:0:0:0:
224,332,132811,5,2,0:2:0:0:
185,321,132883,1,2,0:2:0:0:
146,311,132954,1,2,0:2:0:0:
108,300,133026,1,2,0:2:0:0:
69,290,133097,1,2,0:2:0:0:
30,280,133168,2,0,L|32:222,1,57.7500017623902,4|0,1:2|2:2,0:2:0:0:
132,64,133311,5,8,0:0:0:0:
208,72,133383,1,8,0:0:0:0:
272,112,133454,1,8,0:0:0:0:
308,176,133526,1,8,0:0:0:0:
296,248,133597,2,0,P|324:124|384:120,1,173.250005287171,4|0,0:2|0:0,0:0:0:0:
380,112,133883,5,4,0:0:0:0:
200,220,134026,1,8,0:0:0:0:
440,304,134168,1,8,0:0:0:0:
116,232,134311,2,2,L|40:244,2,57.7500017623902,2|2|2,0:2|0:2|0:2,0:2:0:0:
284,40,134597,6,0,B|308:91|308:91|300:149,1,115.50000352478,4|0,0:0|1:0,0:0:0:0:
296,168,134811,1,0,0:0:0:0:
296,168,134883,1,0,0:2:0:0:
148,120,135026,1,8,0:0:0:0:
216,268,135168,1,4,1:0:0:0:
384,168,135311,1,8,1:0:0:0:
72,108,135454,2,2,L|0:100,2,57.7500017623902,2|2|2,0:2|0:2|0:2,0:2:0:0:
286,298,135740,37,4,0:2:0:0:
56,228,135883,2,2,B|84:244|132:232|132:232|172:240|172:240|204:228|204:228|235:239|235:239|276:211|328:228,1,272.999987503052
440,76,136311,1,6,0:0:0:0:
232,160,136454,1,6,0:0:0:0:
472,304,136597,1,0,0:0:0:0:
320,148,136740,1,6,0:0:0:0:
320,148,136811,1,0,0:0:0:0:
320,148,136883,1,0,0:0:0:0:
176,304,137026,6,0,B|136:308|100:300|100:300|24:328|24:328|32:296|28:248,1,204.749990627289,6|0,0:1|2:0,0:0:0:0:
32,264,137311,1,6,0:0:0:0:
76,84,137454,2,0,B|84:48|100:24|100:24|128:88|128:88|120:128|128:192,1,204.749990627289,6|0,0:0|0:0,0:0:0:0:
176,228,137740,1,4,0:3:0:0:
220,220,137811,1,0,0:3:0:0:
264,212,137883,1,0,0:3:0:0:
308,204,137954,1,0,0:3:0:0:
352,196,138026,1,4,0:3:0:0:
396,188,138097,1,0,0:3:0:0:
440,180,138168,6,0,P|496:92|452:60,1,173.250005287171,4|0,0:2|0:0,0:0:0:0:
364,24,138454,2,0,L|360:104,1,57.7500017623902,0|0,0:0|2:0,0:0:0:0:
300,304,138597,1,2,0:2:0:0:
288,308,138668,1,2,0:2:0:0:
276,312,138740,1,2,0:2:0:0:
264,316,138811,1,2,0:2:0:0:
252,320,138883,2,0,L|255:204,1,115.50000352478
152,80,139168,5,8,0:0:0:0:
8,176,139311,2,0,B|64:172|104:144|104:144|144:164|200:152,1,173.250005287171,4|0,0:2|2:0,0:0:0:0:
208,67,139597,2,0,L|120:87,1,57.7500017623902,0|0,0:0|2:0,0:0:0:0:
24,252,139740,1,2,0:2:0:0:
36,256,139811,1,2,0:2:0:0:
48,260,139883,1,2,0:2:0:0:
60,264,139954,1,2,0:2:0:0:
72,268,140026,2,0,L|184:241,1,115.50000352478
392,328,140311,5,8,0:0:0:0:
260,216,140454,2,0,B|231:152|268:100|268:100|236:104|248:32|248:32|288:72,1,251.999992309571,4|2,0:2|0:2,0:2:0:0:
432,132,140811,1,2,0:2:0:0:
432,132,140883,2,0,P|385:171|312:156,1,125.999996154785,2|2,0:2|0:2,0:0:0:0:
172,60,141097,1,0,0:0:0:0:
172,60,141169,2,0,B|169:97|181:121|181:121|165:161|185:213,1,125.999996154785,2|2,0:2|0:2,0:0:0:0:
76,316,141383,1,2,0:2:0:0:
76,316,141454,1,2,0:2:0:0:
228,248,141597,38,4,B|164:280|126:246|90:214|30:246,1,204.749990627289,4|0,0:2|2:0,0:2:0:0:
24,252,141883,1,8,0:0:0:0:
176,183,142026,1,8,0:0:0:0:
40,76,142168,1,8,0:0:0:0:
240,96,142311,6,0,B|296:68|296:68|368:88,1,125.999996154785,4|0,0:2|0:0,0:0:0:0:
464,236,142526,1,0,0:0:0:0:
384,252,142597,1,0,0:0:0:0:
304,268,142668,1,0,0:0:0:0:
224,280,142740,2,2,B|136:260|56:308|56:308|68:272|44:196,1,251.999992309571,4|0,0:2|0:0,0:0:0:0:
53,231,143097,5,0,0:0:0:0:
53,231,143168,1,0,0:0:0:0:
252,164,143311,1,0,0:2:0:0:
124,360,143454,1,8,0:0:0:0:
152,196,143597,1,8,0:0:0:0:
340,220,143740,6,0,P|406:210|476:200,1,125.999996154785,2|0,0:0|2:0,0:0:0:0:
172,96,144026,2,0,P|106:106|36:116,1,125.999996154785,2|0,0:0|2:0,0:0:0:0:
48,324,144311,5,2,0:0:0:0:
92,348,144383,1,0,0:0:0:0:
144,348,144454,1,0,0:0:0:0:
192,328,144526,1,0,0:0:0:0:
216,284,144597,2,0,P|196:256|140:252,3,62.9999980773926,2|0|0|0,0:0|0:0|0:0|0:0,0:0:0:0:
349,187,144883,2,0,L|437:203,1,62.9999980773926,2|0,0:0|0:0,0:0:0:0:
488,92,145026,38,2,B|436:96|409:122|409:122|330:108|330:108|281:138|208:120,1,251.999992309571,2|2,0:0|0:2,0:0:0:0:
248,126,145383,1,2,0:2:0:0:
248,126,145454,2,0,P|216:144|200:168,1,62.9999980773926,0|0,0:0|2:0,0:0:0:0:
68,212,145597,2,0,P|40:198|8:198,1,62.9999980773926,2|0,0:2|2:0,0:0:0:0:
96,64,145740,5,2,0:2:0:0:
104,88,145811,1,2,0:2:0:0:
112,112,145883,1,2,0:2:0:0:
120,136,145954,1,2,0:2:0:0:
128,160,146026,1,2,0:2:0:0:
136,184,146097,1,2,0:2:0:0:
144,208,146168,2,0,B|176:296|176:296|228:256,1,125.999996154785,0|0,0:0|2:0,0:0:0:0:
376,328,146454,5,2,0:2:0:0:
392,320,146526,1,2,0:2:0:0:
408,312,146597,2,0,L|416:244,1,62.9999980773926,2|0,0:2|2:2,0:2:0:0:
290,181,146740,2,0,L|298:113,1,62.9999980773926,2|0,0:2|2:2,0:2:0:0:
469,93,146883,1,8,0:0:0:0:
469,93,146954,1,8,0:0:0:0:
469,93,147026,1,8,0:0:0:0:
469,93,147097,1,8,0:0:0:0:
469,93,147168,1,8,0:0:0:0:
469,93,147240,1,8,0:0:0:0:
469,93,147311,6,2,L|281:121,1,173.250005287171,6|0,0:0|2:0,0:0:0:0:
288,124,147597,1,2,0:1:0:0:
172,216,147740,2,0,P|104:224|56:192,1,115.50000352478,10|0,0:0|0:0,0:0:0:0:
112,33,148026,1,2,0:1:0:0:
112,33,148168,2,0,L|128:153,1,115.50000352478,2|8,0:1|0:0,0:0:0:0:
232,344,148454,6,2,P|288:280|248:204,1,173.250005287171,2|0,0:0|2:0,0:0:0:0:
240,200,148740,1,2,0:0:0:0:
103,295,148883,2,0,L|239:267,1,115.50000352478,10|0,0:0|0:2,0:0:0:0:
217,272,149097,1,0,0:2:0:0:
217,272,149168,1,2,0:1:0:0:
388,240,149311,2,0,P|420:188|396:128,1,115.50000352478,2|8,0:1|0:0,0:0:0:0:
472,40,149597,38,2,B|336:60|336:60|300:92,1,173.250005287171,2|0,0:0|2:0,0:0:0:0:
300,96,149883,1,2,0:0:0:0:
168,56,150026,2,0,L|176:184,1,115.50000352478,10|0,0:0|0:0,0:0:0:0:
188,332,150311,1,10,0:0:0:0:
64,268,150454,1,2,0:0:0:0:
264,184,150597,1,8,0:0:0:0:
52,79,150740,6,0,L|67:322,1,188.999994232178,10|0,0:0|2:0,0:0:0:0:
49,342,151026,2,0,P|89:338|125:310,1,68.2499968757631,10|0,0:0|2:0,0:0:0:0:
264,272,151168,2,0,L|364:284,1,68.2499968757631,10|0,0:0|2:0,0:0:0:0:
464,232,151311,2,0,L|468:144,1,68.2499968757631,10|0,0:0|2:0,0:0:0:0:
400,36,151454,1,0,0:1:0:0:
400,36,151526,1,0,0:1:0:0:
400,36,151597,1,0,0:1:0:0:
400,36,151668,1,0,0:1:0:0:
400,36,151740,1,0,0:1:0:0:
400,36,151811,1,0,0:1:0:0:
400,36,151883,6,2,B|392:212|392:212|352:164,1,231.000007049561,6|2,0:0|0:0,0:0:0:0:
272,128,152240,1,0,0:0:0:0:
272,128,152311,2,0,P|216:125|167:155,1,115.50000352478,10|0,0:0|0:0,0:0:0:0:
48,320,152597,1,2,0:1:0:0:
48,320,152740,2,0,L|172:304,1,115.50000352478,2|8,0:1|0:1,0:2:0:0:
324,316,153026,6,2,B|388:300|434:332|434:332|488:307|502:252|463:201,1,231.000007049561
408,244,153383,1,0,0:0:0:0:
408,244,153454,2,0,B|356:236|308:245|308:245|288:232,1,115.50000352478,10|0,0:0|0:0,0:0:0:0:
172,56,153740,1,2,0:1:0:0:
172,56,153883,2,0,L|160:184,1,115.50000352478,2|8,0:1|0:1,0:2:0:0:
28,332,154168,6,2,B|20:164|20:164|92:232,1,231.000007049561
172,272,154597,2,0,P|236:268|280:200,1,115.50000352478,10|0,0:0|2:0,0:0:0:0:
460,144,154883,1,8,0:0:0:0:
315,88,155026,1,8,0:0:0:0:
467,255,155168,1,8,0:0:0:0:
387,44,155311,38,2,B|404:101|375:140|375:140|399:200|399:200|371:260|411:320,1,272.999987503052
308,328,155668,1,0,0:0:0:0:
212,348,155740,2,2,P|144:336|120:268,1,136.499993751526
72,92,156026,1,0,0:0:0:0:
72,92,156097,1,0,0:0:0:0:
72,92,156168,1,0,0:0:0:0:
72,92,156240,1,0,0:0:0:0:
72,92,156311,1,0,0:0:0:0:
72,92,156383,1,0,0:0:0:0:
72,92,156454,1,4,0:0:0:0:
200,44,156740,5,0,0:0:0:0:
272,232,156883,1,8,0:1:0:0:
148,188,157026,1,0,0:0:0:0:
132,184,157097,1,0,0:0:0:0:
116,180,157168,1,0,0:0:0:0:
24,248,157311,1,0,0:0:0:0:
224,140,157454,1,8,0:1:0:0:
72,92,157597,1,0,0:0:0:0:
328,116,157740,5,0,1:0:0:0:
244,224,157883,1,0,0:0:0:0:
348,112,158026,1,0,1:0:0:0:
200,60,158168,1,0,0:0:0:0:
368,108,158311,1,0,1:0:0:0:
164,248,158454,1,0,1:0:0:0:
416,324,158597,1,0,1:0:0:0:
492,244,158740,2,0,B|388:228|388:228|308:296,1,210,0|0,1:0|0:0,0:0:0:0:
308,295,159097,5,0,0:0:0:0:
308,295,159168,1,8,0:1:0:0:
196,216,159311,1,0,0:0:0:0:
416,120,159454,1,0,0:1:0:0:
268,68,159597,1,0,0:0:0:0:
272,88,159668,1,0,0:0:0:0:
276,104,159740,1,8,0:1:0:0:
296,212,159883,1,0,0:0:0:0:
40,160,160026,5,0,1:0:0:0:
148,52,160168,1,0,0:0:0:0:
56,156,160311,1,0,1:0:0:0:
224,220,160453,1,0,0:0:0:0:
16,304,160597,1,0,1:0:0:0:
16,304,160668,1,0,1:0:0:0:
16,304,160740,1,0,1:0:0:0:
16,304,160811,1,0,1:0:0:0:
16,304,160883,1,0,1:0:0:0:
16,304,160954,1,0,1:0:0:0:
16,304,161026,38,2,B|144:328|144:328|240:292,1,188.999994232178,2|0,0:0|2:0,0:0:0:0:
307,356,161311,1,2,0:0:0:0:
307,356,161454,2,0,B|319:292|319:292|299:232,1,125.999996154785,10|0,0:0|2:0,0:0:0:0:
456,48,161740,1,2,0:2:0:0:
460,80,161811,1,2,0:2:0:0:
464,112,161883,1,2,0:2:0:0:
468,144,161954,1,2,0:2:0:0:
472,176,162026,1,2,0:2:0:0:
476,208,162097,1,2,0:2:0:0:
480,240,162168,6,2,B|408:232|352:260|352:260|268:220,1,188.999994232178,2|0,0:0|2:0,0:0:0:0:
144,300,162454,1,2,0:0:0:0:
144,300,162597,2,0,B|217:282|217:282|293:314,1,125.999996154785,10|0,0:0|2:0,0:0:0:0:
392,184,162883,5,8,0:0:0:0:
128,120,163026,1,8,0:0:0:0:
400,40,163168,1,8,0:0:0:0:
304,168,163311,6,2,B|256:192|208:176|208:176|120:212|120:212|80:200|64:160,1,251.999992309571,2|2,0:0|0:1,0:0:0:0:
128,120,163740,1,8,0:0:0:0:
256,300,163883,6,2,B|304:324|352:308|352:308|440:344|440:344|480:332|496:292,1,251.999992309571,2|2,0:0|0:1,0:0:0:0:
432,252,164312,1,8,0:0:0:0:
301,179,164454,38,0,L|221:195,1,62.9999980773926,2|0,0:0|0:0,0:0:0:0:
60,248,164597,1,2,0:0:0:0:
60,248,164668,1,0,0:0:0:0:
60,248,164740,2,0,P|44:216|56:172,1,62.9999980773926
140,64,164883,5,8,0:0:0:0:
189,26,164954,1,8,0:0:0:0:
251,26,165025,1,8,0:0:0:0:
301,62,165097,1,8,0:0:0:0:
321,121,165168,1,8,0:0:0:0:
301,179,165240,1,8,0:0:0:0:
251,216,165311,1,8,0:0:0:0:
189,215,165383,1,8,0:0:0:0:
140,178,165454,1,8,0:0:0:0:
122,119,165525,1,8,0:0:0:0:
221,124,165597,5,4,0:0:0:0:
488,216,165883,5,0,0:0:0:0:
392,296,166026,1,8,0:1:0:0:
296,216,166168,1,0,0:0:0:0:
296,216,166240,2,0,L|304:160,3,52.5
132,336,166597,5,8,0:1:0:0:
40,248,166740,1,0,0:0:0:0:
48,232,166811,1,0,0:0:0:0:
56,216,166883,1,0,0:0:0:0:
184,136,167026,1,0,0:0:0:0:
32,44,167168,1,8,0:1:0:0:
173,84,167311,37,0,0:0:0:0:
173,84,167383,2,0,L|185:144,1,52.5
292,184,167526,1,0,0:0:0:0:
292,184,167597,2,0,L|280:244,1,52.5,0|0,0:0|2:0,0:0:0:0:
260,344,167740,1,8,0:1:0:0:
428,316,167883,5,0,0:0:0:0:
450,307,167954,1,0,0:0:0:0:
477,298,168026,1,0,0:0:0:0:
500,180,168168,1,0,0:0:0:0:
432,76,168311,1,8,0:1:0:0:
412,84,168383,1,4,0:3:0:0:
392,92,168454,1,0,0:0:0:0:
372,100,168526,1,0,0:0:0:0:
352,108,168597,1,0,0:0:0:0:
332,116,168668,1,0,0:0:0:0:
312,124,168740,1,0,0:0:0:0:
168,192,168883,5,8,0:1:0:0:
87,96,169026,5,4,0:3:0:0:
85,70,169097,1,0,0:0:0:0:
83,45,169168,1,0,0:0:0:0:
49,235,169311,5,4,0:3:0:0:
35,256,169382,1,0,0:0:0:0:
21,277,169453,1,8,0:1:0:0:
168,192,169597,37,4,0:3:0:0:
195,199,169668,1,0,0:0:0:0:
222,206,169740,1,0,0:0:0:0:
249,214,169811,1,0,0:0:0:0:
331,235,169883,5,0,1:0:0:0:
416,232,169954,1,0,1:0:0:0:
476,172,170026,1,0,1:0:0:0:
468,88,170097,1,0,1:0:0:0:
408,32,170168,1,4,1:0:0:0:
396,36,170454,5,0,0:0:0:0:
321,130,170597,2,0,L|333:258,1,105,2|0,1:2|2:0,0:0:0:0:
220,336,170883,1,2,0:2:0:0:
412,272,171026,1,0,0:0:0:0:
244,224,171168,1,0,1:0:0:0:
400,168,171311,2,0,B|448:136|496:152|496:152|500:120|528:96|528:96|460:80,1,210,2|0,0:2|0:0,0:0:0:0:
388,40,171740,6,0,L|320:52,1,52.5,0|0,1:0|2:0,1:0:0:0:
236,116,171883,2,0,L|164:112,1,52.5,0|0,1:0|2:0,1:0:0:0:
52,108,172026,1,2,0:2:0:0:
52,108,172097,1,2,0:2:0:0:
52,108,172168,1,2,0:2:0:0:
172,248,172311,5,0,1:0:0:0:
8,180,172454,2,0,B|76:204|76:204|132:196,1,105,2|0,0:2|2:0,0:0:0:0:
256,192,172740,1,2,0:2:0:0:
256,192,172811,1,2,0:2:0:0:
256,192,172883,1,2,1:2:0:0:
80,284,173026,1,0,0:0:0:0:
248,352,173168,37,2,0:2:0:0:
236,200,173311,1,2,0:2:0:0:
224,344,173454,1,2,1:2:0:0:
212,208,173597,2,0,L|200:92,1,105,2|0,0:2|2:0,0:0:0:0:
376,44,173883,5,2,0:2:0:0:
376,44,173954,1,2,0:2:0:0:
376,44,174026,1,2,1:2:0:0:
284,140,174168,1,0,0:0:0:0:
480,228,174311,1,8,1:0:0:0:
480,228,174383,1,8,1:0:0:0:
480,228,174454,1,8,1:0:0:0:
480,228,174526,1,8,1:0:0:0:
480,228,174597,1,8,1:0:0:0:
480,228,174668,1,8,1:0:0:0:
480,228,174740,2,0,B|440:236|404:224|404:224|368:252|368:252|328:228|256:256,1,210,4|0,0:0|0:0,0:0:0:0:
128,172,175168,6,0,L|122:108,1,52.5,8|0,0:1|2:0,0:0:0:0:
52,268,175311,1,0,0:0:0:0:
88,292,175383,1,0,0:0:0:0:
128,296,175454,1,0,0:0:0:0:
168,288,175526,1,0,0:0:0:0:
200,264,175597,1,0,0:0:0:0:
384,164,175740,6,0,L|390:100,1,52.5,8|0,0:1|2:0,0:0:0:0:
372,304,175883,1,0,0:0:0:0:
372,304,176026,1,0,0:0:0:0:
372,304,176168,1,0,0:0:0:0:
124,148,176311,54,0,L|118:84,1,52.5,8|0,0:1|2:0,0:0:0:0:
52,268,176454,1,0,0:0:0:0:
88,292,176526,1,0,0:0:0:0:
128,296,176597,1,0,0:0:0:0:
168,288,176669,1,0,0:0:0:0:
200,264,176740,1,0,0:0:0:0:
388,140,176883,6,0,L|394:76,1,52.5,8|0,0:1|2:0,0:0:0:0:
372,304,177026,1,0,0:0:0:0:
372,304,177169,1,0,0:0:0:0:
372,304,177311,1,0,0:0:0:0:
120,124,177454,6,0,L|114:60,1,52.5,8|0,0:1|2:0,0:0:0:0:
52,268,177597,1,0,0:0:0:0:
88,292,177669,1,0,0:0:0:0:
128,296,177740,1,0,0:0:0:0:
168,288,177812,1,0,0:0:0:0:
200,264,177883,1,0,0:0:0:0:
392,116,178026,6,0,L|398:52,1,52.5,8|0,0:1|2:0,0:0:0:0:
372,304,178168,1,0,0:0:0:0:
372,304,178311,1,0,0:0:0:0:
372,304,178453,1,0,0:0:0:0:
120,104,178597,54,0,L|114:40,1,52.5,8|0,0:1|2:0,0:0:0:0:
52,268,178740,5,0,0:0:0:0:
95,258,178812,1,0,0:0:0:0:
138,250,178883,2,0,L|226:230,1,62.9999980773926,0|0,1:2|2:0,0:0:0:0:
424,244,179026,2,0,P|451:189|433:130,1,125.999996154785,4|0,1:0|2:0,0:0:0:0:
184,124,179311,6,0,B|232:164|232:164|392:184,1,210,4|0,0:2|0:0,0:0:0:0:
460,60,179740,2,0,P|408:60|368:96,1,105,8|0,0:0|0:0,0:0:0:0:
212,260,180026,2,0,L|332:244,1,105,2|2,0:2|0:2,0:0:0:0:
316,246,180240,1,2,0:2:0:0:
316,246,180311,1,2,0:2:0:0:
476,336,180454,6,0,B|316:356|316:356|248:305,1,210,4|0,0:2|0:2,0:0:0:0:
240,184,180883,2,0,P|243:128|248:52,1,105,8|0,0:1|1:0,0:0:0:0:
404,88,181168,5,8,0:0:0:0:
108,176,181311,1,8,0:0:0:0:
404,228,181454,1,8,0:0:0:0:
108,316,181597,1,4,0:2:0:0:
96,312,181883,38,0,L|100:248,1,62.9999980773926,8|0,0:0|2:0,0:0:0:0:
16,168,182026,2,0,L|20:104,1,62.9999980773926,8|0,0:0|2:0,0:0:0:0:
184,36,182168,1,0,0:0:0:0:
227,29,182239,1,0,0:0:0:0:
270,40,182310,1,0,0:0:0:0:
306,67,182382,1,0,0:0:0:0:
328,105,182453,1,0,0:0:0:0:
334,149,182525,1,0,0:0:0:0:
322,192,182596,1,0,0:0:0:0:
294,227,182668,1,0,0:0:0:0:
256,248,182739,1,0,0:0:0:0:
212,260,182810,1,0,0:0:0:0:
169,240,182882,1,0,0:0:0:0:
144,204,182953,1,0,0:0:0:0:
144,160,183025,1,0,0:0:0:0:
172,124,183096,1,0,0:0:0:0:
216,112,183168,5,2,0:2:0:0:
236,180,183240,1,2,0:2:0:0:
256,248,183311,1,2,0:2:0:0:
276,316,183383,1,2,0:2:0:0:
296,384,183454,1,2,1:2:0:0:
408,120,184883,37,2,2:0:0:0:
185,172,185026,38,2,B|233:163|273:190|273:190|315:187|377:148,1,173.250005287171,4|0,0:2|0:0,0:0:0:0:
422,174,185311,2,0,P|421:145|408:120,1,57.7500017623902
260,80,185454,1,8,0:0:0:0:
488,130,185597,1,8,0:0:0:0:
320,265,185740,2,0,B|272:257|234:273|234:273|193:245,1,115.50000352478,4|0,0:2|0:0,0:0:0:0:
24,180,186026,5,8,0:0:0:0:
104,36,186168,2,0,B|132:156|132:156|112:212,1,173.250005287171,6|0,0:2|2:0,0:0:0:0:
49,255,186453,2,0,B|64:276|64:276|96:284,1,57.7500017623902
216,168,186596,1,8,0:0:0:0:
364,320,186739,1,0,0:0:0:0:
488,223,186882,2,0,B|435:194|435:194|382:209,1,115.50000352478,4|0,0:2|0:0,0:0:0:0:
192,264,187168,6,0,L|197:336,1,57.7500017623902
300,220,187311,2,0,L|287:23,1,173.250005287171,4|0,0:2|2:0,0:0:0:0:
288,36,187597,5,2,0:2:0:0:
328,44,187668,1,2,0:2:0:0:
368,52,187740,2,0,L|372:124,1,57.7500017623902,2|0,0:2|2:0,0:0:0:0:
216,144,187883,5,2,0:2:0:0:
176,152,187954,1,2,0:2:0:0:
136,160,188026,2,0,L|132:232,1,57.7500017623902,2|0,0:2|2:0,0:0:0:0:
344,224,188168,37,2,0:2:0:0:
384,232,188239,1,2,0:2:0:0:
424,240,188311,2,0,L|428:312,1,57.7500017623902,2|0,0:2|2:0,0:0:0:0:
264,344,188454,6,0,B|200:356|164:328|164:328|88:352|88:352|144:280,1,231.000007049561,4|8,0:2|1:0,0:0:0:0:
116,315,188811,1,0,0:0:0:0:
116,315,188883,1,0,0:0:0:0:
232,200,189026,1,8,0:0:0:0:
40,116,189168,1,8,0:0:0:0:
40,116,189240,1,8,0:0:0:0:
40,116,189311,1,8,0:0:0:0:
40,116,189383,1,8,0:0:0:0:
40,116,189454,1,8,0:0:0:0:
40,116,189526,1,8,0:0:0:0:
40,116,189597,6,0,B|124:124|124:124|168:100|168:100|272:116,1,231.000007049561,4|4,0:2|0:0,0:0:0:0:
372,248,190026,2,0,B|456:256|456:256|504:208,1,115.50000352478,8|0,0:0|0:0,0:0:0:0:
400,64,190311,1,2,0:2:0:0:
400,64,190383,1,2,0:2:0:0:
400,64,190454,1,2,0:2:0:0:
248,184,190597,6,0,L|192:156,1,57.7500017623902,4|0,0:0|0:0,0:0:0:0:
116,64,190740,2,0,L|124:180,1,115.50000352478
140,340,191026,1,8,0:0:0:0:
344,288,191168,2,0,B|364:232|364:232|328:164,1,115.50000352478,4|0,0:0|0:0,0:0:0:0:
256,40,191454,1,2,0:2:0:0:
256,40,191526,1,2,0:2:0:0:
256,40,191597,1,2,0:2:0:0:
160,252,191740,5,4,0:2:0:0:
8,200,191883,2,2,B|56:168|112:192|112:192|144:164|144:164|204:192|304:140,1,272.999987503052
508,248,192311,1,4,0:0:0:0:
196,100,192454,1,4,0:0:0:0:
472,24,192597,1,0,0:0:0:0:
224,240,192740,1,4,0:0:0:0:
420,152,192883,1,0,0:0:0:0:
192,320,193026,38,0,B|140:344|140:344|92:324|92:324|28:328|28:328|64:280,1,204.749990627289,6|0,0:0|2:0,0:0:0:0:
12,216,193311,2,0,L|20:136,1,68.2499968757631,6|0,0:0|0:0,0:0:0:0:
176,44,193454,1,0,0:0:0:0:
208,88,193526,1,0,0:0:0:0:
260,108,193597,1,0,0:0:0:0:
316,108,193668,1,0,0:0:0:0:
368,88,193740,1,0,0:0:0:0:
400,44,193811,5,4,0:3:0:0:
352,68,193883,1,4,0:3:0:0:
352,124,193954,1,4,0:3:0:0:
388,164,194026,2,4,L|400:244,1,68.2499968757631,4|4,0:3|2:3,0:3:0:0:
474,315,194168,6,0,B|416:348|416:348|312:328,1,173.250005287171,4|0,0:2|2:0,0:0:0:0:
276,320,194454,1,0,0:0:0:0:
464,188,194597,1,8,0:0:0:0:
280,136,194740,1,0,0:0:0:0:
352,240,194883,1,2,0:2:0:0:
372,236,194954,1,2,0:2:0:0:
398,231,195026,1,2,0:2:0:0:
468,64,195168,6,0,L|376:76,1,57.7500017623902,8|0,0:0|0:0,0:0:0:0:
208,192,195311,2,0,B|80:208|80:208|32:152,1,173.250005287171,4|0,0:2|2:0,0:0:0:0:
36,152,195597,1,0,0:0:0:0:
188,328,195740,1,8,0:0:0:0:
8,292,195883,1,2,0:2:0:0:
8,292,195954,1,2,0:2:0:0:
8,292,196026,2,0,L|136:276,1,115.50000352478,2|0,0:2|1:0,0:0:0:0:
364,300,196311,6,2,P|388:280|396:244,1,57.7500017623902,8|0,0:1|1:0,0:2:0:0:
252,148,196454,2,0,B|248:216|288:300|288:300|296:252|336:232,1,231.000007049561,4|2,0:2|0:2,0:0:0:0:
384,152,196811,37,2,0:2:0:0:
384,152,196883,2,0,L|308:172,1,57.7500017623902,0|0,0:0|2:0,0:0:0:0:
112,256,197026,5,2,0:2:0:0:
112,256,197097,1,2,0:2:0:0:
112,256,197168,2,0,L|188:280,1,68.2499968757631,0|0,0:0|2:0,0:0:0:0:
304,348,197311,5,2,0:2:0:0:
304,348,197383,1,2,0:2:0:0:
304,348,197454,2,0,L|292:272,1,68.2499968757631,0|0,0:0|2:0,0:0:0:0:
108,64,197597,6,2,B|70:38|70:38|44:60|28:100|28:100|59:134|59:134|32:180|72:264,1,272.999987503052,4|2,0:2|0:0,0:0:0:0:
177,276,197954,1,0,0:0:0:0:
232,267,198026,1,0,0:0:0:0:
287,258,198097,1,0,0:0:0:0:
342,249,198168,1,0,0:0:0:0:
398,240,198240,1,0,0:0:0:0:
453,232,198311,2,0,P|470:195|442:143,1,62.9999980773926,4|0,0:2|2:0,0:0:0:0:
348,52,198454,5,8,0:0:0:0:
268,64,198526,1,8,0:0:0:0:
188,76,198597,1,10,0:0:0:0:
108,88,198668,1,8,0:0:0:0:
28,100,198740,2,2,B|40:144|64:160|64:160|56:272|56:272|80:240|124:232,1,251.999992309571,6|0,0:2|0:0,0:0:0:0:
300,192,199168,37,8,0:0:0:0:
192,148,199311,1,0,0:0:0:0:
192,148,199383,1,0,0:0:0:0:
192,148,199454,1,0,0:0:0:0:
184,328,199597,1,0,0:0:0:0:
384,268,199740,6,0,L|481:246,3,62.9999980773926,2|0|0|0,1:0|0:0|0:0|0:0,0:0:0:0:
400,136,200026,2,0,L|420:68,3,62.9999980773926,2|0|0|0,0:0|0:0|0:0|0:0,0:0:0:0:
292,72,200311,1,2,0:0:0:0:
292,72,200383,1,0,0:0:0:0:
292,72,200454,1,0,0:0:0:0:
292,72,200526,1,0,0:0:0:0:
200,92,200597,6,0,L|136:108,1,62.9999980773926,2|0,0:0|0:0,0:0:0:0:
108,272,200740,2,0,L|44:288,1,62.9999980773926
16,196,200883,1,2,0:0:0:0:
16,196,200954,1,0,0:0:0:0:
16,196,201026,2,2,B|103:175|103:175|168:204|168:204|287:174,1,251.999992309571,2|2,0:0|1:2,0:0:0:0:
336,224,201383,5,2,0:2:0:0:
336,224,201454,2,0,B|349:200|349:200|350:164,1,62.9999980773926,0|0,0:0|2:0,0:0:0:0:
217,34,201597,2,0,B|199:59|199:59|199:91,1,62.9999980773926,0|0,0:0|2:0,0:0:0:0:
208,288,201740,1,2,0:2:0:0:
228,292,201811,1,2,0:2:0:0:
248,296,201883,1,2,0:2:0:0:
268,300,201954,1,2,0:2:0:0:
288,304,202026,1,2,0:2:0:0:
308,308,202097,1,2,0:2:0:0:
328,312,202168,2,0,B|372:288|372:288|428:296|428:296|452:264|492:244|492:244|464:224|428:220,1,251.999992309571,0|2,0:0|1:2,0:0:0:0:
424,124,202526,5,2,0:2:0:0:
424,124,202597,2,0,B|388:130|388:130|352:156,1,62.9999980773926,2|0,0:2|2:0,0:0:0:0:
236,176,202740,2,0,B|200:169|200:169|164:144,1,62.9999980773926,2|0,0:2|2:0,0:0:0:0:
52,64,202883,1,0,0:0:0:0:
52,64,202954,1,0,0:0:0:0:
52,64,203026,1,0,0:0:0:0:
52,64,203097,1,0,0:0:0:0:
52,64,203168,1,0,0:0:0:0:
52,64,203240,1,0,0:0:0:0:
52,64,203311,2,0,B|100:72|132:56|132:56|200:84|200:84|220:72|268:68|268:68,1,210
460,112,203740,38,0,B|421:143|421:143|353:139,1,105,8|0,0:1|2:0,0:0:0:0:
300,248,204026,2,0,B|261:279|261:279|193:275,1,105,8|0,0:1|2:0,0:0:0:0:
82,270,204311,5,0,0:0:0:0:
72,278,204382,1,0,0:0:0:0:
60,283,204453,1,0,0:0:0:0:
47,285,204525,1,0,0:0:0:0:
34,282,204596,1,0,0:0:0:0:
23,276,204668,1,0,0:0:0:0:
14,266,204739,1,0,0:0:0:0:
8,254,204811,1,0,0:0:0:0:
7,241,204882,1,0,0:0:0:0:
9,229,204953,1,0,0:0:0:0:
16,217,205025,1,0,0:0:0:0:
25,208,205096,1,0,0:0:0:0:
32,204,205168,53,2,1:1:0:0:
108,156,205240,5,2,1:1:0:0:
192,188,205311,85,2,1:1:0:0:
268,140,205383,5,2,1:1:0:0:
352,172,205454,85,2,1:1:0:0:
428,124,205526,5,2,1:1:0:0:
512,155,205597,6,2,L|320:184,1,173.250005287171,6|0,0:0|2:0,0:0:0:0:
336,188,205882,1,8,0:0:0:0:
400,336,206026,2,0,P|440:288|420:232,1,115.50000352478,10|0,0:0|2:0,0:0:0:0:
348,96,206311,1,2,0:2:0:0:
348,96,206383,1,2,0:2:0:0:
348,96,206454,1,2,0:2:0:0:
152,240,206597,5,10,0:1:0:0:
192,84,206740,2,2,B|220:48|220:48|248:208,1,173.250005287171,2|0,0:0|2:0,0:0:0:0:
248,196,207026,1,0,0:0:0:0:
84,304,207168,2,0,B|64:248|64:248|76:188,1,115.50000352478,10|0,0:0|2:0,0:0:0:0:
276,56,207454,5,2,0:2:0:0:
276,56,207526,1,2,0:2:0:0:
276,56,207597,1,2,0:2:0:0:
164,156,207740,1,10,0:1:0:0:
344,224,207883,2,0,P|397:212|472:196,1,115.50000352478,2|0,0:0|2:0,0:0:0:0:
372,76,208168,1,2,0:0:0:0:
256,192,208311,1,10,0:2:0:0:
256,192,208383,1,2,0:2:0:0:
256,192,208454,1,2,0:2:0:0:
456,252,208597,5,2,0:0:0:0:
332,336,208740,1,0,0:0:0:0:
432,244,208883,1,10,0:0:0:0:
240,196,209026,2,2,B|180:216|132:204|132:204|76:236|76:236|88:208|120:136,1,231.000007049561
84,52,209454,1,8,0:0:0:0:
84,52,209740,6,2,L|96:148,1,57.7500017623902,2|2,0:2|0:2,0:2:0:0:
116,324,209883,1,0,0:0:0:0:
116,324,209954,1,0,0:0:0:0:
116,324,210026,1,0,0:0:0:0:
116,324,210097,1,0,0:0:0:0:
116,324,210168,38,2,B|164:336|212:308|212:308|260:336|260:336|360:316,1,231.000007049561,2|0,0:0|0:0,0:0:0:0:
356,168,210597,1,10,0:0:0:0:
280,256,210740,1,0,0:0:0:0:
456,328,210883,5,2,0:2:0:0:
456,328,210954,1,2,0:2:0:0:
456,328,211026,1,2,0:2:0:0:
352,244,211168,1,8,0:0:0:0:
484,64,211311,2,2,B|465:132|465:132|497:168|489:220|489:220|456:216|417:236,1,231.000007049561,2|0,0:0|0:0,0:0:0:0:
308,152,211740,2,0,P|244:144|196:184,1,115.50000352478,10|0,0:0|0:0,0:0:0:0:
120,272,212026,5,2,0:2:0:0:
100,268,212097,1,2,0:2:0:0:
80,264,212168,1,2,0:2:0:0:
264,232,212311,1,8,0:0:0:0:
56,340,212454,2,2,P|9:238|97:186,1,231.000007049561,2|0,0:0|1:0,0:0:0:0:
200,284,212883,5,10,0:0:0:0:
340,160,213026,1,0,0:0:0:0:
120,76,213168,1,2,0:2:0:0:
120,76,213240,1,2,0:2:0:0:
120,76,213311,1,2,0:2:0:0:
208,200,213454,1,8,0:0:0:0:
332,80,213597,6,2,B|282:93|264:136|264:136|216:116|176:128|176:128|128:172|52:132,1,272.999987503052
28,236,214026,2,0,L|108:224,1,68.2499968757631,4|0,0:0|2:0,0:0:0:0:
208,320,214168,2,0,L|288:308,1,68.2499968757631,4|0,0:0|2:0,0:0:0:0:
460,212,214311,1,8,0:0:0:0:
460,212,214383,1,8,0:0:0:0:
460,212,214454,1,8,0:0:0:0:
460,212,214526,1,8,0:0:0:0:
460,212,214597,1,8,0:0:0:0:
460,212,214668,1,8,0:0:0:0:
460,212,214740,38,0,L|346:231,1,115.50000352478,6|0,0:0|2:0,0:0:0:0:
160,156,215026,1,2,0:2:0:0:
168,152,215097,1,2,0:2:0:0:
176,148,215168,2,0,P|240:136|288:160,1,115.50000352478,10|0,0:2|0:0,0:0:0:0:
416,296,215454,5,2,0:1:0:0:
432,132,215597,1,2,0:1:0:0:
280,232,215740,1,8,0:0:0:0:
492,320,215883,2,2,B|500:268|472:236|472:236|500:164|500:164|484:200|432:212,1,231.000007049561,2|2,0:0|0:2,0:0:0:0:
360,104,216240,1,2,0:2:0:0:
360,104,216311,2,0,P|398:62|454:56,1,115.50000352478,8|0,0:2|0:0,0:0:0:0:
280,232,216597,5,2,0:0:0:0:
416,292,216740,1,0,0:0:0:0:
289,153,216883,2,0,P|260:158|217:189,1,57.7500017623902,8|0,0:2|0:2,0:0:0:0:
84,255,217026,2,2,B|108:275|148:275|148:275|168:295|168:295|220:283|220:283|254:316|304:307,1,231.000007049561,2|2,0:0|0:2,0:0:0:0:
436,368,217383,1,2,0:2:0:0:
436,368,217454,2,0,P|479:337|468:235,1,115.50000352478,8|0,0:0|2:0,0:0:0:0:
452,100,217740,5,2,0:1:0:0:
452,100,217811,1,2,0:2:0:0:
452,100,217883,1,2,0:2:0:0:
248,224,218026,1,8,0:0:0:0:
360,252,218168,2,0,L|344:96,1,115.50000352478,2|0,0:0|2:0,0:0:0:0:
32,60,218454,1,8,0:0:0:0:
144,132,218597,5,2,0:2:0:0:
144,132,218668,1,2,0:2:0:0:
144,132,218740,1,2,0:2:0:0:
144,132,218811,1,2,0:2:0:0:
144,132,218883,2,2,L|128:196,1,57.7500017623902,2|2,0:2|0:2,0:2:0:0:
188,352,219026,37,8,0:0:0:0:
232,336,219097,1,8,0:0:0:0:
276,320,219168,1,8,0:0:0:0:
320,304,219240,1,8,0:0:0:0:
364,288,219311,2,0,B|456:268|516:304|516:304|432:204,1,231.000007049561,6|0,0:0|0:0,0:0:0:0:
372,144,219740,2,0,P|324:136|264:176,1,115.50000352478,10|0,0:0|2:0,0:0:0:0:
116,288,220026,5,2,0:2:0:0:
116,288,220097,1,2,0:2:0:0:
116,288,220168,1,2,0:2:0:0:
116,288,220240,1,2,0:2:0:0:
116,288,220311,1,10,0:2:0:0:
116,288,220383,1,2,0:2:0:0:
40,348,220454,2,2,B|8:280|44:228|44:228|3:171|32:112,1,231.000007049561,2|0,0:0|0:0,0:0:0:0:
144,28,220883,2,0,P|194:54|217:105,1,115.50000352478,10|0,0:0|2:0,0:0:0:0:
264,224,221168,6,0,L|128:212,1,115.50000352478,2|2,0:0|0:2,0:0:0:0:
136,212,221383,1,2,0:2:0:0:
136,212,221454,1,2,0:2:0:0:
468,252,221597,1,4,0:2:0:0:
488,172,221883,21,0,0:0:0:0:
468,252,222026,53,0,0:0:0:0:
406,151,222168,37,0,0:0:0:0:
386,269,222311,53,0,0:0:0:0:
327,131,222454,37,0,0:0:0:0:
305,287,222597,53,0,0:0:0:0:
248,113,222740,37,0,0:0:0:0:
223,305,222883,53,0,0:0:0:0:
169,93,223026,37,0,0:0:0:0:
142,323,223168,53,0,0:0:0:0:
89,73,223311,37,0,0:0:0:0:
32,224,223454,5,8,0:1:0:0:
106,212,223526,5,8,0:1:0:0:
182,201,223597,85,8,0:1:0:0:
256,191,223668,5,8,0:1:0:0:
332,180,223740,85,8,0:1:0:0:
