osu file format v14

[General]
AudioFilename: 09 - .mp3
AudioLeadIn: 0
PreviewTime: 184858
Countdown: 0
SampleSet: Normal
StackLeniency: 0.7
Mode: 0
LetterboxInBreaks: 1
WidescreenStoryboard: 1

[Editor]
Bookmarks: 47454,48597,52668,108597,151311,171883
DistanceSpacing: 0.2
BeatDivisor: 4
GridSize: 4
TimelineZoom: 2.799999

[Metadata]
Title:Yakubyougami
TitleUnicode:ヤクビョウガミ
Artist:ayaponzu*
ArtistUnicode:あやぽんず*
Creator:Pho
Version:cRyo's Extra
Source:
Tags:まふまふ mafumafu yasu △○□× miwasiba みわしいば chocolate pop* Not-116 utaite 歌い手 asahina momoko mokori m_o_k_o_r_i cryo[iceeicee] cryo jonathanlfj captin1 lmt
BeatmapID:1361572
BeatmapSetID:501001

[Difficulty]
HPDrainRate:7
CircleSize:4.2
OverallDifficulty:8
ApproachRate:9.4
SliderMultiplier:2.1
SliderTickRate:1

[Events]
//Background and Video events
Video,-148,"yakubyougami.avi"
0,0,"bg3.jpg",0,0
//Break Periods
2,74415,92247
2,183701,184390
//Storyboard Layer 0 (Background)
//Storyboard Layer 1 (Fail)
//Storyboard Layer 2 (Pass)
//Storyboard Layer 3 (Foreground)
//Storyboard Sound Samples

[TimingPoints]
73,285.714285714286,4,1,4,60,1,0
73,-90.9090909090909,4,1,4,60,0,0
501,-90.9090909090909,4,1,5,30,0,0
601,-90.9090909090909,4,1,4,20,0,0
715,-90.9090909090909,4,1,4,60,0,0
1001,-90.9090909090909,4,2,4,5,0,0
1073,-90.9090909090909,4,1,23,60,0,0
1173,-90.9090909090909,4,1,4,60,0,0
5215,-83.3333333333333,4,1,4,80,0,0
5430,-90.9090909090909,4,1,4,60,0,0
5644,-90.9090909090909,4,1,23,60,0,0
5744,-90.9090909090909,4,1,4,60,0,0
9501,-76.9230769230769,4,1,4,60,0,0
9787,-90.9090909090909,4,1,4,60,0,0
10215,-90.9090909090909,4,1,23,60,0,0
10315,-90.9090909090909,4,1,4,60,0,0
14358,-90.9090909090909,4,1,4,80,0,0
14573,-90.9090909090909,4,1,4,60,0,0
14787,-90.9090909090909,4,1,23,60,0,0
14887,-90.9090909090909,4,1,4,60,0,0
19358,-90.9090909090909,4,1,25,50,0,0
19458,-90.9090909090909,4,1,4,60,0,0
19501,-200,4,1,5,60,0,0
21073,-200,4,1,5,30,0,0
21173,-200,4,1,5,60,0,0
21930,-200,4,1,5,30,0,0
22030,-200,4,1,5,60,0,0
22215,-200,4,1,5,30,0,0
22315,-200,4,1,5,60,0,0
23358,-200,4,1,5,40,0,0
23458,-200,4,1,5,60,0,0
24073,-200,4,1,6,50,0,0
24173,-200,4,1,5,50,0,0
25787,-166.666666666667,4,1,5,60,0,0
25887,-200,4,1,5,60,0,0
26073,-133.333333333333,4,1,5,60,0,0
26173,-200,4,1,5,60,0,0
26358,-200,4,1,6,60,0,0
26458,-200,4,1,5,60,0,0
27215,-200,4,1,5,70,0,0
27501,-76.9230769230769,4,1,10,80,0,0
28501,-83.3333333333333,4,1,23,60,0,0
28573,-90.9090909090909,4,1,4,80,0,0
32358,-90.9090909090909,4,1,4,60,0,0
32787,-100,4,1,4,60,0,0
33073,-100,4,1,2,60,0,0
33173,-100,4,1,4,70,0,0
34215,-100,4,1,4,70,0,0
34315,-100,4,1,4,70,0,0
35358,-76.9230769230769,4,1,4,75,0,0
37215,-76.9230769230769,4,1,4,60,0,0
37644,-100,4,1,2,60,0,0
37744,-100,4,1,4,60,0,0
37930,-100,4,3,10,90,0,0
43930,-100,4,1,4,90,0,0
44030,-100,4,3,10,90,0,0
50930,-83.3333333333333,4,3,10,90,0,0
51073,-83.3333333333333,4,3,10,100,0,0
51173,-100,4,3,10,90,0,0
51644,-100,4,1,10,80,0,0
54930,-80,4,1,10,80,0,0
55930,-90.9090909090909,4,1,4,80,0,0
62787,-76.9230769230769,4,1,4,80,0,0
62887,-90.9090909090909,4,1,4,80,0,0
68501,-76.9230769230769,4,1,4,80,0,0
69315,-90.9090909090909,4,1,4,80,0,0
74215,-90.9090909090909,4,1,2,80,0,0
92930,-200,4,1,5,60,0,0
97215,-200,4,1,4,60,0,0
97315,-200,4,1,5,50,0,0
99215,-200,4,1,5,60,0,0
99787,-200,4,1,5,70,0,0
100073,-166.666666666667,4,1,5,80,0,0
100644,-76.9230769230769,4,1,10,80,0,0
101215,-200,4,1,10,80,0,0
101501,-100,4,1,10,80,0,0
101644,-66.6666666666667,4,1,10,80,0,0
101744,-83.3333333333333,4,1,10,70,0,0
102001,-90.9090909090909,4,1,10,70,0,0
103144,-111.111111111111,4,1,10,80,0,0
103430,-90.9090909090909,4,1,10,80,0,0
105787,-90.9090909090909,4,1,10,80,0,0
105858,-100,4,1,10,80,0,0
106215,-100,4,1,10,70,0,0
106315,-100,4,1,10,70,0,0
108501,-76.9230769230769,4,1,4,75,0,0
110287,-100,4,1,4,70,0,0
110358,-100,4,1,4,60,0,0
110787,-100,4,1,2,70,0,0
111073,-100,4,3,10,90,0,0
115358,-100,4,3,10,80,0,0
120215,-100,4,3,10,90,0,0
123930,-83.3333333333333,4,3,10,80,0,0
124501,-100,4,1,10,80,0,0
126358,-200,4,1,10,80,0,0
126787,-200,4,1,5,50,0,0
127930,-76.9230769230769,4,1,10,50,0,0
128001,-76.9230769230769,4,1,10,50,0,0
128787,-90.9090909090909,4,1,10,50,0,0
129215,-90.9090909090909,4,1,4,80,0,0
135930,-76.9230769230769,4,1,4,80,0,0
136030,-90.9090909090909,4,1,4,80,0,0
137073,-76.9230769230769,4,1,4,80,0,0
137787,-90.9090909090909,4,3,10,70,0,0
138215,-90.9090909090909,4,1,4,80,0,0
140501,-83.3333333333333,4,1,4,80,0,0
141644,-76.9230769230769,4,1,4,80,0,0
141744,-76.9230769230769,4,1,4,80,0,0
142358,-83.3333333333333,4,1,4,80,0,0
145073,-83.3333333333333,4,1,15,80,0,0
146930,-90.9090909090909,4,1,4,80,0,0
147358,-90.9090909090909,4,1,23,70,0,0
147394,-90.9090909090909,4,1,4,80,0,0
150787,-83.3333333333333,4,1,4,80,0,0
151073,-76.9230769230769,4,1,4,80,0,0
151930,-90.9090909090909,4,1,23,70,0,0
151965,-90.9090909090909,4,1,4,80,0,0
155358,-76.9230769230769,4,1,4,80,0,0
156501,-76.9230769230769,4,1,2,80,0,0
156644,-100,4,3,10,85,0,0
157787,-133.333333333333,4,3,10,85,0,0
158787,-100,4,3,10,85,0,0
161073,-83.3333333333333,4,1,4,80,0,0
164930,-83.3333333333333,4,1,4,60,0,0
165644,-100,4,1,2,80,0,0
165930,-100,4,3,10,90,0,0
170215,-100,4,3,10,80,0,0
174787,-100,4,1,10,80,0,0
174887,-100,4,3,10,80,0,0
175073,-100,4,3,10,90,0,0
178787,-83.3333333333333,4,3,10,80,0,0
179358,-100,4,1,10,80,0,0
181930,-83.3333333333333,4,1,10,80,0,0
182215,-117.647058823529,4,1,10,80,0,0
183215,-117.647058823529,4,1,10,90,0,0
183598,-200,4,2,2,60,0,0
184073,-200,4,2,10,60,0,0
185073,-90.9090909090909,4,1,4,80,0,0
189644,-90.9090909090909,4,1,2,80,0,0
189744,-90.9090909090909,4,1,4,80,0,0
191930,-76.9230769230769,4,1,4,80,0,0
194215,-90.9090909090909,4,1,4,80,0,0
197644,-76.9230769230769,4,1,4,80,0,0
197715,-83.3333333333333,4,1,4,80,0,0
203358,-100,4,1,4,80,0,0
204358,-83.3333333333333,4,1,4,80,0,0
205215,-90.9090909090909,4,1,4,80,0,0
205644,-90.9090909090909,4,1,4,70,0,0
208358,-90.9090909090909,4,1,40,70,0,0
208573,-90.9090909090909,4,1,4,70,0,0
209787,-90.9090909090909,4,1,4,80,0,0
209930,-90.9090909090909,4,1,4,70,0,0
213644,-76.9230769230769,4,1,4,60,0,0
214358,-90.9090909090909,4,1,4,60,0,0
214787,-90.9090909090909,4,1,23,60,0,0
214887,-90.9090909090909,4,1,4,70,0,0
215215,-90.9090909090909,4,1,40,70,0,0
215315,-90.9090909090909,4,1,4,70,0,0
216358,-90.9090909090909,4,1,40,70,0,0
216458,-90.9090909090909,4,1,4,70,0,0
216930,-90.9090909090909,4,1,40,70,0,0
217030,-90.9090909090909,4,1,4,70,0,0
219358,-90.9090909090909,4,1,23,70,0,0
219458,-90.9090909090909,4,1,4,70,0,0
220358,-90.9090909090909,4,1,40,70,0,0
220458,-90.9090909090909,4,1,4,70,0,0
221930,-90.9090909090909,4,1,4,30,0,0
222073,-90.9090909090909,4,1,4,35,0,0
222215,-90.9090909090909,4,1,4,40,0,0
222358,-90.9090909090909,4,1,4,45,0,0
222501,-90.9090909090909,4,1,4,55,0,0
222644,-90.9090909090909,4,1,4,60,0,0
222787,-90.9090909090909,4,1,4,65,0,0
222930,-90.9090909090909,4,1,4,70,0,0
223073,-90.9090909090909,4,1,4,75,0,0
223215,-90.9090909090909,4,1,4,80,0,0
223358,-90.9090909090909,4,1,4,85,0,0
223501,-90.9090909090909,4,1,4,60,0,0

[Colours]
Combo1 : 255,23,23
Combo2 : 174,255,174
Combo3 : 119,181,255
Combo4 : 203,151,255
Combo5 : 255,230,151
Combo6 : 255,255,255
Combo7 : 255,23,23

[HitObjects]
347,125,501,5,4,1:2:0:0:
200,208,644,1,0,3:0:0:0:
188,76,930,2,0,L|196:156,1,57.7500017623902,0|0,1:0|2:0,0:0:0:0:
360,272,1073,6,2,P|392:192|336:120,1,173.250005287171,6|0,0:0|2:0,0:0:0:0:
336,120,1358,1,8,0:0:0:0:
200,208,1501,2,0,B|260:220|260:220|328:196,1,115.50000352478,6|0,0:0|2:0,0:0:0:0:
432,104,1787,5,6,0:0:0:0:
172,200,1930,1,8,0:0:0:0:
336,312,2073,1,6,0:0:0:0:
252,144,2215,2,0,B|240:84|240:84|264:16,1,115.50000352478,10|0,0:0|2:0,0:0:0:0:
500,160,2501,1,0,0:2:0:0:
500,160,2573,1,0,0:2:0:0:
500,160,2644,2,0,B|464:192|428:192|428:192|384:168,1,115.50000352478,6|0,0:0|2:0,0:0:0:0:
258,32,2930,5,6,0:0:0:0:
167,224,3073,1,8,0:0:0:0:
52,112,3215,1,6,0:0:0:0:
252,144,3358,2,2,B|232:212|244:276|244:276|220:312,1,173.250005287171,0|0,0:1|2:0,0:0:0:0:
212,316,3644,1,8,1:0:0:0:
58,234,3787,2,0,B|110:211|110:211|167:224,1,115.50000352478,6|0,0:0|2:0,0:0:0:0:
408,288,4073,5,6,0:0:0:0:
408,288,4144,1,0,0:3:0:0:
408,288,4215,1,0,0:0:0:0:
268,192,4358,1,4,0:0:0:0:
364,52,4501,2,0,B|388:188|388:188|424:136,1,173.250005287171,10|0,0:0|2:0,0:0:0:0:
463,170,4787,38,0,P|436:159|408:159,1,57.7500017623902,4|0,0:0|2:0,0:0:0:0:
240,52,4930,2,0,P|238:90|208:144,1,57.7500017623902,6|0,0:0|2:0,0:0:0:0:
88,264,5073,2,0,P|52:256|28:256,1,57.7500017623902,4|0,0:0|0:0,0:0:0:0:
104,56,5215,2,0,B|144:48|168:72|168:72|148:128|184:164,1,125.999996154785,2|2,1:2|0:2,0:2:0:0:
52,184,5430,1,8,0:3:0:0:
52,184,5501,1,8,0:3:0:0:
52,184,5573,1,8,0:3:0:0:
52,184,5644,6,2,B|96:180|132:200|132:200|188:188|224:216|224:216|268:169,1,231.000007049561,6|0,0:0|0:0,0:0:0:0:
400,96,6001,1,0,0:0:0:0:
400,96,6073,2,0,P|335:91|296:124,1,115.50000352478,6|0,0:0|2:0,0:0:0:0:
168,276,6358,5,6,0:0:0:0:
360,160,6501,1,10,0:0:0:0:
372,340,6644,1,4,0:0:0:0:
192,276,6787,2,2,B|308:296|308:296|328:270|384:256,1,173.250005287171,10|0,0:0|2:0,0:0:0:0:
423,282,7073,1,8,0:0:0:0:
284,221,7215,2,0,B|198:206|198:206|188:180,1,115.50000352478,6|0,0:0|2:0,0:0:0:0:
188,44,7501,6,0,L|324:24,1,115.50000352478,6|0,0:0|0:0,0:0:0:0:
302,27,7715,1,0,0:0:0:0:
302,27,7787,1,6,0:0:0:0:
404,109,7930,2,0,B|292:99|292:99|237:123,1,173.250005287171,2|0,0:0|2:0,0:0:0:0:
188,180,8215,1,8,0:0:0:0:
248,290,8358,2,0,P|280:246|260:190,1,115.50000352478,6|0,0:0|2:0,0:0:0:0:
16,60,8644,53,6,0:0:0:0:
237,123,8787,1,8,0:0:0:0:
52,224,8930,1,6,0:0:0:0:
148,109,9073,2,2,B|212:85|252:161|328:129,1,173.250005287171,2|0,0:0|2:0,0:0:0:0:
396,148,9358,5,0,1:0:0:0:
396,148,9430,1,0,1:0:0:0:
396,148,9501,2,0,P|395:114|378:85,1,68.2499968757631,4|0,0:0|0:0,0:0:0:0:
200,36,9644,2,0,P|168:36|124:44,1,68.2499968757631,4|0,0:0|0:0,0:0:0:0:
24,228,9787,1,10,0:0:0:0:
24,228,9858,1,8,0:0:0:0:
24,228,9930,1,8,0:0:0:0:
24,228,10001,1,8,0:0:0:0:
24,228,10073,1,8,0:0:0:0:
24,228,10144,1,8,0:0:0:0:
24,228,10215,6,0,L|148:216,1,115.50000352478,6|0,0:0|2:0,0:0:0:0:
344,120,10501,1,0,0:0:0:0:
344,120,10573,1,0,0:0:0:0:
344,120,10644,1,6,0:0:0:0:
284,192,10787,1,0,0:0:0:0:
400,48,10930,5,6,0:0:0:0:
228,100,11073,1,8,0:0:0:0:
396,225,11215,1,4,0:0:0:0:
188,344,11358,2,0,B|176:282|176:282|204:208,1,115.50000352478,10|0,0:0|2:0,0:0:0:0:
360,136,11644,1,0,0:0:0:0:
360,136,11715,1,0,0:0:0:0:
360,136,11787,1,10,0:0:0:0:
292,244,11930,1,0,0:0:0:0:
212,144,12073,5,6,0:0:0:0:
376,232,12215,1,4,0:0:0:0:
340,40,12358,1,8,0:0:0:0:
128,168,12501,2,0,L|0:152,1,115.50000352478,6|0,0:0|2:0,0:0:0:0:
24,324,12787,1,8,0:0:0:0:
152,340,12930,2,0,B|212:345|212:345|262:299,1,115.50000352478,6|0,0:0|2:0,0:0:0:0:
424,136,13215,37,6,0:0:0:0:
412,308,13358,1,10,0:0:0:0:
504,228,13501,1,4,0:0:0:0:
336,124,13644,2,2,B|292:116|292:116|264:124|240:172|244:212|272:248,1,173.250005287171,8|0,0:0|2:0,0:0:0:0:
200,264,13930,6,0,P|184:228|183:195,1,57.7500017623902,4|0,0:0|2:0,0:0:0:0:
56,80,14073,2,0,P|48:120|28:152,1,57.7500017623902,6|0,0:0|2:0,0:0:0:0:
44,296,14215,2,0,L|112:283,1,57.7500017623902,4|0,0:0|2:0,0:0:0:0:
335,312,14358,5,2,1:2:0:0:
384,316,14430,1,2,1:2:0:0:
424,296,14501,1,2,0:2:0:0:
440,252,14573,1,0,0:2:0:0:
428,208,14644,1,4,0:0:0:0:
388,184,14715,1,4,0:0:0:0:
367,247,14787,6,2,B|351:195|367:135|367:135|343:71|343:71|407:87,1,231.000007049561,6|8,0:0|0:0,0:0:0:0:
496,69,15215,2,0,B|445:99|445:99|384:81,1,115.50000352478,6|0,0:0|2:0,0:0:0:0:
154,165,15501,5,6,0:0:0:0:
368,248,15644,1,10,0:0:0:0:
391,83,15787,1,4,0:0:0:0:
319,159,15930,2,2,B|279:147|247:147|247:147|203:171|203:171|180:172|154:165,1,173.250005287171,8|0,0:0|2:0,0:0:0:0:
144,160,16215,1,4,0:0:0:0:
36,292,16358,2,0,B|88:296|120:304|120:304|143:285,1,115.50000352478,6|0,0:0|2:0,0:0:0:0:
400,192,16644,37,6,0:0:0:0:
320,304,16787,1,4,0:0:0:0:
320,304,16858,1,0,0:2:0:0:
320,304,16930,1,2,0:0:0:0:
256,168,17073,2,2,B|240:108|240:108|272:48,1,115.50000352478,6|0,0:0|2:3,0:0:0:0:
448,32,17358,1,8,0:0:0:0:
472,144,17501,2,2,B|488:204|488:204|456:264,1,115.50000352478,6|0,0:0|2:3,0:0:0:0:
320,304,17787,5,6,0:0:0:0:
180,224,17930,1,10,0:0:0:0:
24,264,18073,1,4,0:0:0:0:
162,329,18215,2,0,P|190:279|180:224,1,115.50000352478,10|0,0:0|2:0,0:0:0:0:
56,96,18501,5,8,0:0:0:0:
316,152,18644,1,4,0:0:0:0:
108,260,18787,1,4,0:0:0:0:
372,316,18930,5,4,0:0:0:0:
412,308,19001,1,4,0:0:0:0:
452,300,19073,1,4,0:0:0:0:
468,256,19144,1,4,0:0:0:0:
432,228,19215,1,4,0:0:0:0:
392,236,19287,1,4,0:0:0:0:
352,244,19358,1,4,0:0:0:0:
88,248,19644,5,0,2:0:0:0:
88,160,19787,2,0,P|120:152|160:160,1,52.5,8|0,0:2|0:0,0:0:0:0:
137,262,20073,2,0,P|101:255|77:238,1,52.5,8|0,0:2|0:0,0:0:0:0:
16,172,20358,2,0,P|14:146|25:122,1,52.5,8|0,0:2|0:0,0:0:0:0:
208,100,20644,37,8,0:2:0:0:
139,153,20787,1,8,0:2:0:0:
140,40,20930,1,8,0:2:0:0:
284,104,21073,1,0,2:2:0:0:
192,216,21215,2,0,P|168:228|136:232,1,52.5,8|0,0:2|0:0,0:0:0:0:
300,272,21501,2,0,P|324:284|356:288,1,52.5,8|0,0:2|0:0,0:0:0:0:
200,352,21787,1,8,0:2:0:0:
268,204,21930,5,0,2:0:0:0:
300,272,22073,1,8,0:2:0:0:
280,184,22215,1,0,2:2:0:0:
208,316,22358,1,8,0:2:0:0:
208,316,22501,1,8,0:2:0:0:
372,264,22644,2,0,L|432:256,1,52.5,8|0,0:2|0:0,0:0:0:0:
280,184,22930,5,8,0:2:0:0:
340,96,23073,1,8,0:2:0:0:
258,186,23215,1,8,0:2:0:0:
424,257,23358,1,0,2:2:0:0:
405,169,23501,2,0,L|352:175,1,52.5,8|0,0:2|0:0,0:0:0:0:
264,88,23787,2,0,P|268:56|292:28,1,52.5,8|0,0:2|0:0,0:0:0:0:
460,252,24073,69,0,1:0:0:0:
376,324,24215,1,2,2:2:0:0:
348,256,24358,1,10,1:2:0:0:
420,268,24501,5,2,1:2:0:0:
356,340,24644,1,10,1:2:0:0:
332,244,24787,1,2,1:2:0:0:
416,164,24930,5,10,1:2:0:0:
436,280,25073,1,2,0:2:0:0:
312,232,25215,1,10,0:2:0:0:
424,148,25358,1,2,0:2:0:0:
308,72,25501,6,0,L|256:92,1,52.5,10|2,0:2|0:2,0:0:0:0:
80,180,25787,2,0,L|140:204,1,62.9999980773926,10|2,0:2|0:2,0:0:0:0:
228,276,26073,2,0,P|252:244|248:200,1,78.7500030040742,10|2,0:2|0:2,0:0:0:0:
56,92,26358,5,0,1:0:0:0:
139,107,26501,1,2,1:2:0:0:
190,42,26644,1,10,1:2:0:0:
42,87,26787,37,2,1:2:0:0:
125,103,26930,1,10,1:2:0:0:
176,38,27073,1,2,1:2:0:0:
28,80,27215,5,10,1:2:0:0:
77,176,27358,1,2,1:2:0:0:
207,124,27501,54,0,P|238:111|272:108,1,68.2499968757631,8|0,1:0|2:0,1:0:0:0:
443,108,27644,2,0,P|439:142|420:178,1,68.2499968757631,8|0,1:0|2:0,1:0:0:0:
304,336,27787,2,0,L|287:266,1,68.2499968757631,8|0,1:0|2:0,1:0:0:0:
272,108,27930,2,0,P|312:108|344:120,1,68.2499968757631,8|0,1:0|2:0,1:0:0:0:
492,224,28073,1,8,0:0:0:0:
492,224,28144,2,0,P|467:247|434:257,2,68.2499968757631,8|0|0,1:0|1:1|2:0,1:0:0:0:
465,40,28358,1,8,0:0:0:0:
348,191,28501,70,0,B|304:188|270:201|270:201|218:191|218:191|170:211|170:211|141:188|108:192,1,251.999992309571,4|0,0:0|0:0,0:0:0:0:
32,84,28858,1,2,0:2:0:0:
40,76,28930,2,0,P|40:108|52:152,1,57.7500017623902,2|0,0:2|0:0,0:0:0:0:
112,268,29073,2,0,L|100:340,1,57.7500017623902
12,216,29215,5,2,0:2:0:0:
44,208,29287,1,2,0:2:0:0:
76,200,29358,1,2,0:2:0:0:
108,192,29430,1,2,0:2:0:0:
140,184,29501,1,2,0:2:0:0:
172,177,29573,1,2,0:2:0:0:
232,227,29644,38,0,B|280:231|308:211|308:211|340:244|376:248|436:240|448:172,1,231.000007049561,0|2,0:0|0:2,0:0:0:0:
416,52,30001,1,2,0:2:0:0:
404,59,30073,2,0,P|368:111|377:173,1,115.50000352478,2|0,0:2|0:0,0:0:0:0:
276,362,30358,5,2,0:2:0:0:
232,350,30430,1,2,0:2:0:0:
204,314,30501,1,2,0:2:0:0:
204,266,30573,1,2,0:2:0:0:
232,227,30644,1,2,0:2:0:0:
276,211,30715,1,2,0:2:0:0:
343,268,30787,2,0,B|302:271|274:289|274:289|348:276|380:308|380:308|420:312|452:284,1,231.000007049561,0|2,0:0|0:2,0:0:0:0:
488,196,31144,5,2,0:2:0:0:
496,188,31215,2,0,P|500:118|467:69,1,115.50000352478,2|2,0:2|0:2,0:0:0:0:
324,28,31430,1,2,0:2:0:0:
312,33,31501,2,0,P|262:72|247:133,1,115.50000352478,2|0,0:2|0:2,0:0:0:0:
228,304,31787,5,8,0:0:0:0:
26,327,31930,2,0,B|74:280|126:263|126:263|190:271|228:304,1,231.000007049561,8|0,0:0|0:0,0:0:0:0:
416,244,32358,1,4,0:0:0:0:
416,244,32430,1,4,0:0:0:0:
416,244,32501,1,4,0:0:0:0:
328,124,32644,6,0,L|190:139,1,115.50000352478,4|4,0:0|0:0,0:0:0:0:
176,156,32858,1,0,0:0:0:0:
144,180,32930,1,4,0:0:0:0:
111,204,33001,1,4,0:0:0:0:
76,228,33073,38,0,P|6:156|48:67,1,210,4|0,0:2|1:0,0:0:0:0:
204,31,33501,2,0,P|207:83|213:136,1,105,8|0,0:0|2:0,0:0:0:0:
278,303,33787,5,0,0:0:0:0:
94,342,33930,1,0,0:0:0:0:
260,212,34073,1,8,0:0:0:0:
76,252,34215,2,0,B|176:264|176:264|280:304,1,210,4|0,0:2|0:0,0:0:0:0:
404,196,34644,2,0,P|407:144|390:95,1,105,8|0,0:0|2:0,0:0:0:0:
200,120,34930,5,2,0:2:0:0:
164,112,35001,1,2,0:2:0:0:
128,104,35073,1,2,0:2:0:0:
160,84,35144,1,2,0:2:0:0:
192,68,35215,1,2,0:2:0:0:
224,52,35287,1,2,0:2:0:0:
256,36,35358,38,2,B|272:104|328:136|328:136|280:160|268:200,1,204.749990627289,2|0,0:0|2:0,0:0:0:0:
232,248,35644,2,0,P|208:228|204:176,1,68.2499968757631,2|0,2:2|2:0,0:0:0:0:
20,328,35787,2,0,B|52:348|52:348|100:320|156:336,1,136.499993751526,2|2,0:0|0:2,0:0:0:0:
248,324,36001,1,2,0:2:0:0:
248,324,36073,2,0,P|276:312|304:272,1,68.2499968757631,2|0,0:0|2:0,0:0:0:0:
367,204,36215,2,0,P|398:200|432:218,1,68.2499968757631,2|0,0:0|2:0,0:0:0:0:
500,141,36358,5,2,0:2:0:0:
500,141,36430,1,2,0:2:0:0:
500,141,36501,2,2,B|472:144|458:149|458:149|439:137|407:123|370:125|330:141|330:141|306:119,1,204.749990627289,2|0,0:0|2:0,0:0:0:0:
192,84,36787,1,2,0:2:0:0:
192,84,36858,1,2,0:2:0:0:
192,84,36930,2,0,B|152:112|102:108|102:108|135:129|144:150,1,136.499993751526,2|2,0:0|2:2,0:0:0:0:
292,272,37215,37,4,0:0:0:0:
296,277,37287,1,4,0:0:0:0:
300,281,37358,1,4,0:0:0:0:
304,285,37430,1,4,0:0:0:0:
308,289,37501,21,4,0:0:0:0:
236,312,37573,1,4,0:0:0:0:
164,332,37644,1,4,0:0:0:0:
28,152,37930,53,4,0:0:0:0:
116,96,38073,85,8,0:1:0:0:
208,144,38215,5,4,0:0:0:0:
204,164,38287,1,0,0:0:0:0:
200,184,38358,1,0,0:0:0:0:
196,204,38430,1,0,0:0:0:0:
192,224,38501,1,0,0:0:0:0:
156,88,38644,85,8,0:1:0:0:
272,204,38787,5,0,0:0:0:0:
352,180,38930,1,0,0:0:0:0:
432,156,39073,1,0,0:3:0:0:
196,80,39215,85,8,0:1:0:0:
76,232,39358,5,4,0:0:0:0:
68,212,39430,1,0,0:0:0:0:
60,192,39501,1,0,0:0:0:0:
64,172,39573,1,0,0:0:0:0:
72,152,39644,1,0,0:0:0:0:
236,72,39787,85,8,0:1:0:0:
236,72,39858,1,8,0:1:0:0:
236,72,39930,1,0,0:1:0:0:
220,200,40073,5,0,0:0:0:0:
136,192,40215,1,0,0:0:0:0:
276,64,40358,85,8,0:1:0:0:
392,168,40501,5,4,0:0:0:0:
397,188,40573,1,0,0:0:0:0:
402,209,40644,1,0,0:0:0:0:
407,230,40715,1,0,0:0:0:0:
413,251,40787,1,0,0:0:0:0:
316,56,40930,85,8,0:1:0:0:
304,208,41073,5,0,0:0:0:0:
220,200,41215,1,0,0:0:0:0:
136,192,41358,1,0,0:0:0:0:
356,48,41501,85,8,0:1:0:0:
472,168,41644,5,4,0:0:0:0:
468,188,41715,1,4,0:0:0:0:
464,208,41787,1,4,0:0:0:0:
460,228,41858,1,4,0:0:0:0:
432,304,41930,5,0,1:0:0:0:
380,292,42001,1,0,1:0:0:0:
328,280,42073,1,0,1:0:0:0:
276,268,42144,1,0,1:0:0:0:
224,256,42215,2,0,B|184:280|144:272|144:272|84:316|84:316|96:240,1,210,4|0,1:0|0:0,0:0:0:0:
72,152,42644,2,0,P|55:101|70:47,1,105,2|0,1:2|2:0,0:0:0:0:
244,88,42930,5,2,0:2:0:0:
160,144,43073,2,0,B|140:92|140:92|156:44,1,105,0|0,0:0|1:0,0:0:0:0:
438,63,43358,2,0,B|389:99|324:113|324:113|244:88,1,210,2|0,0:2|0:0,0:0:0:0:
244,88,43787,6,0,L|248:156,1,52.5,0|0,1:0|2:3,0:0:0:0:
358,174,43930,2,0,L|354:226,1,52.5,0|0,1:0|2:0,0:0:0:0:
476,252,44073,1,2,0:2:0:0:
480,260,44144,1,2,0:2:0:0:
484,268,44215,1,2,0:2:0:0:
352,336,44358,37,0,1:0:0:0:
251,241,44501,2,0,B|235:191|235:191|247:139,1,105,2|0,0:2|2:0,0:0:0:0:
444,144,44787,1,2,0:2:0:0:
444,144,44858,1,2,0:2:0:0:
444,144,44930,1,0,1:2:0:0:
379,259,45073,1,0,0:0:0:0:
488,308,45215,5,2,0:2:0:0:
251,241,45358,1,2,0:2:0:0:
468,116,45501,1,0,1:2:0:0:
367,257,45644,2,2,P|314:250|255:241,1,105,2|0,0:2|2:0,0:2:0:0:
60,156,45930,5,2,0:2:0:0:
77,144,46001,1,2,0:2:0:0:
93,132,46073,2,0,L|159:148,1,52.5,0|0,1:2|2:2,1:2:0:0:
253,165,46215,1,0,1:0:0:0:
277,19,46358,5,2,0:2:0:0:
257,25,46429,1,2,0:2:0:0:
238,32,46501,2,0,L|244:97,1,52.5,0|0,1:2|2:2,1:2:0:0:
263,242,46644,1,0,1:0:0:0:
264,251,46715,1,0,1:0:0:0:
265,261,46787,1,4,1:0:0:0:
424,248,47073,5,0,0:1:0:0:
360,32,47215,1,8,0:1:0:0:
444,120,47358,1,0,0:0:0:0:
444,120,47430,1,0,0:0:0:0:
444,120,47501,2,0,L|435:171,1,52.5
414,328,47644,1,0,0:0:0:0:
252,196,47787,37,8,0:1:0:0:
424,248,47930,1,8,0:1:0:0:
224,336,48073,1,0,0:0:0:0:
352,280,48215,1,0,0:1:0:0:
172,192,48357,1,8,0:1:0:0:
312,100,48500,5,0,0:0:0:0:
312,100,48572,1,0,0:0:0:0:
312,100,48643,2,0,L|377:110,1,52.5
512,124,48786,1,0,0:0:0:0:
414,328,48929,5,8,0:1:0:0:
324,208,49073,1,8,0:1:0:0:
328,200,49144,1,0,0:0:0:0:
332,192,49215,1,0,0:0:0:0:
236,84,49358,1,0,0:1:0:0:
124,264,49501,1,8,0:1:0:0:
24,156,49644,5,0,0:0:0:0:
35,157,49715,1,0,0:0:0:0:
47,158,49787,2,0,L|110:165,1,52.5
236,176,49930,1,0,0:0:0:0:
44,276,50073,5,0,1:1:0:0:
280,344,50215,1,0,1:1:0:0:
124,264,50358,1,0,0:0:0:0:
312,184,50501,1,0,0:0:0:0:
76,120,50644,1,8,1:0:0:0:
200,252,50787,37,0,0:0:0:0:
200,252,50858,1,0,0:0:0:0:
200,252,50930,2,0,L|275:240,1,62.9999980773926,0|0,1:1|2:0,0:0:0:0:
461,283,51073,2,0,P|493:231|473:163,1,125.999996154785,4|0,1:0|2:0,0:0:0:0:
360,28,51358,6,0,L|356:160,1,105,4|0,2:2|2:0,0:0:0:0:
351,320,51644,1,0,0:0:0:0:
461,283,51787,2,0,B|386:261|306:293|306:293|376:334,1,210,8|0,0:0|0:0,0:0:0:0:
416,352,52144,1,0,0:0:0:0:
416,352,52215,1,0,0:0:0:0:
216,256,52358,1,8,0:0:0:0:
344,168,52501,2,0,B|420:160|484:196|484:196|504:160|488:124,1,210,4|0,0:2|0:0,0:0:0:0:
340,48,52930,2,0,P|282:56|224:64,1,105,8|0,0:0|2:0,0:0:0:0:
48,84,53215,6,0,L|40:152,1,52.5,8|0,0:0|0:0,0:0:0:0:
156,148,53358,2,0,L|149:200,1,52.5,8|0,0:0|0:0,0:0:0:0:
264,212,53501,2,0,L|256:280,1,52.5,8|0,0:0|0:0,0:0:0:0:
424,328,53644,1,4,2:2:0:0:
424,328,53930,5,8,0:0:0:0:
192,236,54073,1,0,0:0:0:0:
372,132,54215,5,8,0:0:0:0:
136,224,54358,1,0,0:0:0:0:
348,308,54501,37,8,0:0:0:0:
84,212,54644,1,0,0:0:0:0:
420,76,54787,1,8,0:0:0:0:
127,261,54930,69,8,0:0:0:0:
111,269,55001,1,8,0:0:0:0:
91,277,55073,2,0,L|83:205,1,65.625
304,44,55215,5,8,0:0:0:0:
320,36,55286,1,8,0:0:0:0:
340,28,55358,2,0,L|348:100,1,65.625
376,324,55501,1,8,0:1:0:0:
384,332,55787,5,4,2:2:0:0:
256,192,55930,6,0,L|267:74,1,115.50000352478,0|0,0:2|2:0,0:0:0:0:
448,212,56215,1,2,0:2:0:0:
452,216,56287,1,2,0:2:0:0:
456,220,56358,1,8,1:1:0:0:
284,288,56501,1,0,0:0:0:0:
469,340,56644,2,0,P|465:282|462:225,1,115.50000352478,0|0,0:2|0:0,0:0:0:0:
260,280,56930,5,4,2:0:0:0:
132,140,57073,2,0,L|143:22,1,115.50000352478,0|0,1:0|2:0,0:0:0:0:
324,160,57358,1,2,0:2:0:0:
328,164,57430,1,2,0:2:0:0:
332,168,57501,1,8,0:1:0:0:
152,236,57644,1,0,0:0:0:0:
348,289,57787,2,0,P|343:231|340:173,1,115.50000352478
40,168,58073,69,8,0:1:0:0:
152,236,58215,2,0,P|209:231|267:228,1,115.50000352478,4|0,0:2|2:0,0:0:0:0:
436,216,58501,37,2,0:2:0:0:
204,324,58644,1,0,0:0:0:0:
384,220,58787,1,2,0:2:0:0:
184,148,58930,1,2,0:2:0:0:
392,32,59073,2,0,P|395:89|399:147,1,115.50000352478,2|0,0:2|0:0,0:0:0:0:
360,340,59358,5,2,0:2:0:0:
320,352,59429,1,2,0:2:0:0:
280,348,59501,1,2,0:2:0:0:
64,260,59644,37,2,0:2:0:0:
72,220,59715,1,2,0:2:0:0:
97,187,59787,1,2,0:2:0:0:
256,36,59930,5,2,0:2:0:0:
286,64,60001,1,2,0:2:0:0:
302,102,60073,1,2,0:2:0:0:
200,248,60215,5,8,0:0:0:0:
188,260,60287,1,8,0:0:0:0:
176,272,60358,1,8,0:0:0:0:
164,284,60430,1,8,0:0:0:0:
152,296,60501,6,0,B|212:296|264:312|264:312|336:280,1,173.250005287171,0|0,0:0|2:0,0:0:0:0:
332,280,60787,1,4,0:0:0:0:
488,160,60930,2,0,B|428:144|428:144|360:172,1,115.50000352478,8|0,0:0|2:0,0:0:0:0:
240,224,61215,5,8,0:0:0:0:
424,264,61358,1,8,0:0:0:0:
308,96,61501,1,4,0:0:0:0:
152,176,61644,2,0,P|104:180|24:188,1,115.50000352478,0|0,0:0|2:0,0:0:0:0:
80,80,61930,1,4,0:0:0:0:
240,224,62073,2,0,P|288:220|368:212,1,115.50000352478,8|0,0:0|2:0,0:0:0:0:
360,56,62358,1,8,0:0:0:0:
360,56,62430,1,8,0:0:0:0:
360,56,62501,1,8,0:0:0:0:
349,299,62644,37,4,0:2:0:0:
502,212,62787,2,6,B|444:215|410:238|410:238|354:214|354:214|299:234|240:224,1,272.999987503052,2|2,0:0|0:0,0:0:0:0:
72,88,63215,1,6,0:0:0:0:
72,88,63358,1,4,0:0:0:0:
354,215,63501,5,10,0:0:0:0:
120,268,63644,1,6,0:0:0:0:
384,120,63787,1,8,0:0:0:0:
140,44,63930,2,0,P|111:92|112:149,1,115.50000352478,6|0,0:0|2:0,0:0:0:0:
216,344,64215,1,6,0:0:0:0:
344,262,64358,5,0,0:3:0:0:
324,218,64429,1,0,0:3:0:0:
288,190,64501,1,0,0:3:0:0:
244,182,64572,1,0,0:3:0:0:
196,186,64644,1,4,0:3:0:0:
152,206,64715,1,4,0:3:0:0:
108,214,64787,1,4,0:3:0:0:
64,202,64858,1,4,0:3:0:0:
36,166,64930,1,4,0:3:0:0:
32,122,65001,1,4,0:3:0:0:
61,83,65073,6,0,B|94:94|120:91|120:91|169:115|169:115|192:112|223:92,1,173.250005287171,4|0,0:2|2:0,0:0:0:0:
223,92,65358,1,0,0:0:0:0:
428,216,65501,2,0,P|370:217|296:220,1,115.50000352478,8|2,0:0|0:2,0:0:0:0:
225,199,65715,1,2,0:2:0:0:
225,199,65787,2,0,P|205:145|223:91,1,115.50000352478,2|0,0:2|0:0,0:0:0:0:
328,296,66073,5,8,0:1:0:0:
451,139,66215,2,0,B|328:132|328:132|280:144,1,173.250005287171,4|0,0:2|2:0,0:0:0:0:
280,144,66501,1,0,0:0:0:0:
75,267,66644,2,0,P|133:268|207:271,1,115.50000352478,8|2,0:0|0:2,0:0:0:0:
278,251,66858,1,2,0:2:0:0:
278,251,66930,2,0,P|297:197|279:143,1,115.50000352478,2|0,0:2|0:0,0:0:0:0:
156,344,67215,37,4,0:2:0:0:
76,184,67358,2,0,P|81:121|84:64,1,115.50000352478,0|0,0:2|2:0,0:0:0:0:
280,64,67644,1,2,0:2:0:0:
172,168,67787,1,2,0:2:0:0:
336,260,67930,1,0,0:2:0:0:
144,328,68073,2,0,L|20:316,1,115.50000352478,2|2,0:2|0:2,0:2:0:0:
20,308,68287,1,2,0:2:0:0:
12,300,68358,1,8,0:1:0:0:
172,168,68501,2,0,B|220:164|252:188|252:188|276:180|296:160|296:160|265:135|265:135|248:188,1,204.749990627289,4|0,0:2|2:0,0:0:0:0:
204,96,68787,5,0,0:0:0:0:
204,96,68858,1,0,0:0:0:0:
204,96,68930,2,0,P|161:94|120:112,1,68.2499968757631
116,220,69073,2,0,P|148:240|180:244,1,68.2499968757631
316,264,69215,2,0,B|420:280|420:280|444:224,1,136.499993751526,4|8,0:2|0:0,0:0:0:0:
460,124,69430,1,8,0:0:0:0:
460,124,69501,1,8,0:0:0:0:
460,124,69573,1,8,0:0:0:0:
460,124,69644,6,0,B|403:129|371:153|371:153|323:129|323:129|276:144|227:117,1,231.000007049561,4|0,0:2|0:0,0:0:0:0:
96,288,70073,2,0,B|156:301|156:301|205:274,1,115.50000352478,8|0,0:0|2:0,0:0:0:0:
368,172,70358,1,0,0:0:0:0:
144,212,70501,1,0,0:0:0:0:
316,88,70644,6,0,P|373:93|430:99,1,115.50000352478,2|0,0:1|2:0,0:0:0:0:
196,296,70930,2,0,P|139:291|82:285,1,115.50000352478,2|0,0:1|2:0,0:0:0:0:
36,128,71215,2,0,L|44:48,3,57.7500017623902,2|0|0|0,0:0|0:0|0:0|0:0,0:0:0:0:
128,40,71501,1,2,0:0:0:0:
156,52,71573,1,0,0:0:0:0:
184,64,71644,1,0,0:0:0:0:
212,76,71715,1,0,0:0:0:0:
240,88,71787,2,0,L|304:76,1,57.7500017623902,2|0,0:0|0:0,0:0:0:0:
416,52,71930,6,0,B|440:100|440:100|432:164,1,115.50000352478,2|0,0:0|2:0,0:0:0:0:
364,304,72215,1,8,0:0:0:0:
236,204,72358,2,0,B|296:196|296:196|354:215,1,115.50000352478,8|0,0:0|2:0,0:0:0:0:
468,260,72644,37,8,0:0:0:0:
288,272,72787,1,8,0:0:0:0:
464,344,72930,1,0,0:0:0:0:
348,213,73073,2,0,B|330:130|330:130|352:100,1,115.50000352478,8|0,0:0|2:0,0:0:0:0:
484,124,73358,5,8,0:0:0:0:
484,124,73430,1,0,0:0:0:0:
484,124,73501,2,0,L|404:108,1,57.7500017623902,8|0,0:0|2:0,0:0:0:0:
260,184,73644,2,0,L|180:168,1,57.7500017623902,8|0,0:0|2:0,0:0:0:0:
32,144,73787,5,0,0:0:0:0:
36,180,73858,1,0,0:0:0:0:
40,216,73930,1,0,0:0:0:0:
68,240,74001,5,0,0:0:0:0:
72,276,74072,1,0,0:0:0:0:
76,312,74144,1,0,0:0:0:0:
140,356,74215,5,4,0:0:0:0:
179,130,92787,37,0,2:0:0:0:
164,260,92930,2,0,L|172:184,1,52.5,8|0,1:2|1:0,0:0:0:0:
64,72,93215,2,0,P|90:73|113:85,1,52.5,8|0,1:2|1:0,0:0:0:0:
256,140,93501,1,8,0:2:0:0:
256,140,93644,1,8,0:2:0:0:
152,336,93787,5,8,0:2:0:0:
56,272,93930,1,8,1:2:0:0:
52,264,94001,1,8,0:2:0:0:
48,256,94073,1,8,1:2:0:0:
120,180,94215,1,0,2:2:0:0:
162,284,94358,2,0,L|151:335,1,52.5,8|0,0:2|1:0,0:0:0:0:
205,211,94644,2,0,P|255:198|304:216,1,105,8|8,0:2|0:2,0:0:0:0:
452,288,95073,5,0,2:0:0:0:
468,200,95215,1,8,0:2:0:0:
428,120,95358,1,0,2:0:0:0:
304,216,95501,5,8,0:2:0:0:
452,200,95644,1,8,0:2:0:0:
292,217,95787,2,0,L|239:223,1,52.5,8|0,0:2|0:0,0:0:0:0:
32,132,96073,5,8,0:2:0:0:
164,188,96215,1,8,0:2:0:0:
164,188,96287,1,8,0:2:0:0:
164,188,96358,1,8,0:2:0:0:
168,44,96501,1,0,2:2:0:0:
32,148,96644,38,0,L|40:216,1,52.5,8|0,0:2|0:0,0:0:0:0:
164,108,96930,2,0,L|168:52,1,52.5,8|0,0:2|0:0,0:0:0:0:
432,176,97215,53,0,0:0:0:0:
324,224,97358,1,2,0:2:0:0:
380,76,97501,1,10,0:2:0:0:
440,190,97644,53,2,0:2:0:0:
330,234,97787,1,10,0:2:0:0:
391,88,97930,1,2,0:2:0:0:
447,205,98073,5,10,0:2:0:0:
336,245,98216,1,2,0:2:0:0:
402,102,98359,1,10,0:2:0:0:
454,220,98501,5,2,0:2:0:0:
356,336,98644,1,10,0:2:0:0:
344,332,98715,1,2,0:2:0:0:
332,328,98787,1,2,0:2:0:0:
324,324,98858,1,2,0:2:0:0:
316,320,98930,1,10,0:2:0:0:
308,316,99001,1,2,0:2:0:0:
300,312,99073,1,2,0:2:0:0:
288,308,99144,1,2,0:2:0:0:
280,304,99215,2,0,L|264:232,1,52.5,10|8,0:2|0:2,0:0:0:0:
188,184,99430,5,8,0:2:0:0:
180,176,99501,2,0,L|188:112,1,52.5,8|0,1:2|0:2,0:0:0:0:
116,28,99787,2,0,P|92:48|76:80,1,52.5,8|0,1:2|1:2,1:2:0:0:
16,176,100073,1,8,0:2:0:0:
16,176,100144,2,0,P|59:169|92:152,1,62.9999980773926,8|8,0:2|0:2,0:0:0:0:
88,156,100358,1,8,0:2:0:0:
4,268,100501,1,8,0:2:0:0:
128,332,100644,6,0,L|136:260,1,68.2499968757631,8|0,1:0|2:0,1:0:0:0:
244,176,100787,2,0,B|288:176|288:176|309:188,1,68.2499968757631,8|0,1:0|2:0,1:0:0:0:
440,352,100930,2,0,B|396:352|396:352|374:339,1,68.2499968757631,8|0,1:0|2:0,1:0:0:0:
236,243,101073,2,0,L|244:176,1,68.2499968757631,8|0,1:0|2:0,1:0:0:0:
264,28,101215,1,0,0:0:0:0:
264,28,101287,1,0,0:0:0:0:
264,28,101358,1,0,0:0:0:0:
440,232,101501,85,2,2:0:0:0:
222,103,101644,70,0,B|186:87|186:87|138:95|138:95|122:67|62:31|20:32|-14:99|5:142|86:143|110:115,1,315.000012016297,4|0,0:0|0:0,0:0:0:0:
148,212,102001,1,0,0:0:0:0:
161,211,102073,2,0,L|252:196,1,57.7500017623902
382,240,102215,2,0,L|440:232,1,57.7500017623902
340,80,102358,5,2,0:2:0:0:
327,117,102430,1,2,0:2:0:0:
316,151,102501,1,2,0:2:0:0:
303,189,102573,1,2,0:2:0:0:
292,223,102644,2,0,P|292:184|280:152,1,57.7500017623902,2|0,0:2|0:0,0:0:0:0:
264,48,102787,2,0,B|237:52|220:45|220:45|196:81|196:81|151:78|114:112|114:112|120:76|100:24,1,231.000007049561
36,56,103144,1,2,0:2:0:0:
43,80,103215,1,2,0:2:0:0:
43,104,103286,1,2,0:2:0:0:
35,128,103358,1,2,0:2:0:0:
16,200,103429,5,0,0:0:0:0:
12,244,103501,1,0,0:0:0:0:
24,288,103572,1,0,0:0:0:0:
56,316,103643,1,0,0:0:0:0:
100,328,103715,1,0,0:0:0:0:
144,324,103786,1,0,0:0:0:0:
188,308,103858,1,0,0:0:0:0:
216,276,103930,2,0,B|256:244|260:176|260:176|276:224|333:238|333:238|288:296,1,231.000007049561
368,304,104287,37,0,0:0:0:0:
384,288,104358,2,0,P|401:255|396:204,1,57.7500017623902,8|0,0:0|2:0,0:0:0:0:
484,168,104501,2,0,P|467:135|422:109,1,57.7500017623902,8|0,0:0|2:0,0:0:0:0:
332,48,104644,1,2,0:2:0:0:
332,48,104715,1,2,0:2:0:0:
332,48,104787,1,2,0:2:0:0:
232,204,104930,5,8,0:0:0:0:
32,112,105073,2,0,B|160:80|160:80|152:124,1,173.250005287171,8|0,0:0|2:0,0:0:0:0:
237,146,105358,1,2,0:2:0:0:
237,146,105430,1,2,0:2:0:0:
237,146,105501,2,0,L|230:221,1,57.7500017623902,2|0,0:2|2:0,0:0:0:0:
212,356,105644,1,2,0:2:0:0:
436,316,105787,2,0,P|464:260|416:176,1,115.50000352478
376,228,106001,5,0,0:2:0:0:
324,244,106073,1,0,0:2:0:0:
276,260,106144,1,0,0:2:0:0:
224,276,106215,2,0,B|176:288|144:272|144:272|100:272|56:292|56:292|80:228,1,210,4|0,0:2|0:0,0:0:0:0:
104,40,106644,2,0,L|124:164,1,105,8|0,0:0|2:0,0:0:0:0:
152,352,106930,5,0,0:0:0:0:
272,160,107073,1,0,0:0:0:0:
80,244,107215,1,8,0:0:0:0:
248,280,107358,2,0,B|308:264|376:284|376:284|344:316,1,157.5,4|0,0:2|2:0,0:0:0:0:
349,310,107644,5,0,0:0:0:0:
464,260,107787,2,0,P|484:208|452:152,1,105,8|0,0:0|2:0,0:0:0:0:
383,56,108073,1,0,0:0:0:0:
383,56,108144,1,0,0:0:0:0:
383,56,108215,1,0,0:0:0:0:
220,228,108358,1,8,0:0:0:0:
240,59,108501,6,2,B|274:23|274:23|317:17|317:17|300:52|312:88|312:88|282:120|279:161|303:208,1,272.999987503052,2|0,0:0|0:0,0:0:0:0:
188,308,108930,2,0,B|132:300|88:320|88:320|52:272,1,136.499993751526,2|2,0:0|0:2,0:0:0:0:
24,232,109144,1,2,0:2:0:0:
24,232,109215,2,0,P|55:220|89:222,1,68.2499968757631,2|0,0:1|2:0,0:0:0:0:
294,187,109358,2,0,P|285:148|252:119,1,68.2499968757631,2|0,0:1|2:0,0:0:0:0:
60,76,109501,5,2,0:2:0:0:
60,76,109573,1,2,0:2:0:0:
60,76,109644,2,2,B|110:87|144:60|144:60|200:80|200:80|236:56|280:52|280:52|344:84,1,272.999987503052,2|2,0:0|0:2,0:0:0:0:
448,208,110001,1,0,0:2:0:0:
448,208,110073,2,0,B|470:233|470:233|460:128,1,136.499993751526,2|2,0:0|2:0,0:0:0:0:
266,127,110358,37,4,0:0:0:0:
234,147,110430,1,4,0:0:0:0:
202,131,110501,1,4,0:0:0:0:
174,155,110573,1,4,0:0:0:0:
142,139,110645,1,4,0:0:0:0:
118,163,110716,1,4,0:0:0:0:
84,152,110787,2,0,B|52:276|52:276|8:220,1,157.5,4|0,0:0|2:0,0:0:0:0:
24,244,111073,5,0,0:0:0:0:
216,320,111215,1,8,0:1:0:0:
96,328,111358,1,0,0:0:0:0:
96,328,111430,1,0,0:0:0:0:
96,328,111501,1,0,0:0:0:0:
96,328,111573,1,0,0:0:0:0:
96,328,111644,2,0,P|108:295|128:272,1,52.5,0|0,0:0|2:0,0:0:0:0:
216,164,111787,1,8,0:1:0:0:
344,208,111930,5,0,0:0:0:0:
348,224,112001,1,0,0:0:0:0:
352,240,112073,1,0,0:0:0:0:
456,316,112215,1,0,0:0:0:0:
272,284,112358,1,8,0:1:0:0:
416,200,112501,37,0,0:0:0:0:
412,184,112572,1,0,0:0:0:0:
408,168,112644,1,0,0:0:0:0:
404,152,112715,1,0,0:0:0:0:
400,136,112787,2,0,L|352:116,1,52.5,0|0,0:0|2:0,0:0:0:0:
184,76,112930,1,8,0:1:0:0:
64,192,113073,5,0,0:0:0:0:
80,196,113144,1,0,0:0:0:0:
96,200,113215,1,0,0:0:0:0:
208,228,113358,1,0,0:0:0:0:
36,296,113501,1,8,0:1:0:0:
100,128,113644,5,0,0:0:0:0:
116,132,113715,1,0,0:0:0:0:
132,136,113786,1,0,0:0:0:0:
148,140,113858,1,0,0:0:0:0:
164,144,113930,2,0,L|240:128,1,52.5,0|0,0:0|2:0,0:0:0:0:
400,88,114073,1,8,0:1:0:0:
440,228,114215,5,4,0:3:0:0:
424,240,114287,1,0,0:0:0:0:
408,252,114358,1,0,0:0:0:0:
268,324,114501,5,4,0:3:0:0:
256,308,114573,1,0,0:0:0:0:
244,292,114644,1,8,0:1:0:0:
64,272,114787,37,4,0:3:0:0:
71,253,114859,1,0,0:0:0:0:
79,234,114930,1,0,0:0:0:0:
86,216,115001,1,0,0:0:0:0:
160,200,115073,5,0,1:0:0:0:
236,188,115144,1,0,1:0:0:0:
312,176,115215,1,0,1:0:0:0:
392,164,115287,1,0,1:0:0:0:
335,84,115358,2,0,B|287:36|287:36|315:196,1,210,4|0,1:0|0:0,0:0:0:0:
276,344,115787,2,0,P|220:356|180:332,1,105,0|2,1:0|1:2,0:0:0:0:
88,300,116001,5,2,0:2:0:0:
88,300,116073,2,0,L|92:232,1,52.5,2|0,0:2|2:0,0:0:0:0:
112,72,116215,1,2,0:2:0:0:
32,172,116358,1,0,1:0:0:0:
240,108,116501,2,0,B|292:88|328:108|328:108|376:80|376:80|408:80|448:108,1,210,2|2,0:2|1:2,0:0:0:0:
482,177,116858,5,2,0:2:0:0:
482,177,116930,2,0,P|448:188|422:184,1,52.5,0|0,1:0|2:0,0:0:0:0:
249,241,117073,2,0,P|281:246|316:271,1,52.5,0|0,1:0|2:0,0:0:0:0:
440,324,117215,5,2,0:2:0:0:
456,320,117287,1,2,0:2:0:0:
472,316,117358,1,2,0:2:0:0:
356,192,117501,1,0,1:2:0:0:
184,288,117644,2,0,P|128:296|81:255,1,105,2|0,0:2|2:0,0:0:0:0:
32,164,117930,1,2,0:2:0:0:
120,56,118073,38,0,P|134:73|144:132,1,52.5,0|0,1:0|2:0,0:0:0:0:
231,213,118215,2,0,P|239:188|256:168,1,52.5,0|0,1:0|2:0,0:0:0:0:
387,79,118358,5,2,0:2:0:0:
403,83,118430,1,2,0:2:0:0:
419,87,118501,1,2,0:2:0:0:
492,204,118644,1,0,1:1:0:0:
380,284,118787,1,2,0:2:0:0:
364,280,118859,1,2,0:2:0:0:
348,276,118930,1,2,0:2:0:0:
256,168,119073,1,0,0:0:0:0:
128,40,119215,6,0,P|116:64|112:112,1,52.5,2|0,1:2|2:0,0:0:0:0:
32,180,119358,2,0,P|37:205|49:229,1,52.5,2|0,1:2|2:0,0:0:0:0:
168,336,119501,1,8,1:0:0:0:
168,336,119573,1,8,1:0:0:0:
168,336,119644,1,8,1:0:0:0:
168,336,119715,1,8,1:0:0:0:
168,336,119787,1,8,1:0:0:0:
168,336,119858,1,8,1:0:0:0:
168,336,119930,2,0,B|203:334|223:318|223:318|284:340|284:340|336:336|368:276,1,210,4|0,1:0|0:0,0:0:0:0:
233,209,120358,6,0,L|136:268,1,105,8|0,0:1|0:0,0:0:0:0:
144,264,120573,1,0,0:0:0:0:
144,264,120644,1,0,0:0:0:0:
144,264,120715,1,0,0:0:0:0:
144,264,120787,1,0,0:0:0:0:
8,244,120930,6,0,L|80:256,1,52.5,8|0,0:1|2:0,0:0:0:0:
344,284,121073,1,0,0:0:0:0:
344,284,121215,1,0,0:0:0:0:
344,284,121358,1,0,0:0:0:0:
356,172,121501,38,0,L|368:64,1,105,8|0,0:1|0:0,0:0:0:0:
368,68,121716,1,0,0:0:0:0:
368,68,121787,1,0,0:0:0:0:
368,68,121858,1,0,0:0:0:0:
368,68,121930,1,0,0:0:0:0:
500,48,122073,6,0,L|428:60,1,52.5,8|0,0:1|2:0,0:0:0:0:
144,100,122216,1,0,0:0:0:0:
144,100,122358,1,0,0:0:0:0:
144,100,122501,1,0,0:0:0:0:
68,40,122644,6,0,L|54:149,1,105,8|0,0:1|0:0,0:0:0:0:
54,144,122858,1,0,0:0:0:0:
54,144,122930,1,0,0:0:0:0:
54,144,123001,1,0,0:0:0:0:
54,144,123073,1,0,0:0:0:0:
64,304,123215,6,0,P|115:309|157:280,1,105,8|0,0:1|2:0,0:0:0:0:
201,261,123429,1,0,0:0:0:0:
249,261,123501,1,0,0:0:0:0:
293,281,123572,1,0,0:0:0:0:
317,321,123644,1,0,0:0:0:0:
492,264,123787,2,0,P|432:232|372:252,1,105,8|0,0:1|2:0,0:0:0:0:
316,208,124001,5,0,0:0:0:0:
316,208,124073,2,0,L|308:120,1,62.9999980773926,0|0,1:0|2:0,0:0:0:0:
380,36,124215,2,0,L|392:184,1,125.999996154785,4|0,1:0|2:0,0:0:0:0:
372,340,124501,38,0,B|256:308|256:308|152:336,1,210,4|0,0:2|0:0,0:0:0:0:
112,272,124858,1,0,0:0:0:0:
112,272,124930,2,0,L|228:240,1,105,0|0,0:0|2:0,0:0:0:0:
436,176,125215,5,0,0:2:0:0:
436,176,125287,1,0,0:2:0:0:
436,176,125358,1,0,0:2:0:0:
216,116,125501,1,0,0:0:0:0:
356,40,125644,2,0,B|380:92|380:92|356:176|356:176|380:260,1,210,4|0,0:2|0:0,0:0:0:0:
308,336,126073,2,0,P|264:312|204:308,1,105,0|0,0:0|2:0,0:0:0:0:
55,255,126358,5,8,0:0:0:0:
59,247,126430,1,8,0:0:0:0:
63,239,126501,1,8,0:0:0:0:
67,231,126573,1,8,0:0:0:0:
71,223,126644,1,8,0:0:0:0:
75,215,126715,1,8,0:0:0:0:
79,207,126787,6,2,L|183:223,1,105,2|2,2:1|0:2,0:0:0:0:
183,223,127215,1,0,2:1:0:0:
329,161,127358,5,2,0:1:0:0:
432,145,127501,2,2,L|328:161,1,105,0|2,2:1|0:1,0:1:0:0:
100,68,127930,38,0,B|176:56|176:56|272:92|272:92|396:72,1,272.999987503052,4|0,0:0|1:0,0:0:0:0:
432,145,128287,1,0,0:0:0:0:
432,145,128358,1,0,0:0:0:0:
432,145,128430,1,0,0:0:0:0:
432,145,128501,1,0,0:0:0:0:
432,145,128573,1,0,0:0:0:0:
432,145,128644,2,0,L|344:160,1,68.2499968757631,0|0,0:1|2:0,0:0:0:0:
108,296,128787,5,0,0:0:0:0:
144,324,128858,1,0,0:0:0:0:
188,332,128930,1,0,0:0:0:0:
232,320,129001,1,0,0:0:0:0:
264,288,129073,2,0,L|248:108,1,173.250005287171,4|0,0:1|2:0,0:0:0:0:
248,96,129358,5,8,0:0:0:0:
52,200,129501,1,8,0:0:0:0:
64,44,129644,1,2,0:2:0:0:
64,44,129715,1,2,0:2:0:0:
64,44,129787,2,0,L|196:76,1,115.50000352478,2|0,0:2|0:0,0:0:0:0:
428,216,130073,5,4,0:2:0:0:
272,276,130215,2,0,P|248:224|280:152,1,115.50000352478,0|0,0:0|2:0,0:0:0:0:
472,144,130501,1,8,0:0:0:0:
248,64,130644,1,8,0:0:0:0:
424,80,130787,1,2,0:2:0:0:
424,80,130858,1,2,0:2:0:0:
424,80,130930,2,0,L|292:108,1,115.50000352478,2|0,0:2|0:0,0:0:0:0:
64,224,131215,5,4,0:2:0:0:
216,304,131358,2,0,P|252:240|212:156,1,173.250005287171,0|0,0:2|2:0,0:0:0:0:
200,152,131644,37,2,0:2:0:0:
424,180,131787,1,2,0:2:0:0:
144,324,131930,1,2,0:2:0:0:
368,232,132073,1,2,0:2:0:0:
128,128,132215,1,2,0:2:0:0:
428,56,132358,1,0,0:2:0:0:
216,28,132501,2,0,L|248:268,1,231.000007049561,4|0,0:2|0:0,0:0:0:0:
224,332,132858,5,2,0:2:0:0:
185,321,132930,1,2,0:2:0:0:
146,311,133001,1,2,0:2:0:0:
108,300,133073,1,2,0:2:0:0:
69,290,133144,1,2,0:2:0:0:
30,280,133215,2,0,L|32:222,1,57.7500017623902,4|0,1:2|2:2,0:2:0:0:
96,80,133358,5,8,0:0:0:0:
120,100,133430,1,8,0:0:0:0:
140,120,133501,1,8,0:0:0:0:
164,140,133573,1,8,0:0:0:0:
184,160,133644,2,0,B|256:148|320:176|320:176|300:124,1,173.250005287171,4|0,0:2|0:0,0:0:0:0:
264,88,133930,5,4,0:0:0:0:
224,284,134073,1,8,0:0:0:0:
364,256,134215,1,8,0:0:0:0:
112,208,134358,2,2,L|36:220,2,57.7500017623902,2|2|2,0:2|0:2|0:2,0:2:0:0:
284,40,134644,6,0,B|308:91|308:91|300:149,1,115.50000352478,4|0,0:0|1:0,0:0:0:0:
296,168,134858,1,0,0:0:0:0:
296,168,134930,1,0,0:2:0:0:
148,120,135073,1,8,0:0:0:0:
216,268,135215,1,4,1:0:0:0:
384,168,135358,1,8,1:0:0:0:
72,108,135501,2,2,L|0:100,2,57.7500017623902,2|2|2,0:2|0:2|0:2,0:2:0:0:
286,298,135787,37,4,0:2:0:0:
56,228,135930,2,2,B|84:244|132:232|132:232|172:240|172:240|204:228|204:228|235:239|235:239|276:211|328:228,1,272.999987503052
440,76,136358,1,6,0:0:0:0:
232,160,136501,1,4,0:0:0:0:
472,304,136644,1,2,0:0:0:0:
320,148,136787,1,6,0:0:0:0:
320,148,136858,1,0,0:0:0:0:
320,148,136930,1,0,0:0:0:0:
176,304,137073,6,0,B|136:308|100:300|100:300|24:328|24:328|32:296|28:248,1,204.749990627289,6|0,0:1|2:0,0:0:0:0:
32,264,137358,1,6,0:0:0:0:
76,84,137501,2,0,B|84:48|100:24|100:24|128:88|128:88|120:128|128:192,1,204.749990627289,6|0,0:0|0:0,0:0:0:0:
176,228,137787,1,4,0:3:0:0:
220,220,137858,1,0,0:3:0:0:
264,212,137930,1,0,0:3:0:0:
308,204,138001,1,0,0:3:0:0:
352,196,138073,1,4,0:3:0:0:
396,188,138144,1,0,0:3:0:0:
440,180,138215,6,0,P|496:92|452:60,1,173.250005287171,4|0,0:2|0:0,0:0:0:0:
364,24,138501,2,0,L|360:104,1,57.7500017623902,0|0,0:0|2:0,0:0:0:0:
296,272,138644,1,2,0:2:0:0:
284,276,138715,1,2,0:2:0:0:
272,280,138787,1,2,0:2:0:0:
260,284,138858,1,2,0:2:0:0:
248,288,138930,2,0,L|251:172,1,115.50000352478
152,80,139215,5,8,0:0:0:0:
8,176,139358,2,0,B|64:172|104:144|104:144|144:164|200:152,1,173.250005287171,4|0,0:2|2:0,0:0:0:0:
208,67,139644,2,0,L|120:87,1,57.7500017623902,0|0,0:0|2:0,0:0:0:0:
24,252,139787,1,2,0:2:0:0:
36,256,139858,1,2,0:2:0:0:
48,260,139930,1,2,0:2:0:0:
60,264,140001,1,2,0:2:0:0:
72,268,140073,2,0,L|184:241,1,115.50000352478
392,328,140358,5,8,0:0:0:0:
260,216,140501,2,0,B|231:152|268:100|268:100|236:104|248:32|248:32|288:72,1,251.999992309571,4|2,0:2|0:2,0:2:0:0:
432,132,140858,1,2,0:2:0:0:
432,132,140930,2,0,P|385:171|312:156,1,125.999996154785,2|2,0:2|0:2,0:0:0:0:
172,60,141144,1,0,0:0:0:0:
172,60,141216,2,0,B|169:97|181:121|181:121|165:161|185:213,1,125.999996154785,2|2,0:2|0:2,0:0:0:0:
76,316,141430,1,2,0:2:0:0:
76,316,141501,1,2,0:2:0:0:
228,248,141644,38,4,B|164:280|126:246|90:214|30:246,1,204.749990627289,4|0,0:2|2:0,0:2:0:0:
24,252,141930,1,8,0:0:0:0:
176,183,142073,1,8,0:0:0:0:
40,76,142215,1,8,0:0:0:0:
240,96,142358,6,0,B|296:68|296:68|368:88,1,125.999996154785,4|0,0:2|0:0,0:0:0:0:
496,136,142573,1,0,0:0:0:0:
492,188,142644,1,0,0:0:0:0:
488,236,142715,1,0,0:0:0:0:
432,282,142787,2,2,B|376:298|332:278|332:278|264:310|264:310|284:274|265:239,1,251.999992309571,4|0,0:2|0:0,0:0:0:0:
265,239,143144,5,0,0:0:0:0:
265,239,143215,1,0,0:0:0:0:
80,204,143358,1,0,0:2:0:0:
152,352,143501,1,8,0:0:0:0:
180,184,143644,1,8,0:0:0:0:
340,220,143787,6,0,P|406:210|476:200,1,125.999996154785,2|0,0:0|2:0,0:0:0:0:
172,96,144073,2,0,P|106:106|36:116,1,125.999996154785,2|0,0:0|2:0,0:0:0:0:
48,324,144358,5,2,0:0:0:0:
92,348,144430,1,0,0:0:0:0:
144,348,144501,1,0,0:0:0:0:
192,328,144573,1,0,0:0:0:0:
216,284,144644,2,0,P|196:256|140:252,3,62.9999980773926,2|0|0|0,0:0|0:0|0:0|0:0,0:0:0:0:
349,187,144930,2,0,L|437:203,1,62.9999980773926,2|0,0:0|0:0,0:0:0:0:
488,92,145073,38,2,B|436:96|409:122|409:122|330:108|330:108|281:138|208:120,1,251.999992309571,2|2,0:0|0:2,0:0:0:0:
248,126,145430,1,2,0:2:0:0:
248,126,145501,2,0,P|216:144|200:168,1,62.9999980773926,0|0,0:0|2:0,0:0:0:0:
68,212,145644,2,0,P|40:198|8:198,1,62.9999980773926,2|0,0:2|2:0,0:0:0:0:
96,64,145787,5,2,0:2:0:0:
104,88,145858,1,2,0:2:0:0:
112,112,145930,1,2,0:2:0:0:
120,136,146001,1,2,0:2:0:0:
128,160,146073,1,2,0:2:0:0:
136,184,146144,1,2,0:2:0:0:
144,208,146215,2,0,B|176:296|176:296|228:256,1,125.999996154785,0|0,0:0|2:0,0:0:0:0:
376,328,146501,5,2,0:2:0:0:
392,320,146573,1,2,0:2:0:0:
408,312,146644,2,0,L|416:244,1,62.9999980773926,2|0,0:2|2:2,0:2:0:0:
290,181,146787,2,0,L|298:113,1,62.9999980773926,2|0,0:2|2:2,0:2:0:0:
469,93,146930,1,8,0:0:0:0:
469,93,147001,1,8,0:0:0:0:
469,93,147073,1,8,0:0:0:0:
469,93,147144,1,8,0:0:0:0:
469,93,147215,1,8,0:0:0:0:
469,93,147287,1,8,0:0:0:0:
469,93,147358,6,2,L|281:121,1,173.250005287171,6|0,0:0|2:0,0:0:0:0:
288,124,147644,1,2,0:1:0:0:
172,216,147787,2,0,P|104:224|56:192,1,115.50000352478,10|0,0:0|0:0,0:0:0:0:
112,33,148073,1,2,0:1:0:0:
112,33,148215,2,0,L|128:153,1,115.50000352478,2|8,0:1|0:0,0:0:0:0:
232,344,148501,6,2,P|288:280|248:204,1,173.250005287171,2|0,0:0|2:0,0:0:0:0:
240,200,148787,1,2,0:0:0:0:
103,295,148930,2,0,L|239:267,1,115.50000352478,10|0,0:0|0:2,0:0:0:0:
217,272,149144,1,0,0:2:0:0:
217,272,149215,1,2,0:1:0:0:
388,240,149358,2,0,P|420:188|396:128,1,115.50000352478,2|8,0:1|0:0,0:0:0:0:
472,40,149644,38,2,B|336:60|336:60|300:92,1,173.250005287171,2|0,0:0|2:0,0:0:0:0:
300,96,149930,1,2,0:0:0:0:
168,56,150073,2,0,L|176:184,1,115.50000352478,10|0,0:0|0:0,0:0:0:0:
188,332,150358,1,10,0:0:0:0:
64,268,150501,1,2,0:0:0:0:
264,184,150644,1,8,0:0:0:0:
52,79,150787,2,0,L|67:322,1,188.999994232178,10|0,0:0|2:0,0:0:0:0:
49,342,151073,70,0,P|89:338|125:310,1,68.2499968757631,10|0,0:0|2:0,0:0:0:0:
264,272,151215,2,0,L|364:284,1,68.2499968757631,10|0,0:0|2:0,0:0:0:0:
464,232,151358,2,0,L|468:144,1,68.2499968757631,10|0,0:0|2:0,0:0:0:0:
400,36,151501,1,0,0:1:0:0:
400,36,151573,1,0,0:1:0:0:
400,36,151644,1,0,0:1:0:0:
400,36,151715,1,0,0:1:0:0:
400,36,151787,1,0,0:1:0:0:
400,36,151858,1,0,0:1:0:0:
400,36,151930,54,2,B|392:212|392:212|352:164,1,231.000007049561,6|2,0:0|0:0,0:0:0:0:
272,128,152287,1,0,0:0:0:0:
272,128,152358,2,0,P|216:125|167:155,1,115.50000352478,10|0,0:0|0:0,0:0:0:0:
48,320,152644,1,2,0:1:0:0:
48,320,152787,2,0,L|172:304,1,115.50000352478,2|8,0:1|0:1,0:2:0:0:
324,316,153073,6,2,B|388:300|434:332|434:332|488:307|502:252|463:201,1,231.000007049561
408,244,153430,1,0,0:0:0:0:
408,244,153501,2,0,B|356:236|308:245|308:245|288:232,1,115.50000352478,10|0,0:0|0:0,0:0:0:0:
172,56,153787,1,2,0:1:0:0:
172,56,153930,2,0,L|160:184,1,115.50000352478,2|8,0:1|0:1,0:2:0:0:
28,332,154215,6,2,B|20:164|20:164|92:232,1,231.000007049561
172,272,154644,2,0,P|236:268|280:200,1,115.50000352478,10|0,0:0|2:0,0:0:0:0:
460,144,154930,1,10,0:0:0:0:
315,88,155073,1,8,0:0:0:0:
467,255,155215,1,8,0:0:0:0:
387,44,155358,6,2,B|404:101|375:140|375:140|399:200|399:200|371:260|411:320,1,272.999987503052
308,328,155715,1,0,0:0:0:0:
212,348,155787,2,2,P|144:336|120:268,1,136.499993751526
72,92,156073,1,0,0:0:0:0:
72,92,156144,1,0,0:0:0:0:
72,92,156215,1,0,0:0:0:0:
72,92,156287,1,0,0:0:0:0:
72,92,156358,1,0,0:0:0:0:
72,92,156430,1,0,0:0:0:0:
72,92,156501,1,4,0:0:0:0:
200,44,156787,37,0,0:0:0:0:
228,124,156930,1,8,0:1:0:0:
148,188,157073,1,0,0:0:0:0:
132,184,157144,1,0,0:0:0:0:
116,180,157215,1,0,0:0:0:0:
24,248,157358,1,0,0:0:0:0:
224,140,157501,1,8,0:1:0:0:
72,92,157644,1,0,0:0:0:0:
328,116,157787,6,0,L|376:108,1,39.3750015020371,0|0,1:0|2:0,0:0:0:0:
244,224,157930,1,0,0:0:0:0:
360,124,158073,2,0,L|408:116,1,39.3750015020371,0|0,1:0|2:0,0:0:0:0:
200,60,158215,1,0,0:0:0:0:
464,168,158358,6,0,L|516:176,1,39.3750015020371,0|0,1:0|2:0,0:0:0:0:
300,212,158501,2,0,L|268:240,1,39.3750015020371,0|0,1:0|2:0,0:0:0:0:
416,320,158644,2,0,L|424:368,1,39.3750015020371,0|0,1:0|2:0,0:0:0:0:
492,244,158787,6,0,B|388:228|388:228|308:296,1,210,0|0,1:0|0:0,0:0:0:0:
308,295,159144,1,0,0:0:0:0:
308,295,159215,1,8,0:1:0:0:
196,216,159358,1,0,0:0:0:0:
416,120,159501,1,0,0:1:0:0:
268,68,159644,1,0,0:0:0:0:
272,88,159715,1,0,0:0:0:0:
276,104,159787,1,8,0:1:0:0:
296,212,159930,1,0,0:0:0:0:
40,156,160073,54,0,L|-8:148,1,39.3750015020371,0|0,1:0|2:0,0:0:0:0:
148,52,160215,1,0,0:0:0:0:
96,176,160358,2,0,L|48:168,1,39.3750015020371,0|0,1:0|2:0,0:0:0:0:
224,220,160500,1,0,0:0:0:0:
16,304,160644,1,0,1:0:0:0:
16,304,160715,1,0,1:0:0:0:
16,304,160787,1,0,1:0:0:0:
16,304,160858,1,0,1:0:0:0:
16,304,160930,1,0,1:0:0:0:
16,304,161001,1,0,1:0:0:0:
16,304,161073,86,2,B|144:328|144:328|240:292,1,188.999994232178,2|0,0:0|2:0,0:0:0:0:
307,356,161358,1,2,0:0:0:0:
307,356,161501,2,0,B|319:292|319:292|299:232,1,125.999996154785,10|0,0:0|2:0,0:0:0:0:
456,48,161787,1,2,0:2:0:0:
460,80,161858,1,2,0:2:0:0:
464,112,161930,1,2,0:2:0:0:
468,144,162001,1,2,0:2:0:0:
472,176,162073,1,2,0:2:0:0:
476,208,162144,1,2,0:2:0:0:
480,240,162215,6,2,B|408:232|352:260|352:260|268:220,1,188.999994232178,2|0,0:0|2:0,0:0:0:0:
144,300,162501,1,2,0:0:0:0:
144,300,162644,2,0,B|217:282|217:282|293:314,1,125.999996154785,10|0,0:0|2:0,0:0:0:0:
392,184,162930,5,8,0:0:0:0:
128,120,163073,1,8,0:0:0:0:
400,40,163215,1,8,0:0:0:0:
304,168,163358,6,2,B|256:192|208:176|208:176|120:212|120:212|80:200|64:160,1,251.999992309571,2|2,0:0|0:1,0:0:0:0:
128,120,163787,1,8,0:0:0:0:
256,300,163930,6,2,B|304:324|352:308|352:308|440:344|440:344|480:332|496:292,1,251.999992309571,2|2,0:0|0:1,0:0:0:0:
432,252,164359,1,8,0:0:0:0:
301,179,164501,38,0,L|221:195,1,62.9999980773926,2|0,0:0|0:0,0:0:0:0:
60,248,164644,1,2,0:0:0:0:
60,248,164715,1,0,0:0:0:0:
60,248,164787,2,0,P|44:216|56:172,1,62.9999980773926
140,64,164930,5,8,0:0:0:0:
189,26,165001,1,8,0:0:0:0:
251,26,165072,1,8,0:0:0:0:
301,62,165144,1,8,0:0:0:0:
321,121,165215,1,8,0:0:0:0:
301,179,165287,1,8,0:0:0:0:
251,216,165358,1,8,0:0:0:0:
189,215,165430,1,8,0:0:0:0:
140,178,165501,1,8,0:0:0:0:
122,119,165572,1,8,0:0:0:0:
140,64,165644,5,4,0:0:0:0:
488,216,165930,5,0,0:0:0:0:
392,296,166073,1,8,0:1:0:0:
296,216,166215,1,0,0:0:0:0:
296,216,166287,2,0,L|304:160,3,52.5
132,336,166644,5,8,0:1:0:0:
40,248,166787,1,0,0:0:0:0:
48,232,166858,1,0,0:0:0:0:
56,216,166930,1,0,0:0:0:0:
184,136,167073,1,0,0:0:0:0:
32,44,167215,1,8,0:1:0:0:
173,84,167358,37,0,0:0:0:0:
173,84,167430,2,0,L|185:144,1,52.5
292,184,167573,1,0,0:0:0:0:
292,184,167644,2,0,L|280:244,1,52.5,0|0,0:0|2:0,0:0:0:0:
260,344,167787,1,8,0:1:0:0:
428,316,167930,5,0,0:0:0:0:
450,307,168001,1,0,0:0:0:0:
477,298,168073,1,0,0:0:0:0:
500,180,168215,1,0,0:0:0:0:
432,76,168358,1,8,0:1:0:0:
412,84,168430,1,4,0:3:0:0:
392,92,168501,1,0,0:0:0:0:
372,100,168573,1,0,0:0:0:0:
352,108,168644,1,0,0:0:0:0:
332,116,168715,1,0,0:0:0:0:
312,124,168787,1,0,0:0:0:0:
168,192,168930,5,8,0:1:0:0:
87,96,169073,5,4,0:3:0:0:
85,70,169144,1,0,0:0:0:0:
83,45,169215,1,0,0:0:0:0:
49,235,169358,5,4,0:3:0:0:
35,256,169429,1,0,0:0:0:0:
21,277,169500,1,8,0:1:0:0:
168,192,169644,37,4,0:3:0:0:
195,199,169715,1,0,0:0:0:0:
222,206,169787,1,0,0:0:0:0:
249,214,169858,1,0,0:0:0:0:
328,224,169930,5,0,1:0:0:0:
380,212,170001,1,0,1:0:0:0:
432,200,170073,1,0,1:0:0:0:
484,188,170144,1,0,1:0:0:0:
508,116,170215,1,4,1:0:0:0:
396,36,170501,5,0,0:0:0:0:
318,119,170644,2,0,L|328:224,1,105,2|0,1:2|2:0,0:0:0:0:
220,336,170930,1,2,0:2:0:0:
412,272,171073,1,0,0:0:0:0:
244,224,171215,1,0,1:0:0:0:
400,168,171358,2,0,B|448:136|496:152|496:152|500:120|528:96|528:96|460:80,1,210,2|0,0:2|0:0,0:0:0:0:
388,40,171787,6,0,L|320:52,1,52.5,8|0,1:0|2:0,1:0:0:0:
236,116,171930,2,0,L|164:112,1,52.5,8|0,1:0|2:0,1:0:0:0:
52,108,172073,1,2,0:2:0:0:
52,108,172144,1,2,0:2:0:0:
52,108,172215,1,2,0:2:0:0:
172,248,172358,5,0,1:0:0:0:
8,180,172501,2,0,B|76:204|76:204|132:196,1,105,2|0,0:2|2:0,0:0:0:0:
256,192,172787,1,2,0:2:0:0:
256,192,172858,1,2,0:2:0:0:
256,192,172930,1,2,1:2:0:0:
80,284,173073,1,0,0:0:0:0:
248,352,173215,37,2,0:2:0:0:
236,200,173358,1,2,0:2:0:0:
224,344,173501,1,2,1:2:0:0:
216,208,173644,2,0,L|204:92,1,105,2|0,0:2|2:0,0:0:0:0:
376,44,173930,5,2,0:2:0:0:
376,44,174001,1,2,0:2:0:0:
376,44,174073,1,2,1:2:0:0:
284,140,174215,1,0,0:0:0:0:
480,228,174358,1,8,1:0:0:0:
480,228,174430,1,8,1:0:0:0:
480,228,174501,1,8,1:0:0:0:
480,228,174573,1,8,1:0:0:0:
480,228,174644,1,8,1:0:0:0:
480,228,174715,1,8,1:0:0:0:
480,228,174787,2,0,B|440:236|404:224|404:224|368:252|368:252|328:228|256:256,1,210,4|0,0:0|0:0,0:0:0:0:
128,148,175215,86,0,P|99:153|56:176,1,52.5,8|0,0:1|2:0,0:0:0:0:
52,268,175358,1,0,0:0:0:0:
88,292,175430,1,0,0:0:0:0:
128,296,175501,1,0,0:0:0:0:
168,288,175573,1,0,0:0:0:0:
200,264,175644,1,0,0:0:0:0:
384,164,175787,6,0,L|390:100,1,52.5,8|0,0:1|2:0,0:0:0:0:
372,304,175930,1,0,0:0:0:0:
372,304,176073,1,0,0:0:0:0:
372,304,176215,1,0,0:0:0:0:
128,136,176358,86,0,P|99:141|56:164,1,52.5,8|0,0:1|2:0,0:0:0:0:
52,268,176501,1,0,0:0:0:0:
88,292,176573,1,0,0:0:0:0:
128,296,176644,1,0,0:0:0:0:
168,288,176716,1,0,0:0:0:0:
200,264,176787,1,0,0:0:0:0:
388,140,176930,6,0,L|394:76,1,52.5,8|0,0:1|2:0,0:0:0:0:
372,304,177073,1,0,0:0:0:0:
372,304,177216,1,0,0:0:0:0:
372,304,177358,1,0,0:0:0:0:
128,124,177501,86,0,P|99:129|56:152,1,52.5,8|0,0:1|2:0,0:0:0:0:
52,268,177644,1,0,0:0:0:0:
88,292,177716,1,0,0:0:0:0:
128,296,177787,1,0,0:0:0:0:
168,288,177859,1,0,0:0:0:0:
200,264,177930,1,0,0:0:0:0:
392,116,178073,6,0,L|398:52,1,52.5,8|0,0:1|2:0,0:0:0:0:
372,304,178215,1,0,0:0:0:0:
372,304,178358,1,0,0:0:0:0:
372,304,178500,1,0,0:0:0:0:
128,112,178644,86,0,P|99:117|56:140,1,52.5,8|0,0:1|2:0,0:0:0:0:
56,320,178787,5,0,0:0:0:0:
99,310,178859,1,0,0:0:0:0:
142,302,178930,2,0,L|230:282,1,62.9999980773926,0|0,1:2|2:0,0:0:0:0:
424,244,179073,2,0,P|451:189|433:130,1,125.999996154785,4|0,1:0|2:0,0:0:0:0:
184,124,179358,6,0,B|232:164|232:164|392:184,1,210,4|0,0:2|0:0,0:0:0:0:
460,60,179787,2,0,P|408:60|368:96,1,105,8|0,0:0|0:0,0:0:0:0:
212,260,180073,2,0,L|332:244,1,105,2|2,0:2|0:2,0:0:0:0:
316,246,180287,1,2,0:2:0:0:
316,246,180358,1,2,0:2:0:0:
476,336,180501,6,0,B|316:356|316:356|248:305,1,210,4|0,0:2|0:2,0:0:0:0:
240,184,180930,2,0,P|243:128|248:52,1,105,8|0,0:1|1:0,0:0:0:0:
404,88,181215,5,8,0:0:0:0:
108,176,181358,1,8,0:0:0:0:
404,228,181501,1,8,0:0:0:0:
108,316,181644,1,4,0:2:0:0:
96,312,181930,38,0,L|100:248,1,62.9999980773926,8|0,0:0|2:0,0:0:0:0:
16,168,182073,2,0,L|20:104,1,62.9999980773926,8|0,0:0|2:0,0:0:0:0:
184,36,182215,5,0,0:0:0:0:
227,29,182286,1,0,0:0:0:0:
270,40,182357,1,0,0:0:0:0:
306,67,182429,1,0,0:0:0:0:
328,105,182500,1,0,0:0:0:0:
334,149,182572,1,0,0:0:0:0:
322,192,182643,1,0,0:0:0:0:
294,227,182715,1,0,0:0:0:0:
256,248,182786,1,0,0:0:0:0:
212,260,182857,1,0,0:0:0:0:
169,240,182929,1,0,0:0:0:0:
144,204,183000,1,0,0:0:0:0:
144,160,183072,1,0,0:0:0:0:
172,124,183143,1,0,0:0:0:0:
216,112,183215,53,2,0:2:0:0:
236,180,183287,5,2,0:2:0:0:
256,248,183358,85,2,0:2:0:0:
276,316,183430,5,2,0:2:0:0:
296,384,183501,85,2,1:2:0:0:
408,120,184930,85,2,2:0:0:0:
185,172,185073,38,2,B|233:163|273:190|273:190|315:187|377:148,1,173.250005287171,4|0,0:2|0:0,0:0:0:0:
422,174,185358,2,0,P|421:145|408:120,1,57.7500017623902
260,80,185501,1,8,0:0:0:0:
488,130,185644,1,8,0:0:0:0:
320,265,185787,2,0,B|272:257|234:273|234:273|193:245,1,115.50000352478,4|0,0:2|0:0,0:0:0:0:
24,180,186073,5,8,0:0:0:0:
104,36,186215,2,0,B|132:156|132:156|112:212,1,173.250005287171,6|0,0:2|2:0,0:0:0:0:
49,255,186501,2,0,B|65:276|65:276|96:284,1,57.7500017623902
216,168,186643,1,8,0:0:0:0:
364,320,186786,1,0,0:0:0:0:
488,223,186930,2,0,B|435:194|435:194|382:209,1,115.50000352478,4|0,0:2|0:0,0:0:0:0:
192,264,187215,6,0,L|197:336,1,57.7500017623902
300,220,187358,2,0,L|287:23,1,173.250005287171,4|0,0:2|2:0,0:0:0:0:
380,24,187644,5,2,0:2:0:0:
380,24,187715,1,2,0:2:0:0:
380,24,187787,2,0,L|389:142,1,115.50000352478,2|2,0:2|1:2,0:0:0:0:
200,120,188001,1,2,0:2:0:0:
200,120,188073,2,0,L|209:238,1,115.50000352478,2|2,0:2|1:2,0:0:0:0:
348,280,188287,1,2,0:2:0:0:
348,280,188358,1,0,0:2:0:0:
264,344,188501,6,0,B|200:356|164:328|164:328|88:352|88:352|100:320|144:280,1,231.000007049561,4|8,0:2|1:0,0:0:0:0:
36,300,188858,1,0,0:0:0:0:
36,300,188930,2,0,P|55:274|88:240,1,57.7500017623902,8|0,0:0|2:0,0:0:0:0:
216,224,189073,2,0,P|196:198|164:164,1,57.7500017623902,8|0,0:0|2:0,0:0:0:0:
40,116,189215,1,8,0:0:0:0:
40,116,189287,1,8,0:0:0:0:
40,116,189358,1,8,0:0:0:0:
40,116,189430,1,8,0:0:0:0:
40,116,189501,1,8,0:0:0:0:
40,116,189573,1,8,0:0:0:0:
40,116,189644,6,0,B|124:124|124:124|168:100|168:100|272:116,1,231.000007049561,4|4,1:2|0:0,0:0:0:0:
372,248,190073,2,0,B|456:256|456:256|504:208,1,115.50000352478,8|0,0:0|0:0,0:0:0:0:
400,64,190358,1,2,0:2:0:0:
400,64,190430,1,2,0:2:0:0:
400,64,190501,1,2,0:2:0:0:
248,184,190644,6,0,L|192:156,1,57.7500017623902,4|0,0:0|0:0,0:0:0:0:
32,120,190787,2,0,L|160:104,1,115.50000352478
300,256,191073,1,0,0:0:0:0:
468,200,191216,2,0,L|340:184,1,115.50000352478,8|0,0:0|0:0,0:0:0:0:
256,40,191501,1,2,0:2:0:0:
256,40,191573,1,2,0:2:0:0:
256,40,191644,1,2,0:2:0:0:
160,252,191787,5,4,0:2:0:0:
8,200,191930,2,2,B|56:168|112:192|112:192|144:164|144:164|204:192|304:140,1,272.999987503052
508,248,192358,1,4,0:0:0:0:
196,100,192501,1,4,0:0:0:0:
472,24,192644,1,2,0:0:0:0:
224,240,192787,1,4,0:0:0:0:
420,152,192930,1,0,0:0:0:0:
192,320,193073,38,0,B|140:344|140:344|92:324|92:324|28:328|28:328|64:280,1,204.749990627289,6|0,0:0|2:0,0:0:0:0:
12,216,193358,2,0,L|20:136,1,68.2499968757631,6|0,0:0|0:0,0:0:0:0:
176,44,193501,1,0,0:0:0:0:
208,88,193573,1,0,0:0:0:0:
260,108,193644,1,0,0:0:0:0:
316,108,193715,1,0,0:0:0:0:
368,88,193787,1,0,0:0:0:0:
400,44,193858,5,4,0:3:0:0:
352,68,193930,1,4,0:3:0:0:
352,124,194001,1,4,0:3:0:0:
388,164,194073,2,4,L|400:244,1,68.2499968757631,4|4,0:3|2:3,0:3:0:0:
474,315,194215,6,0,B|416:348|416:348|312:328,1,173.250005287171,4|0,0:2|2:0,0:0:0:0:
276,320,194501,1,0,0:0:0:0:
464,188,194644,1,8,0:0:0:0:
280,136,194787,1,0,0:0:0:0:
352,240,194930,1,2,0:2:0:0:
372,236,195001,1,2,0:2:0:0:
398,231,195073,1,2,0:2:0:0:
392,68,195215,6,0,L|300:80,1,57.7500017623902,8|0,0:0|0:0,0:0:0:0:
208,192,195358,2,0,B|144:184|80:208|80:208|32:152,1,173.250005287171,4|0,0:2|2:0,0:0:0:0:
36,152,195644,1,0,0:0:0:0:
188,328,195787,1,8,0:0:0:0:
8,292,195930,1,2,0:2:0:0:
8,292,196001,1,2,0:2:0:0:
8,292,196073,2,0,L|136:276,1,115.50000352478,2|0,0:2|1:0,0:0:0:0:
384,280,196358,6,2,P|399:248|391:212,1,57.7500017623902,8|0,0:1|1:0,0:2:0:0:
256,148,196501,2,0,B|252:216|292:300|292:300|300:252|340:232,1,231.000007049561,4|2,0:2|0:2,0:0:0:0:
384,152,196858,37,2,0:2:0:0:
384,152,196930,2,0,P|356:136|328:136,1,57.7500017623902,0|0,0:0|2:0,0:0:0:0:
240,59,197073,1,2,0:2:0:0:
240,59,197144,1,2,0:2:0:0:
240,59,197215,2,0,P|212:78|172:83,1,57.7500017623902,0|0,0:0|2:0,0:0:0:0:
84,184,197358,1,2,0:2:0:0:
84,184,197430,1,2,0:2:0:0:
84,184,197501,2,0,P|53:183|25:165,1,57.7500017623902,0|0,0:0|2:0,0:0:0:0:
60,64,197644,6,0,B|127:51|167:99|167:99|237:91|237:91|204:121|215:193,1,272.999987503052,4|0,0:2|0:0,0:0:0:0:
284,224,198001,1,0,0:0:0:0:
316,220,198073,1,0,0:0:0:0:
348,216,198144,1,0,0:0:0:0:
380,212,198215,1,0,0:0:0:0:
412,208,198287,1,0,0:0:0:0:
444,204,198358,2,0,P|461:167|433:115,1,62.9999980773926,4|0,0:2|2:0,0:0:0:0:
368,48,198501,37,8,0:0:0:0:
292,56,198573,1,8,0:0:0:0:
216,64,198644,1,10,0:0:0:0:
140,76,198715,1,8,0:0:0:0:
64,88,198787,2,2,B|76:132|100:148|100:148|92:260|92:260|116:228|160:220,1,251.999992309571,4|0,0:2|0:0,0:0:0:0:
368,244,199215,37,8,0:0:0:0:
280,132,199358,1,0,0:0:0:0:
280,132,199430,1,0,0:0:0:0:
280,132,199501,1,0,0:0:0:0:
272,312,199644,1,0,0:0:0:0:
436,276,199787,6,0,L|533:254,3,62.9999980773926,2|0|0|0,1:0|0:0|0:0|0:0,0:0:0:0:
460,160,200073,2,0,L|480:92,3,62.9999980773926,2|0|0|0,0:0|0:0|0:0|0:0,0:0:0:0:
372,84,200358,2,0,L|328:24,3,62.9999980773926,2|0|0|0,0:0|0:0|0:0|0:0,0:0:0:0:
256,104,200644,6,0,L|192:120,1,62.9999980773926,2|0,0:0|0:0,0:0:0:0:
108,272,200787,2,0,L|44:288,1,62.9999980773926
16,196,200930,1,2,0:0:0:0:
16,196,201001,1,0,0:0:0:0:
16,196,201073,2,2,B|103:175|103:175|168:204|168:204|287:174,1,251.999992309571,2|2,0:0|1:2,0:0:0:0:
336,224,201430,5,2,0:2:0:0:
336,224,201501,2,0,B|349:200|349:200|350:164,1,62.9999980773926,0|0,0:0|2:0,0:0:0:0:
217,34,201644,2,0,B|199:59|199:59|199:91,1,62.9999980773926,0|0,0:0|2:0,0:0:0:0:
208,288,201787,1,2,0:2:0:0:
228,292,201858,1,2,0:2:0:0:
248,296,201930,1,2,0:2:0:0:
268,300,202001,1,2,0:2:0:0:
288,304,202073,1,2,0:2:0:0:
308,308,202144,1,2,0:2:0:0:
328,312,202215,2,0,B|372:288|372:288|428:296|428:296|452:264|492:244|492:244|464:224|428:220,1,251.999992309571,0|2,0:0|1:2,0:0:0:0:
424,124,202573,5,2,0:2:0:0:
424,124,202644,2,0,B|388:130|388:130|352:156,1,62.9999980773926,2|0,0:2|2:0,0:0:0:0:
236,176,202787,2,0,B|200:169|200:169|164:144,1,62.9999980773926,2|0,0:2|2:0,0:0:0:0:
52,64,202930,1,0,0:0:0:0:
52,64,203001,1,0,0:0:0:0:
52,64,203073,1,0,0:0:0:0:
52,64,203144,1,0,0:0:0:0:
52,64,203215,1,0,0:0:0:0:
52,64,203287,1,0,0:0:0:0:
52,64,203358,2,0,B|100:72|132:56|132:56|200:84|200:84|220:72|268:68|268:68,1,210
428,104,203787,38,0,B|416:164|416:164|372:104,1,105,8|0,0:1|2:0,0:0:0:0:
288,220,204073,2,0,B|276:280|276:280|232:220,1,105,8|0,0:1|2:0,0:0:0:0:
82,270,204359,5,0,0:0:0:0:
72,278,204430,1,0,0:0:0:0:
60,283,204501,1,0,0:0:0:0:
47,285,204573,1,0,0:0:0:0:
34,282,204644,1,0,0:0:0:0:
23,276,204716,1,0,0:0:0:0:
14,266,204787,1,0,0:0:0:0:
8,254,204859,1,0,0:0:0:0:
7,241,204930,1,0,0:0:0:0:
9,229,205001,1,0,0:0:0:0:
16,217,205073,1,0,0:0:0:0:
25,208,205144,1,0,0:0:0:0:
32,204,205215,5,2,1:1:0:0:
108,156,205287,5,2,1:1:0:0:
192,188,205358,85,2,1:1:0:0:
268,140,205430,5,0,1:1:0:0:
352,172,205501,85,2,1:1:0:0:
428,124,205573,5,2,1:1:0:0:
512,155,205644,6,2,L|320:184,1,173.250005287171,4|0,0:0|2:0,0:0:0:0:
336,188,205930,1,8,0:0:0:0:
400,336,206073,2,0,P|440:288|420:232,1,115.50000352478,10|0,0:0|2:0,0:0:0:0:
348,96,206358,1,2,0:2:0:0:
348,96,206430,1,2,0:2:0:0:
348,96,206501,1,2,0:2:0:0:
160,252,206644,6,0,L|88:240,1,57.7500017623902,10|0,0:0|2:0,0:0:0:0:
192,84,206787,2,2,B|220:48|220:48|248:208,1,173.250005287171,2|0,0:0|2:0,0:0:0:0:
248,196,207073,1,0,0:0:0:0:
48,304,207215,2,0,B|28:248|28:248|40:188,1,115.50000352478,10|0,0:0|2:0,0:0:0:0:
276,56,207501,5,2,0:2:0:0:
276,56,207573,1,2,0:2:0:0:
276,56,207644,1,2,0:2:0:0:
176,140,207787,2,0,L|164:216,1,57.7500017623902,10|0,0:0|0:0,0:0:0:0:
296,288,207930,2,0,P|349:276|468:248,1,173.250005287171,2|0,0:0|2:0,0:0:0:0:
468,236,208215,1,2,0:0:0:0:
308,140,208358,1,10,0:2:0:0:
308,140,208430,1,2,0:2:0:0:
308,140,208501,1,2,0:2:0:0:
448,232,208644,5,2,0:0:0:0:
332,336,208787,1,0,0:0:0:0:
424,224,208930,1,10,0:0:0:0:
240,196,209073,2,2,B|180:216|132:204|132:204|76:236|76:236|88:208|120:136,1,231.000007049561
84,52,209501,1,8,0:0:0:0:
84,52,209787,6,2,L|96:148,1,57.7500017623902,2|2,0:2|0:2,0:2:0:0:
116,324,209930,1,0,0:0:0:0:
116,324,210001,1,0,0:0:0:0:
116,324,210073,1,0,0:0:0:0:
116,324,210144,1,0,0:0:0:0:
116,324,210215,38,2,B|164:336|212:308|212:308|260:336|260:336|292:324|292:324|360:328,1,231.000007049561,2|0,0:0|0:0,0:0:0:0:
368,176,210644,1,10,0:0:0:0:
272,256,210787,1,0,0:0:0:0:
456,328,210930,5,2,0:2:0:0:
456,328,211001,1,2,0:2:0:0:
456,328,211073,1,2,0:2:0:0:
352,252,211215,2,0,P|352:216|376:168,1,57.7500017623902,10|0,0:0|0:0,0:0:0:0:
484,60,211358,2,2,B|465:128|465:128|497:164|489:216|489:216|456:212|417:232,1,231.000007049561,2|0,0:0|0:0,0:0:0:0:
300,140,211787,2,0,P|236:132|188:172,1,115.50000352478,10|0,0:0|0:0,0:0:0:0:
120,272,212073,5,2,0:2:0:0:
100,268,212144,1,2,0:2:0:0:
80,264,212215,1,2,0:2:0:0:
256,216,212358,2,0,P|259:243|264:288,1,57.7500017623902,10|0,0:0|0:0,0:0:0:0:
56,340,212501,2,2,B|20:336|12:320|12:320|40:280|40:224|40:224|16:192|32:144,1,231.000007049561,2|0,0:0|1:0,0:0:0:0:
180,232,212930,5,10,0:0:0:0:
332,132,213073,1,0,0:0:0:0:
120,76,213215,1,2,0:2:0:0:
120,76,213287,1,2,0:2:0:0:
120,76,213358,1,2,0:2:0:0:
208,196,213501,2,0,B|228:200|228:200|248:208|300:208,1,57.7500017623902,10|0,0:0|0:0,0:0:0:0:
332,80,213644,6,2,B|282:93|264:136|264:136|216:116|176:128|176:128|128:172|52:132,1,272.999987503052
36,248,214073,2,0,B|64:232|64:232|92:256,1,68.2499968757631,4|0,0:0|2:0,0:0:0:0:
260,312,214215,2,0,B|288:328|288:328|316:304,1,68.2499968757631,4|0,0:0|2:0,0:0:0:0:
460,212,214358,1,8,0:0:0:0:
460,212,214430,1,8,0:0:0:0:
460,212,214501,1,8,0:0:0:0:
460,212,214573,1,8,0:0:0:0:
460,212,214644,1,8,0:0:0:0:
460,212,214715,1,8,0:0:0:0:
460,212,214787,38,0,L|346:231,1,115.50000352478,6|0,0:0|2:0,0:0:0:0:
160,168,215073,1,2,0:2:0:0:
168,156,215144,1,2,0:2:0:0:
176,148,215215,2,0,P|240:136|288:160,1,115.50000352478,10|0,0:2|0:0,0:0:0:0:
416,296,215501,5,2,0:1:0:0:
432,132,215644,1,2,0:1:0:0:
280,232,215787,1,8,0:0:0:0:
492,320,215930,2,2,B|500:268|472:236|472:236|500:164|500:164|484:200|432:212,1,231.000007049561,2|2,0:0|0:2,0:0:0:0:
360,104,216287,1,2,0:2:0:0:
360,104,216358,2,0,P|398:62|454:56,1,115.50000352478,8|0,0:2|0:0,0:0:0:0:
280,232,216644,5,2,0:0:0:0:
416,292,216787,1,0,0:0:0:0:
289,153,216930,2,0,P|260:158|217:189,1,57.7500017623902,8|0,0:2|0:2,0:0:0:0:
84,255,217073,2,2,B|108:275|148:275|148:275|168:295|168:295|220:283|220:283|254:316|304:307,1,231.000007049561,2|2,0:0|0:2,0:0:0:0:
436,368,217430,1,2,0:2:0:0:
436,368,217501,2,0,P|479:337|468:235,1,115.50000352478,8|0,0:0|2:0,0:0:0:0:
452,100,217787,5,2,0:1:0:0:
452,100,217858,1,2,0:2:0:0:
452,100,217930,1,2,0:2:0:0:
248,224,218073,1,8,0:0:0:0:
360,252,218215,2,0,L|344:96,1,115.50000352478,2|0,0:0|2:0,0:0:0:0:
32,60,218501,1,8,0:0:0:0:
144,132,218644,5,2,0:2:0:0:
144,132,218715,1,2,0:2:0:0:
144,132,218787,1,2,0:2:0:0:
144,132,218858,1,2,0:2:0:0:
144,132,218930,2,2,L|128:196,1,57.7500017623902,2|2,0:2|0:2,0:2:0:0:
188,352,219073,37,8,0:0:0:0:
232,336,219144,1,8,0:0:0:0:
276,320,219215,1,8,0:0:0:0:
320,304,219287,1,8,0:0:0:0:
364,288,219358,6,0,B|456:268|516:304|516:304|432:204,1,231.000007049561,6|0,0:0|0:0,0:0:0:0:
372,144,219787,2,0,P|324:136|264:176,1,115.50000352478,10|0,0:0|2:0,0:0:0:0:
84,288,220073,5,2,0:2:0:0:
76,296,220144,1,2,0:2:0:0:
68,304,220215,1,2,0:2:0:0:
60,312,220287,1,2,0:2:0:0:
52,320,220358,1,10,0:2:0:0:
44,328,220430,1,2,0:2:0:0:
36,336,220501,2,2,B|4:268|40:216|40:216|-1:159|28:100,1,231.000007049561,2|0,0:0|0:0,0:0:0:0:
144,28,220930,2,0,P|194:54|217:105,1,115.50000352478,10|0,0:0|2:0,0:0:0:0:
264,224,221215,6,0,L|128:212,1,115.50000352478,2|2,0:0|0:2,0:0:0:0:
136,212,221430,1,2,0:2:0:0:
124,210,221501,1,2,0:2:0:0:
468,252,221644,1,4,0:2:0:0:
488,172,221930,5,0,0:0:0:0:
468,252,222073,53,0,0:0:0:0:
406,151,222215,37,0,0:0:0:0:
386,269,222358,53,0,0:0:0:0:
327,131,222501,37,0,0:0:0:0:
305,287,222644,53,0,0:0:0:0:
248,113,222787,37,0,0:0:0:0:
223,305,222930,53,0,0:0:0:0:
169,93,223073,37,0,0:0:0:0:
142,323,223215,53,0,0:0:0:0:
89,73,223358,37,0,0:0:0:0:
32,224,223501,5,8,0:1:0:0:
106,212,223573,5,8,0:1:0:0:
182,201,223644,85,8,0:1:0:0:
256,191,223715,5,8,0:1:0:0:
332,180,223787,85,8,0:1:0:0:
