osu file format v14

[General]
AudioFilename: 09 - .mp3
AudioLeadIn: 0
PreviewTime: 184858
Countdown: 0
SampleSet: Soft
StackLeniency: 0.7
Mode: 0
LetterboxInBreaks: 1
WidescreenStoryboard: 1

[Editor]
DistanceSpacing: 0.7
BeatDivisor: 4
GridSize: 4
TimelineZoom: 2.6

[Metadata]
Title:Yakubyougami
TitleUnicode:ヤクビョウガミ
Artist:ayaponzu*
ArtistUnicode:あやぽんず*
Creator:Pho
Version:Insane
Source:
Tags:まふまふ mafumafu yasu △○□× miwasiba みわしいば chocolate pop* Not-116 utaite 歌い手 asahina momoko mokori m_o_k_o_r_i cryo[iceeicee] cryo jonathanlfj captin1 lmt
BeatmapID:1066244
BeatmapSetID:501001

[Difficulty]
HPDrainRate:5
CircleSize:4
OverallDifficulty:8
ApproachRate:9
SliderMultiplier:1.5
SliderTickRate:1

[Events]
//Background and Video events
Video,-148,"yakubyougami.avi"
0,0,"bg1.jpg",0,0
//Break Periods
2,74415,82330
//Storyboard Layer 0 (Background)
//Storyboard Layer 1 (Fail)
//Storyboard Layer 2 (Pass)
//Storyboard Layer 3 (Foreground)
//Storyboard Sound Samples

[TimingPoints]
73,285.714285714286,4,2,1,50,1,0
1073,-100,4,2,1,90,0,0
5001,-100,4,2,1,40,0,0
5073,-100,4,2,1,90,0,0
5144,-100,4,2,1,40,0,0
5215,-100,4,2,1,90,0,0
5287,-100,4,2,1,40,0,0
5358,-100,4,2,1,90,0,0
9287,-100,4,2,1,5,0,0
9358,-100,4,2,1,90,0,0
9430,-100,4,2,1,40,0,0
9501,-100,4,2,1,90,0,0
9573,-100,4,2,1,40,0,0
9644,-100,4,2,1,90,0,0
9715,-100,4,2,1,40,0,0
9787,-100,4,2,1,90,0,0
14144,-100,4,2,1,40,0,0
14215,-100,4,2,1,90,0,0
14287,-100,4,2,1,40,0,0
14358,-100,4,2,1,90,0,0
14430,-100,4,2,1,40,0,0
14501,-100,4,2,1,90,0,0
17001,-100,4,2,1,40,0,0
17073,-100,4,2,1,90,0,0
17287,-100,4,2,1,5,0,0
17358,-100,4,2,1,90,0,0
19358,-166.666666666667,4,2,1,60,0,0
19930,-166.666666666667,4,2,1,5,0,0
20073,-166.666666666667,4,2,1,60,0,0
20215,-166.666666666667,4,2,1,5,0,0
20358,-166.666666666667,4,2,1,60,0,0
20501,-166.666666666667,4,2,1,5,0,0
20644,-166.666666666667,4,2,1,60,0,0
20787,-166.666666666667,4,2,1,5,0,0
20930,-166.666666666667,4,2,1,60,0,0
21073,-166.666666666667,4,2,1,5,0,0
21215,-166.666666666667,4,2,1,60,0,0
21358,-166.666666666667,4,2,1,20,0,0
21501,-166.666666666667,4,2,1,60,0,0
21644,-166.666666666667,4,2,1,20,0,0
21787,-166.666666666667,4,2,1,60,0,0
21930,-166.666666666667,4,2,1,20,0,0
22073,-166.666666666667,4,2,1,60,0,0
22215,-166.666666666667,4,2,1,5,0,0
22358,-166.666666666667,4,2,1,60,0,0
22501,-166.666666666667,4,2,1,5,0,0
22644,-166.666666666667,4,2,1,60,0,0
22787,-166.666666666667,4,2,1,5,0,0
22930,-166.666666666667,4,2,1,60,0,0
23073,-166.666666666667,4,2,1,20,0,0
23215,-166.666666666667,4,2,1,60,0,0
23358,-166.666666666667,4,2,1,20,0,0
23501,-166.666666666667,4,2,1,60,0,0
23644,-166.666666666667,4,2,1,5,0,0
23787,-166.666666666667,4,2,1,60,0,0
23930,-166.666666666667,4,2,1,5,0,0
24073,-166.666666666667,4,2,1,60,0,0
27215,-166.666666666667,4,2,6,100,0,0
27358,-166.666666666667,4,2,1,60,0,0
27501,-90.9090909090908,4,2,1,70,0,0
27573,-90.9090909090908,4,2,1,40,0,0
27644,-90.9090909090908,4,2,1,70,0,0
27715,-90.9090909090908,4,2,1,40,0,0
27787,-90.9090909090908,4,2,1,70,0,0
28501,-76.9230769230769,4,2,1,80,0,0
31930,-90.9090909090909,4,2,1,80,0,0
35358,-90.9090909090909,4,2,1,60,0,0
37215,-90.9090909090909,4,2,1,80,0,0
37930,-90.9090909090909,4,2,1,60,0,0
42215,-90.9090909090909,4,2,1,70,0,0
46787,-90.9090909090909,4,2,1,60,0,0
49073,-90.9090909090909,4,2,1,70,0,0
50787,-66.6666666666667,4,2,1,80,0,0
51358,-90.9090909090909,4,2,1,90,0,0
53287,-90.9090909090909,4,2,1,40,0,0
53358,-90.9090909090909,4,2,1,90,0,0
53430,-90.9090909090909,4,2,1,40,0,0
53501,-90.9090909090909,4,2,1,90,0,0
53573,-90.9090909090909,4,2,1,40,0,0
53644,-90.9090909090909,4,2,1,90,0,0
53787,-90.9090909090909,4,2,1,35,0,0
54073,-90.9090909090909,4,2,1,50,0,0
54358,-90.9090909090909,4,2,1,60,0,0
54644,-90.9090909090909,4,2,1,70,0,0
54930,-90.9090909090909,4,2,1,80,0,0
55215,-90.9090909090909,4,2,1,90,0,0
55644,-90.9090909090909,4,2,1,40,0,0
55787,-90.9090909090909,4,2,1,90,0,0
55858,-90.9090909090909,4,2,1,40,0,0
55930,-71.4285714285714,4,2,1,100,0,1
56215,-76.9230769230769,4,2,1,100,0,1
61858,-76.9230769230769,4,2,1,5,0,1
61930,-76.9230769230769,4,2,1,100,0,1
63573,-76.9230769230769,4,2,1,40,0,1
63644,-76.9230769230769,4,2,1,100,0,1
63715,-76.9230769230769,4,2,1,40,0,1
63787,-76.9230769230769,4,2,1,100,0,1
63858,-76.9230769230769,4,2,1,40,0,1
63930,-76.9230769230769,4,2,1,100,0,1
69287,-76.9230769230769,4,2,1,40,0,1
69358,-76.9230769230769,4,2,1,100,0,1
72715,-76.9230769230769,4,2,1,40,0,1
72787,-76.9230769230769,4,2,1,100,0,1
72858,-76.9230769230769,4,2,1,40,0,1
72930,-76.9230769230769,4,2,1,100,0,1
74144,-76.9230769230769,4,2,1,100,0,0
74215,-76.9230769230769,4,2,1,100,0,1
74287,-90.9090909090909,4,2,1,90,0,0
87001,-90.9090909090909,4,2,1,5,0,0
87073,-90.9090909090909,4,2,1,100,0,0
87287,-90.9090909090909,4,2,1,40,0,0
87358,-90.9090909090909,4,2,1,100,0,0
87430,-90.9090909090909,4,2,1,40,0,0
87501,-90.9090909090909,4,2,1,100,0,0
87573,-90.9090909090909,4,2,1,40,0,0
87644,-90.9090909090909,4,2,1,100,0,0
91573,-90.9090909090909,4,2,1,5,0,0
91644,-90.9090909090909,4,2,1,100,0,0
91715,-90.9090909090909,4,2,1,40,0,0
91787,-90.9090909090909,4,2,1,100,0,0
91858,-90.9090909090909,4,2,1,40,0,0
91930,-90.9090909090909,4,2,1,100,0,0
92001,-90.9090909090909,4,2,1,40,0,0
92073,-90.9090909090909,4,2,1,100,0,0
92501,-166.666666666667,4,2,1,60,0,0
93073,-166.666666666667,4,2,1,5,0,0
93215,-166.666666666667,4,2,1,60,0,0
93358,-166.666666666667,4,2,1,5,0,0
93501,-166.666666666667,4,2,1,60,0,0
93644,-166.666666666667,4,2,1,5,0,0
93787,-166.666666666667,4,2,1,60,0,0
93930,-166.666666666667,4,2,1,5,0,0
94073,-166.666666666667,4,2,1,60,0,0
94215,-166.666666666667,4,2,1,5,0,0
94358,-166.666666666667,4,2,1,60,0,0
94501,-166.666666666667,4,2,1,5,0,0
94644,-166.666666666667,4,2,1,60,0,0
94787,-166.666666666667,4,2,1,5,0,0
94930,-166.666666666667,4,2,1,60,0,0
95073,-166.666666666667,4,2,1,5,0,0
95215,-166.666666666667,4,2,1,60,0,0
95358,-166.666666666667,4,2,1,5,0,0
95501,-166.666666666667,4,2,1,60,0,0
95644,-166.666666666667,4,2,1,5,0,0
95787,-166.666666666667,4,2,1,60,0,0
95930,-166.666666666667,4,2,1,5,0,0
96073,-166.666666666667,4,2,1,60,0,0
96215,-166.666666666667,4,2,1,5,0,0
96358,-166.666666666667,4,2,1,60,0,0
96501,-166.666666666667,4,2,1,5,0,0
96644,-166.666666666667,4,2,1,60,0,0
96787,-166.666666666667,4,2,1,5,0,0
96930,-166.666666666667,4,2,1,60,0,0
97073,-166.666666666667,4,2,1,5,0,0
97215,-166.666666666667,4,2,1,60,0,0
100358,-100,4,2,6,100,0,0
100501,-100,4,2,1,60,0,0
100644,-100,4,2,1,40,0,0
100715,-100,4,2,1,70,0,0
100858,-100,4,2,1,40,0,0
100930,-100,4,2,1,70,0,0
101644,-76.9230769230769,4,2,1,80,0,0
105073,-90.9090909090909,4,2,1,80,0,0
108430,-90.9090909090909,4,2,1,40,0,0
108501,-90.9090909090909,4,2,1,60,0,0
110358,-90.9090909090909,4,2,1,80,0,0
111073,-90.9090909090909,4,2,1,60,0,0
115001,-90.9090909090909,4,2,1,20,0,0
115073,-90.9090909090909,4,2,1,60,0,0
115358,-90.9090909090909,4,2,1,70,0,0
120001,-90.9090909090909,4,2,1,60,0,0
122215,-90.9090909090909,4,2,1,70,0,0
124073,-66.6666666666667,4,2,1,70,0,0
124215,-90.9090909090909,4,2,1,70,0,0
124501,-90.9090909090909,4,2,1,80,0,0
125644,-90.9090909090909,4,2,1,90,0,0
126787,-142.857142857143,4,2,1,50,0,0
127930,-58.8235294117647,4,2,1,80,0,0
128215,-76.9230769230769,4,2,1,80,0,0
129073,-76.9230769230769,4,2,1,100,0,1
136715,-76.9230769230769,4,2,1,40,0,1
136787,-76.9230769230769,4,2,1,100,0,1
136858,-76.9230769230769,4,2,1,40,0,1
136930,-76.9230769230769,4,2,1,100,0,1
145001,-76.9230769230769,4,2,1,40,0,1
145073,-90.9090909090909,4,2,1,100,0,1
145573,-90.9090909090909,4,2,1,40,0,1
145644,-90.9090909090909,4,2,1,100,0,1
145715,-90.9090909090909,4,2,1,40,0,1
145787,-90.9090909090909,4,2,1,100,0,1
147358,-76.9230769230769,4,2,1,90,0,0
149287,-76.9230769230769,4,2,1,40,0,0
149358,-76.9230769230769,4,2,1,90,0,0
150430,-76.9230769230769,4,2,1,40,0,0
150501,-76.9230769230769,4,2,1,90,0,0
151287,-76.9230769230769,4,2,1,40,0,0
151358,-76.9230769230769,4,2,1,90,0,0
151430,-76.9230769230769,4,2,1,40,0,0
151501,-76.9230769230769,4,2,1,90,0,0
151573,-76.9230769230769,4,2,1,40,0,0
151644,-76.9230769230769,4,2,1,90,0,0
152573,-76.9230769230769,4,2,1,40,0,0
152644,-76.9230769230769,4,2,1,90,0,0
152715,-76.9230769230769,4,2,1,40,0,0
152787,-76.9230769230769,4,2,1,90,0,0
156073,-76.9230769230769,4,2,1,100,0,0
161215,-76.9230769230769,4,2,1,90,0,0
163573,-76.9230769230769,4,2,1,5,0,0
163644,-76.9230769230769,4,2,1,90,0,0
164144,-76.9230769230769,4,2,1,5,0,0
164215,-76.9230769230769,4,2,1,90,0,0
164430,-76.9230769230769,4,2,1,40,0,0
164501,-76.9230769230769,4,2,1,90,0,0
164573,-76.9230769230769,4,2,1,40,0,0
164644,-66.6666666666667,4,2,1,90,0,0
165644,-90.9090909090909,4,2,6,100,0,0
165930,-90.9090909090909,4,2,1,60,0,0
169858,-90.9090909090909,4,2,1,20,0,0
169930,-90.9090909090909,4,2,1,60,0,0
170215,-90.9090909090909,4,2,1,80,0,0
175073,-90.9090909090909,4,2,1,60,0,0
177073,-90.9090909090909,4,2,1,70,0,0
178930,-66.6666666666667,4,2,1,40,0,0
179073,-90.9090909090909,4,2,1,70,0,0
179358,-90.9090909090909,4,2,1,80,0,0
180501,-90.9090909090909,4,2,1,90,0,0
181644,-90.9090909090909,4,2,1,100,0,0
181715,-90.9090909090909,4,2,1,50,0,0
182073,-90.9090909090909,4,2,1,60,0,0
182358,-76.9230769230769,4,2,1,70,0,0
182644,-66.6666666666667,4,2,1,80,0,0
182930,-58.8235294117647,4,2,1,90,0,0
183573,-200,4,2,1,5,0,0
184930,-83.3333333333333,4,2,1,60,0,0
185073,-76.9230769230769,4,2,1,100,0,1
185501,-90.9090909090909,4,2,1,100,0,1
187001,-90.9090909090909,4,2,1,40,0,1
187073,-90.9090909090909,4,2,1,100,0,1
187144,-90.9090909090909,4,2,1,40,0,1
187215,-90.9090909090909,4,2,1,100,0,1
189001,-90.9090909090909,4,2,1,40,0,1
189073,-90.9090909090909,4,2,1,100,0,1
189144,-90.9090909090909,4,2,1,40,0,1
189215,-90.9090909090909,4,2,1,100,0,1
189287,-90.9090909090909,4,2,1,40,0,1
189358,-90.9090909090909,4,2,1,100,0,1
191858,-90.9090909090909,4,2,1,40,0,1
191930,-90.9090909090909,4,2,1,100,0,1
193001,-90.9090909090909,4,2,1,40,0,1
193073,-90.9090909090909,4,2,1,100,0,1
193287,-90.9090909090909,4,2,1,5,0,1
193358,-90.9090909090909,4,2,1,100,0,1
203358,-90.9090909090909,4,2,1,100,0,0
203644,-90.9090909090909,4,2,1,40,0,0
203787,-90.9090909090909,4,2,1,60,0,0
203930,-90.9090909090909,4,2,1,50,0,0
204073,-90.9090909090909,4,2,1,70,0,0
204215,-90.9090909090909,4,2,1,60,0,0
204358,-76.9230769230769,4,2,1,80,0,0
204644,-66.6666666666667,4,2,1,85,0,0
204930,-66.6666666666667,4,2,1,90,0,0
205215,-76.9230769230769,4,2,1,66,0,0
205644,-90.9090909090909,4,2,1,100,0,1
205715,-90.9090909090909,4,2,1,90,0,0
208144,-90.9090909090909,4,2,1,5,0,0
208215,-90.9090909090909,4,2,1,90,0,0
209573,-90.9090909090909,4,2,1,40,0,0
209644,-90.9090909090909,4,2,1,90,0,0
209715,-90.9090909090909,4,2,1,40,0,0
209787,-90.9090909090909,4,2,1,90,0,0
209858,-90.9090909090909,4,2,1,40,0,0
209930,-90.9090909090909,4,2,1,90,0,0
212144,-90.9090909090909,4,2,1,40,0,0
212215,-90.9090909090909,4,2,1,90,0,0
212287,-90.9090909090909,4,2,1,40,0,0
212358,-90.9090909090909,4,2,1,90,0,0
212430,-90.9090909090909,4,2,1,40,0,0
212501,-90.9090909090909,4,2,1,90,0,0
218430,-90.9090909090909,4,2,1,40,0,0
218501,-90.9090909090909,4,2,1,90,0,0
218715,-90.9090909090909,4,2,1,40,0,0
218787,-90.9090909090909,4,2,1,90,0,0
221930,-90.9090909090909,4,2,1,50,0,0
222073,-90.9090909090909,4,2,1,60,0,0
222358,-90.9090909090909,4,2,1,70,0,0
222644,-90.9090909090909,4,2,1,80,0,0
222930,-90.9090909090909,4,2,1,85,0,0
223215,-90.9090909090909,4,2,1,90,0,0

[Colours]
Combo1 : 192,192,192
Combo2 : 125,85,149
Combo3 : 69,69,69
Combo4 : 184,180,92
SliderBorder : 89,121,134
SliderTrackOverride : 20,20,20

[HitObjects]
256,196,501,5,0,0:0:0:0:
256,204,644,1,0,0:0:0:0:
168,88,930,1,0,3:0:0:0:
168,80,1073,6,0,P|234:50|313:55,1,150,4|2,1:0|0:0,0:0:0:0:
382,119,1501,2,0,P|374:169|392:211,1,75,8|0,0:0|0:0,0:0:0:0:
467,310,1787,2,0,P|476:269|461:218,1,75,10|2,3:2|3:2,0:0:0:0:
380,352,2073,1,8,0:0:0:0:
380,352,2215,6,0,L|218:330,1,150,2|0,3:2|3:0,0:0:0:0:
199,242,2644,2,0,L|216:165,1,75,8|0,0:0|0:0,0:0:0:0:
102,42,2930,1,10,3:2:0:0:
27,91,3073,2,0,L|58:175,1,75,2|8,3:2|0:0,0:0:0:0:
94,291,3358,6,0,P|169:291|238:340,1,150,2|2,3:2|0:0,0:0:0:0:
370,270,3787,2,0,L|340:364,1,75,10|0,0:0|0:0,0:0:0:0:
275,218,4073,2,0,L|242:129,1,75,10|2,3:2|3:2,0:0:0:0:
276,39,4358,1,8,0:0:0:0:
446,78,4501,6,0,P|472:131|451:225,1,150,2|8,3:2|0:0,0:0:0:0:
382,377,4930,1,10,0:0:0:0:
486,313,5073,1,8,0:0:0:0:
353,259,5215,2,0,P|306:253|271:265,1,75,2|8,0:0|0:0,0:0:0:0:
266,270,5430,1,8,0:0:0:0:
251,279,5501,1,8,0:0:0:0:
102,319,5644,6,0,B|64:272|64:272|82:181,1,150,4|2,0:0|3:2,0:0:0:0:
180,124,6073,2,0,P|212:135|257:134,1,75,8|0,0:0|0:0,0:0:0:0:
101,45,6358,2,0,L|9:34,1,75,10|2,3:2|3:2,0:0:0:0:
85,150,6644,1,8,0:0:0:0:
199,42,6787,6,0,P|257:87|251:171,1,150,2|0,3:2|3:0,0:0:0:0:
228,324,7215,2,0,P|278:304|330:310,1,75,10|0,0:2|0:0,0:0:0:0:
355,232,7501,2,0,P|404:251|434:275,1,75,10|10,3:2|0:0,0:0:0:0:
374,360,7787,1,8,0:0:0:0:
257,228,7930,6,0,L|272:144,1,75,0|0,3:2|0:0,0:0:0:0:
424,80,8215,1,2,3:0:0:0:
484,146,8358,1,10,0:0:0:0:
445,227,8501,1,0,0:0:0:0:
355,232,8644,2,0,L|366:309,1,75,10|2,3:2|3:2,0:0:0:0:
257,383,8930,1,8,0:0:0:0:
20,336,9073,6,2,B|76:386|76:386|173:368,1,150,0|10,3:1|3:2,0:0:0:0:
197,290,9501,2,0,P|186:254|161:227,1,75,10|8,0:0|3:2,0:0:0:0:
336,300,9787,2,0,P|320:326|319:349,3,37.5,10|8|8|8,0:0|0:0|0:0|0:0,0:0:0:0:
314,345,10073,1,8,0:0:0:0:
312,355,10144,1,8,0:0:0:0:
307,366,10215,6,0,P|291:283|312:194,1,150,4|2,0:0|3:0,0:0:0:0:
262,133,10644,2,0,P|300:111|347:110,1,75,10|0,0:0|0:0,0:0:0:0:
451,211,10930,2,0,P|402:201|363:173,1,75,10|0,3:2|3:2,0:0:0:0:
418,105,11215,1,10,0:2:0:0:
501,281,11358,6,0,P|468:320|358:344,1,150,0|0,3:0|3:0,0:0:0:0:
247,245,11787,2,0,L|197:218,3,37.5,10|0|0|0,0:0|0:0|0:0|0:0,0:0:0:0:
176,234,12073,2,0,P|162:266|165:328,1,75,10|8,3:2|3:2,0:0:0:0:
256,366,12358,1,10,0:0:0:0:
330,213,12501,6,0,B|352:157|352:157|309:48,1,150,0|2,3:0|3:2,0:0:0:0:
189,26,12930,2,0,L|113:20,1,75,10|0,0:0|0:0,0:0:0:0:
0,141,13215,2,0,L|89:121,1,75,10|2,3:2|3:2,0:0:0:0:
168,212,13501,1,8,0:0:0:0:
168,212,13644,6,0,P|101:242|66:309,1,150,2|10,3:2|3:2,0:0:0:0:
158,384,14073,1,10,3:2:0:0:
205,277,14215,1,8,0:0:0:0:
283,376,14358,2,0,P|337:374|370:349,1,75,2|8,3:2|0:0,0:0:0:0:
379,352,14573,1,8,0:0:0:0:
379,352,14644,1,8,0:0:0:0:
463,167,14787,6,0,B|498:222|498:222|472:314,1,150,4|2,0:0|3:2,0:0:0:0:
391,251,15215,2,0,P|338:247|307:262,1,75,8|0,0:0|0:0,0:0:0:0:
159,334,15501,2,0,P|214:322|249:295,1,75,10|2,3:2|3:2,0:0:0:0:
229,205,15787,1,8,0:0:0:0:
229,205,15930,6,0,L|208:25,1,150,2|2,3:2|3:2,0:0:0:0:
121,56,16358,2,0,B|89:39|89:39|34:26,1,75,10|0,0:0|0:0,0:0:0:0:
48,184,16644,2,0,B|86:182|86:182|150:150,1,75,10|8,3:2|3:2,0:0:0:0:
7,107,16930,1,8,0:0:0:0:
33,267,17073,6,0,B|43:357|43:357,1,75,2|0,3:2|0:0,0:0:0:0:
241,361,17358,1,2,3:2:0:0:
247,258,17501,1,10,0:2:0:0:
164,302,17644,1,0,0:0:0:0:
267,263,17787,2,0,L|278:182,1,75,10|2,0:0|0:0,0:0:0:0:
373,39,18073,1,8,0:0:0:0:
508,134,18215,6,0,P|447:177|355:164,1,150,0|0,3:0|3:0,0:0:0:0:
218,89,18644,2,0,P|260:76|308:92,1,75,8|0,0:0|0:0,0:0:0:0:
362,268,18930,1,8,0:0:0:0:
362,268,19001,1,8,0:0:0:0:
362,268,19073,2,0,L|353:328,4,37.5,8|8|8|8|0,0:0|0:0|0:0|0:0|3:0,0:0:0:0:
417,138,19644,5,0,0:0:0:0:
417,138,19787,2,0,P|450:132|473:137,1,44.999998626709,0|0,3:0|0:0,0:0:0:0:
350,179,20073,2,0,P|328:153|321:131,1,44.999998626709,0|0,3:0|0:0,0:0:0:0:
419,214,20358,2,0,P|407:245|391:262,1,44.999998626709,0|0,3:0|0:0,0:0:0:0:
307,299,20644,6,0,L|252:283,1,44.999998626709,0|0,3:0|0:0,0:0:0:0:
215,366,20930,2,0,L|164:355,1,44.999998626709,0|0,3:0|0:0,0:0:0:0:
164,241,21215,2,0,L|115:227,1,44.999998626709,0|0,3:0|0:0,0:0:0:0:
78,370,21501,2,0,L|29:356,1,44.999998626709,0|0,3:0|0:0,0:0:0:0:
37,166,21787,5,0,3:0:0:0:
37,166,21930,1,0,0:0:0:0:
114,120,22073,2,0,L|172:141,1,44.999998626709,0|0,3:0|0:0,0:0:0:0:
350,91,22358,5,0,3:0:0:0:
350,91,22501,1,0,0:0:0:0:
273,45,22644,2,0,L|215:66,1,44.999998626709,0|0,3:0|0:0,0:0:0:0:
164,197,22930,6,0,P|190:216|215:220,1,44.999998626709,0|0,3:0|0:0,0:0:0:0:
348,187,23215,2,0,P|322:168|297:164,1,44.999998626709,0|0,3:0|0:0,0:0:0:0:
260,284,23501,2,0,P|275:267|283:246,1,44.999998626709,0|0,3:0|0:0,0:0:0:0:
251,99,23787,2,0,P|236:116|228:137,1,44.999998626709,0|0,3:0|0:0,0:0:0:0:
333,309,24073,5,2,3:0:0:0:
411,331,24215,1,2,0:3:0:0:
479,280,24358,2,0,L|464:227,1,44.999998626709,2|2,3:0|0:3,0:0:0:0:
356,168,24644,5,2,3:3:0:0:
288,202,24787,1,0,0:3:0:0:
242,143,24930,2,0,L|252:88,1,44.999998626709,2|2,3:0|0:3,0:0:0:0:
413,41,25215,5,2,3:0:0:0:
443,34,25358,1,0,0:0:0:0:
474,26,25501,2,0,P|490:51|490:82,1,44.999998626709,2|0,3:0|0:0,0:0:0:0:
476,168,25787,2,0,P|442:172|423:188,1,44.999998626709,2|0,3:0|0:3,0:0:0:0:
334,321,26073,2,0,P|360:308|380:288,1,44.999998626709,2|0,3:0|0:0,0:0:0:0:
301,157,26358,5,2,0:3:0:0:
281,187,26501,1,2,0:3:0:0:
272,222,26644,1,2,0:3:0:0:
273,258,26787,1,2,0:3:0:0:
378,255,26930,5,2,3:0:0:0:
354,232,27073,1,0,0:0:0:0:
229,351,27215,5,2,0:1:0:0:
255,332,27358,1,0,0:0:0:0:
201,184,27501,6,0,L|174:285,2,82.5000025177003,8|8|8,0:0|0:0|3:2,0:0:0:0:
128,105,27930,1,8,0:0:0:0:
39,165,28073,2,0,L|20:122,2,41.2500012588501,8|8|0,0:2|0:0|3:0,0:0:0:0:
105,272,28358,1,8,0:0:0:0:
105,272,28501,6,0,P|160:304|290:285,1,194.999991073609,4|2,0:0|3:2,0:0:0:0:
420,184,28930,2,0,P|382:161|318:160,1,97.4999955368044,10|0,0:0|3:0,0:0:0:0:
165,121,29215,2,0,B|148:75|148:75|164:10,1,97.4999955368044,2|2,3:2|0:0,0:0:0:0:
265,12,29501,1,8,0:0:0:0:
238,197,29644,6,0,B|176:249|101:205|101:205|145:255,1,194.999991073609,2|2,3:2|3:2,0:0:0:0:
149,271,30001,1,0,0:0:0:0:
149,271,30073,1,10,0:0:0:0:
173,383,30215,1,0,0:0:0:0:
286,343,30358,2,0,L|240:329,4,48.7499977684022,2|0|10|0|8,3:2|0:0|0:2|0:0|0:0,0:0:0:0:
401,237,30787,6,0,L|447:221,4,48.7499977684022,2|0|0|0|2,3:2|0:0|0:0|0:0|3:0,0:0:0:0:
302,99,31215,1,10,0:0:0:0:
375,14,31358,1,0,0:0:0:0:
474,59,31501,2,0,L|496:159,1,97.4999955368044,2|2,3:2|3:0,0:0:0:0:
447,306,31787,1,8,0:0:0:0:
313,206,31930,6,0,P|259:239|298:337,1,165.000005035401,2|0,3:2|3:2,0:0:0:0:
299,340,32287,1,0,3:0:0:0:
299,340,32358,2,0,P|338:340|374:307,1,82.5000025177003,10|0,0:0|0:0,0:0:0:0:
399,167,32644,1,2,3:2:0:0:
214,148,32787,2,0,L|154:160,3,41.2500012588501,8|8|8|8,0:0|0:0|0:0|0:0,0:0:0:0:
146,171,33073,6,0,P|69:161|19:246,1,165.000005035401,4|0,0:0|3:0,0:0:0:0:
64,319,33501,1,8,0:0:0:0:
64,319,33787,1,0,3:2:0:0:
166,285,33930,1,0,3:0:0:0:
139,380,34073,1,8,0:0:0:0:
100,233,34215,6,0,B|109:174|109:174|82:134|82:134|91:61,1,165.000005035401,0|0,3:2|0:0,0:0:0:0:
255,70,34644,1,8,0:0:0:0:
255,70,34930,1,0,3:0:0:0:
327,174,35073,1,0,0:0:0:0:
376,60,35215,1,8,0:0:0:0:
235,167,35358,6,0,B|243:228|243:228|218:276|218:276|228:324,1,165.000005035401,0|2,3:0|3:0,0:0:0:0:
369,380,35787,1,10,0:0:0:0:
458,312,35930,1,2,3:0:0:0:
458,312,36001,1,0,3:0:0:0:
458,312,36073,2,0,P|456:271|434:235,1,82.5000025177003,10|0,0:0|3:0,0:0:0:0:
299,49,36358,5,10,0:0:0:0:
299,49,36501,2,0,P|291:127|357:194,1,165.000005035401,2|0,3:0|3:0,0:0:0:0:
369,197,36858,1,0,3:0:0:0:
369,197,36930,2,0,P|416:190|456:153,1,82.5000025177003,10|0,0:0|3:0,0:0:0:0:
403,0,37215,2,0,P|393:40|398:58,5,41.2500012588501,8|8|8|8|8|8,0:0|0:0|0:0|0:0|0:0|0:0,0:0:0:0:
470,90,37644,6,0,B|419:71|419:71|270:93,1,165.000005035401,4|0,0:0|3:0,0:0:0:0:
204,0,38073,1,10,0:0:0:0:
131,71,38215,1,0,3:0:0:0:
131,71,38287,1,0,3:0:0:0:
131,71,38358,2,0,L|148:124,2,41.2500012588501,2|0|2,3:2|3:0|3:2,0:0:0:0:
227,179,38644,1,8,0:0:0:0:
115,254,38787,6,0,L|24:235,1,82.5000025177003,2|0,3:2|3:0,0:0:0:0:
147,358,39073,1,0,3:0:0:0:
232,298,39215,2,0,P|277:284|331:293,1,82.5000025177003,10|0,0:0|3:0,0:0:0:0:
327,294,39430,1,0,3:0:0:0:
342,302,39501,2,0,L|353:359,2,41.2500012588501,2|0|2,3:2|3:0|3:2,0:0:0:0:
415,192,39787,2,0,L|460:173,2,41.2500012588501,10|0|2,0:2|0:0|3:2,0:0:0:0:
269,174,40073,6,0,P|248:138|247:77,1,82.5000025177003,0|2,3:0|3:2,0:0:0:0:
364,9,40358,2,0,P|360:54|336:94,1,82.5000025177003,10|0,0:2|3:0,0:0:0:0:
335,99,40573,1,0,3:0:0:0:
330,112,40644,2,0,L|400:118,2,41.2500012588501,2|0|2,3:2|3:0|3:2,0:0:0:0:
235,17,40930,1,8,0:0:0:0:
162,131,41073,5,2,3:2:0:0:
85,161,41215,1,0,3:0:0:0:
36,94,41358,1,0,3:0:0:0:
85,28,41501,1,10,0:2:0:0:
163,55,41644,1,0,3:0:0:0:
208,206,41787,6,0,L|190:316,1,82.5000025177003,2|10,3:2|0:0,0:0:0:0:
190,297,42001,1,8,0:0:0:0:
183,307,42073,1,10,0:0:0:0:
176,317,42144,1,8,0:0:0:0:
168,327,42215,6,0,P|232:317|336:363,1,165.000005035401,4|2,0:0|3:2,0:0:0:0:
476,299,42644,2,0,P|428:284|385:247,1,82.5000025177003,10|0,0:0|3:0,0:0:0:0:
267,197,42930,2,0,P|316:165|341:122,1,82.5000025177003,2|2,3:2|3:2,0:0:0:0:
418,24,43215,1,10,0:0:0:0:
448,125,43358,6,0,L|266:74,1,165.000005035401,2|2,3:2|3:2,0:0:0:0:
102,39,43787,2,0,L|49:68,2,41.2500012588501,10|0|10,0:0|0:0|0:0,0:0:0:0:
212,140,44073,2,0,L|251:153,2,41.2500012588501,2|8|0,3:2|0:0|3:0,0:0:0:0:
78,200,44358,1,10,0:0:0:0:
181,220,44501,6,0,P|229:256|242:364,1,165.000005035401,2|2,3:2|3:2,0:0:0:0:
353,273,44930,2,0,P|403:271|458:293,1,82.5000025177003,10|0,0:0|3:0,0:0:0:0:
457,294,45144,1,0,3:0:0:0:
457,294,45215,2,0,P|446:239|450:201,1,82.5000025177003,2|2,3:2|3:2,0:0:0:0:
458,32,45501,6,0,L|411:44,3,41.2500012588501,8|0|10|0,0:0|0:0|0:0|0:0,0:0:0:0:
303,77,45787,2,0,L|366:101,3,41.2500012588501,0|0|2|0,0:0|0:0|0:0|0:0,0:0:0:0:
393,168,46073,2,0,L|387:218,3,41.2500012588501,10|0|0|0,0:0|0:0|0:0|0:0,0:0:0:0:
333,308,46358,6,0,L|317:266,2,41.2500012588501,10|8|10,0:0|0:0|0:0,0:0:0:0:
447,325,46644,1,8,0:0:0:0:
265,381,46787,6,0,P|216:347|100:366,1,165.000005035401,4|0,0:0|3:0,0:0:0:0:
47,243,47215,1,10,0:0:0:0:
106,158,47358,1,0,3:0:0:0:
117,145,47430,1,0,3:0:0:0:
128,133,47501,2,0,L|116:75,2,41.2500012588501,2|0|2,3:2|3:0|3:2,0:0:0:0:
256,193,47787,1,8,0:2:0:0:
322,114,47930,6,0,L|305:27,1,82.5000025177003,2|0,3:2|3:0,0:0:0:0:
359,213,48215,1,0,3:2:0:0:
425,134,48358,2,0,L|408:47,1,82.5000025177003,10|0,0:0|3:0,0:0:0:0:
403,37,48573,1,0,3:0:0:0:
396,22,48644,2,0,L|451:7,2,41.2500012588501,2|0|2,3:2|3:0|3:2,0:0:0:0:
323,97,48930,1,8,0:0:0:0:
188,37,49073,6,0,L|81:23,1,82.5000025177003,2|0,3:2|3:0,0:0:0:0:
236,112,49358,1,0,3:0:0:0:
151,145,49501,2,0,L|44:131,1,82.5000025177003,10|0,0:0|3:0,0:0:0:0:
52,132,49715,1,0,3:0:0:0:
35,130,49787,2,0,L|25:191,2,41.2500012588501,2|0|2,3:2|3:0|3:2,0:0:0:0:
131,225,50073,1,10,0:0:0:0:
57,316,50215,5,2,3:2:0:0:
161,231,50358,1,0,3:0:0:0:
203,384,50501,5,2,3:2:0:0:
185,236,50644,1,10,0:0:0:0:
337,275,50787,5,0,3:0:0:0:
337,275,50858,1,0,3:0:0:0:
337,275,50930,2,0,P|393:273|485:314,1,112.500004291535,2|4,3:2|0:0,0:0:0:0:
447,289,51358,6,0,P|472:212|438:104,1,165.000005035401,4|0,0:0|3:0,0:0:0:0:
374,52,51787,2,0,P|327:76|276:81,1,82.5000025177003,10|0,0:2|3:0,0:0:0:0:
140,103,52073,1,10,3:2:0:0:
199,185,52215,2,0,L|317:194,1,82.5000025177003,0|8,3:2|0:2,0:0:0:0:
69,19,52501,6,0,P|39:67|60:181,1,165.000005035401,2|0,3:2|3:0,0:0:0:0:
115,347,52930,2,0,P|135:304|128:246,1,82.5000025177003,10|0,0:2|0:0,0:0:0:0:
42,284,53215,1,10,3:2:0:0:
42,284,53358,1,2,3:2:0:0:
119,133,53501,1,8,0:0:0:0:
278,209,53644,5,4,3:2:0:0:
278,209,53930,1,0,3:0:0:0:
384,237,54073,2,0,L|403:354,1,82.5000025177003,8|0,3:2|3:0,0:0:0:0:
427,147,54358,6,0,L|408:80,3,41.2500012588501,8|8|8|0,0:0|0:0|0:0|0:0,0:0:0:0:
313,63,54644,2,0,L|335:123,3,41.2500012588501,8|8|8|0,0:0|0:0|0:0|0:0,0:0:0:0:
250,159,54930,2,0,L|231:92,3,41.2500012588501,8|8|8|0,0:0|0:0|0:0|0:0,0:0:0:0:
152,62,55215,1,8,0:0:0:0:
131,66,55287,1,8,0:0:0:0:
111,70,55358,1,8,0:0:0:0:
90,75,55430,1,8,0:0:0:0:
70,81,55501,2,0,P|46:126|61:189,1,82.5000025177003,8|0,0:0|0:0,0:0:0:0:
101,265,55787,1,0,0:0:0:0:
101,265,55930,6,0,L|333:239,1,209.999993591309,6|0,0:0|3:0,0:0:0:0:
483,291,56358,1,8,0:0:0:0:
334,339,56501,2,0,L|309:388,2,48.7499977684022,0|0|0,0:0|0:0|3:2,0:0:0:0:
500,304,56787,1,0,3:2:0:0:
385,246,56930,1,8,3:2:0:0:
497,163,57073,6,0,B|436:151|436:151|399:103|399:103|302:86,1,194.999991073609,0|0,0:0|3:0,0:0:0:0:
199,63,57501,1,8,0:0:0:0:
303,0,57644,1,0,3:0:0:0:
182,68,57787,2,0,P|160:122|161:184,1,97.4999955368044,0|0,3:2|0:0,0:0:0:0:
250,344,58073,1,8,3:2:0:0:
140,287,58215,2,0,L|30:302,1,97.4999955368044,0|0,3:0|0:0,0:0:0:0:
182,190,58501,5,0,3:3:0:0:
342,225,58644,1,8,0:0:0:0:
237,351,58787,1,0,0:0:0:0:
182,190,58930,1,0,3:0:0:0:
366,244,59073,2,0,L|483:271,1,97.4999955368044,0|8,3:0|0:0,0:0:0:0:
462,266,59358,6,0,P|408:204|397:80,1,194.999991073609,0|0,3:0|3:0,0:0:0:0:
484,20,59787,2,0,P|494:97|467:135,1,97.4999955368044,8|8,0:0|0:0,0:0:0:0:
300,186,60073,2,0,L|197:202,1,97.4999955368044,0|8,3:0|0:0,0:0:0:0:
137,279,60286,1,8,0:0:0:0:
116,292,60358,1,8,0:0:0:0:
93,296,60429,1,8,0:0:0:0:
69,293,60501,6,0,B|59:227|59:227|83:174|83:174|66:93,1,194.999991073609,4|0,0:0|3:0,0:0:0:0:
141,44,60930,2,0,P|211:43|250:79,1,97.4999955368044,8|0,0:0|0:0,0:0:0:0:
372,201,61215,1,0,3:0:0:0:
276,151,61358,1,0,3:0:0:0:
365,92,61501,1,8,0:0:0:0:
297,242,61644,6,0,P|248:244|197:206,1,97.4999955368044,0|0,3:0|0:0,0:0:0:0:
414,324,61930,1,0,3:0:0:0:
414,324,62073,2,0,P|465:328|531:294,1,97.4999955368044,8|0,0:0|0:0,0:0:0:0:
380,241,62358,1,0,3:0:0:0:
302,372,62501,1,0,3:0:0:0:
161,313,62644,1,8,0:0:0:0:
249,315,62787,6,0,B|276:249|276:249|234:126,1,194.999991073609,0|0,3:0|3:0,0:0:0:0:
118,55,63215,1,8,0:0:0:0:
217,147,63358,1,0,0:0:0:0:
95,187,63501,2,0,P|49:179|3:143,1,97.4999955368044,0|8,3:0|3:2,0:0:0:0:
209,50,63787,1,8,0:0:0:0:
209,50,63930,6,0,P|281:25|398:103,1,194.999991073609,0|0,3:0|3:0,0:0:0:0:
439,244,64358,2,0,L|457:199,3,48.7499977684022,8|8|8|8,0:0|0:0|0:0|0:0,0:0:0:0:
342,269,64644,2,0,L|360:314,3,48.7499977684022,8|8|8|0,0:3|0:3|0:3|3:3,0:0:0:0:
451,369,64930,1,0,3:3:0:0:
235,373,65073,6,0,B|208:314|208:314|228:250|228:250|203:162,1,194.999991073609,4|0,0:0|3:0,0:0:0:0:
33,124,65501,1,8,0:0:0:0:
104,201,65644,2,0,L|63:241,2,48.7499977684022,0|0|0,0:0|0:0|3:0,0:0:0:0:
33,124,65930,1,8,3:2:0:0:
67,18,66073,1,8,3:2:0:0:
195,4,66215,6,0,P|276:26|409:12,1,194.999991073609,0|0,3:0|3:0,0:0:0:0:
489,111,66644,2,0,L|474:217,1,97.4999955368044,8|0,0:0|0:0,0:0:0:0:
350,291,66930,1,0,3:0:0:0:
458,225,67073,1,8,3:2:0:0:
263,169,67215,1,8,3:2:0:0:
176,269,67358,6,0,P|194:338|234:379,1,97.4999955368044,0|0,3:0|0:0,0:0:0:0:
271,256,67644,1,0,3:0:0:0:
93,218,67787,2,0,L|117:108,1,97.4999955368044,8|0,0:0|0:0,0:0:0:0:
345,92,68073,1,8,0:0:0:0:
234,158,68215,1,8,3:2:0:0:
231,20,68358,1,8,3:2:0:0:
438,49,68501,6,0,B|457:120|423:186|423:186|393:112,1,194.999991073609,0|0,3:0|3:0,0:0:0:0:
323,19,68930,2,0,P|265:7|216:30,1,97.4999955368044,8|0,0:0|0:0,0:0:0:0:
77,144,69215,2,0,P|133:181|183:183,1,97.4999955368044,0|8,3:0|0:0,0:0:0:0:
254,159,69430,1,8,0:0:0:0:
276,148,69502,1,8,0:0:0:0:
293,131,69573,1,8,0:0:0:0:
299,107,69644,6,0,B|280:227|280:227|339:319,1,194.999991073609,4|0,0:0|3:0,0:0:0:0:
396,195,70073,1,8,0:0:0:0:
165,348,70358,1,0,3:0:0:0:
165,348,70501,1,0,3:0:0:0:
63,273,70644,2,0,L|72:165,1,97.4999955368044,8|0,0:0|3:0,0:0:0:0:
232,16,70930,6,0,L|212:135,1,97.4999955368044,0|0,0:0|3:0,0:0:0:0:
11,98,71215,2,0,P|78:81|138:109,1,97.4999955368044,8|0,0:0|0:0,0:0:0:0:
223,235,71501,2,0,P|283:241|335:217,1,97.4999955368044,0|0,3:0|3:0,0:0:0:0:
346,160,71715,1,0,0:0:0:0:
333,139,71786,1,8,0:0:0:0:
480,29,71930,6,0,L|461:223,1,194.999991073609,0|0,3:0|3:0,0:0:0:0:
425,322,72358,2,0,P|365:334|315:314,1,97.4999955368044,8|0,0:0|0:0,0:0:0:0:
317,316,72573,1,0,0:0:0:0:
302,308,72644,2,0,L|204:328,1,97.4999955368044,0|0,3:0|3:0,0:0:0:0:
45,263,72930,1,8,0:0:0:0:
45,263,73073,6,0,B|113:248|113:248|153:202|153:202|240:187,1,194.999991073609,0|0,3:0|3:0,0:0:0:0:
355,48,73501,2,0,P|300:54|260:99,1,97.4999955368044,8|8,0:0|0:0,0:0:0:0:
388,236,73787,1,8,0:0:0:0:
392,222,73858,1,8,0:0:0:0:
396,208,73930,1,8,0:0:0:0:
400,194,74001,1,8,0:0:0:0:
405,180,74073,2,0,L|424:125,1,48.7499977684022,8|8,0:0|0:0,0:0:0:0:
457,19,74215,5,6,0:0:0:0:
309,116,82930,6,0,L|298:159,3,41.2500012588501,8|8|8|8,0:0|0:0|0:0|0:0,0:0:0:0:
225,195,83215,1,8,0:0:0:0:
232,214,83287,1,8,0:0:0:0:
239,233,83358,6,0,P|190:253|84:232,1,165.000005035401,4|2,3:2|3:2,0:0:0:0:
184,123,83787,2,0,L|292:102,1,82.5000025177003,8|0,0:0|0:0,0:0:0:0:
338,229,84073,2,0,L|315:320,1,82.5000025177003,10|0,3:2|3:0,0:0:0:0:
464,190,84358,1,10,0:0:0:0:
464,190,84501,6,0,B|488:106|488:106|450:16,1,165.000005035401,0|0,3:0|3:0,0:0:0:0:
301,19,84930,2,0,L|242:39,3,41.2500012588501,10|0|0|0,0:0|0:0|0:0|0:0,0:0:0:0:
203,96,85215,2,0,L|149:79,3,41.2500012588501,10|0|0|0,3:2|0:0|3:0|0:0,0:0:0:0:
94,27,85501,1,10,0:0:0:0:
34,151,85644,6,0,B|16:214|16:214|55:334,1,165.000005035401,0|2,3:0|3:2,0:0:0:0:
152,222,86073,2,0,P|213:225|260:254,1,82.5000025177003,10|0,0:0|0:0,0:0:0:0:
364,336,86358,2,0,P|304:336|260:305,1,82.5000025177003,10|2,3:2|3:2,0:0:0:0:
318,203,86644,1,8,0:0:0:0:
189,307,86787,6,0,L|176:125,1,165.000005035401,2|8,3:2|0:0,0:0:0:0:
279,84,87215,1,10,0:0:0:0:
157,9,87358,1,8,0:0:0:0:
269,105,87501,1,2,3:0:0:0:
128,146,87644,2,8,P|103:115|96:91,3,41.2500012588501,8|8|8|8,0:0|0:0|0:0|0:0,0:0:0:0:
98,95,87930,6,0,B|106:152|106:152|86:200|86:200|103:281,1,165.000005035401,4|2,3:2|3:2,0:0:0:0:
124,339,88358,2,0,L|213:365,1,82.5000025177003,8|0,0:0|0:0,0:0:0:0:
368,317,88644,1,10,3:2:0:0:
311,241,88787,2,0,L|227:263,1,82.5000025177003,2|8,3:2|0:0,0:0:0:0:
95,189,89073,6,0,P|126:162|260:154,1,165.000005035401,2|0,3:2|3:0,0:0:0:0:
245,149,89501,2,0,L|222:54,1,82.5000025177003,10|0,0:0|0:0,0:0:0:0:
379,12,89787,1,10,3:2:0:0:
348,137,89930,1,8,3:2:0:0:
399,23,90073,1,10,0:0:0:0:
455,179,90215,6,0,P|418:211|376:219,1,82.5000025177003,0|0,3:0|0:0,0:0:0:0:
165,274,90501,1,2,3:0:0:0:
165,274,90573,1,0,0:0:0:0:
165,274,90644,2,0,P|214:254|255:261,1,82.5000025177003,10|0,0:0|0:0,0:0:0:0:
347,369,90930,2,0,B|305:385|305:385|325:233,1,165.000005035401,10|8,3:2|0:0,0:0:0:0:
227,20,91358,6,0,B|228:59|207:83|207:83|223:136|223:136|208:153|199:209,1,165.000005035401,2|0,3:2|3:0,0:0:0:0:
206,174,91787,2,0,P|172:141|133:130,1,82.5000025177003,10|0,0:0|3:0,0:0:0:0:
279,269,92073,1,10,0:0:0:0:
320,266,92144,1,8,0:0:0:0:
348,239,92215,2,0,P|358:217|366:176,4,41.2500012588501,8|8|8|8|0,0:0|0:0|0:0|0:0|3:0,0:0:0:0:
70,269,92787,5,0,0:0:0:0:
70,269,92930,2,0,P|98:285|117:287,1,44.999998626709,0|0,3:0|0:0,0:0:0:0:
214,199,93215,2,0,P|186:215|174:230,1,44.999998626709,0|0,3:0|0:0,0:0:0:0:
200,363,93501,2,0,P|199:330|192:313,1,44.999998626709,0|0,3:0|0:0,0:0:0:0:
100,180,93787,6,0,L|51:194,1,44.999998626709,0|0,3:0|0:0,0:0:0:0:
186,113,94073,2,0,L|130:92,1,44.999998626709,0|0,3:0|0:0,0:0:0:0:
276,180,94358,2,0,L|241:219,1,44.999998626709,0|0,3:0|0:0,0:0:0:0:
362,78,94644,2,0,L|312:46,1,44.999998626709,0|0,3:0|0:0,0:0:0:0:
454,224,94930,6,0,P|451:260|440:284,1,44.999998626709,0|0,3:0|0:0,0:0:0:0:
360,335,95215,2,0,P|329:334|307:320,1,44.999998626709,0|0,3:0|0:0,0:0:0:0:
174,121,95501,2,0,P|207:119|231:127,1,44.999998626709,0|0,3:0|0:0,0:0:0:0:
318,174,95787,2,0,P|338:203|342:219,1,44.999998626709,0|0,3:0|0:0,0:0:0:0:
239,357,96073,5,0,3:0:0:0:
173,299,96215,1,0,0:0:0:0:
228,235,96358,1,0,3:0:0:0:
291,292,96501,1,0,0:0:0:0:
173,299,96644,5,0,3:0:0:0:
291,292,96787,1,0,0:0:0:0:
173,299,96930,2,0,L|115:287,1,44.999998626709,0|0,3:0|0:0,0:0:0:0:
33,208,97215,6,0,L|39:164,1,44.999998626709,2|2,3:3|0:3,0:0:0:0:
185,171,97501,2,0,L|171:129,1,44.999998626709,2|2,3:3|0:3,0:0:0:0:
71,72,97787,2,0,L|79:28,1,44.999998626709,2|0,3:3|0:0,0:0:0:0:
244,65,98073,2,0,L|223:26,1,44.999998626709,2|2,3:3|0:3,0:0:0:0:
412,61,98358,6,0,L|381:94,1,44.999998626709,2|0,3:3|0:3,0:0:0:0:
445,190,98644,2,0,L|510:194,1,44.999998626709,0|2,3:0|0:3,0:0:0:0:
435,320,98930,2,0,L|404:288,1,44.999998626709,2|2,3:3|0:3,0:0:0:0:
299,318,99215,2,0,L|293:374,1,44.999998626709,2|0,3:0|0:0,0:0:0:0:
160,244,99501,5,2,3:0:0:0:
148,200,99644,1,2,0:3:0:0:
168,159,99787,1,2,3:0:0:0:
159,114,99930,1,2,0:3:0:0:
242,73,100073,5,2,3:0:0:0:
239,107,100215,1,0,0:0:0:0:
89,148,100358,5,2,0:1:0:0:
75,122,100501,1,0,0:0:0:0:
225,207,100644,5,8,0:0:0:0:
308,140,100787,2,0,L|392:119,1,75,8|8,0:0|0:0,0:0:0:0:
398,346,101073,2,0,P|361:313|314:299,1,75,8|8,0:0|3:2,0:0:0:0:
312,308,101287,1,8,0:0:0:0:
281,312,101359,2,0,L|279:351,2,37.5,8|0|0,0:0|0:0|0:0,0:0:0:0:
141,153,101644,6,0,P|88:188|125:315,1,194.999991073609,4|2,0:0|3:0,0:0:0:0:
106,304,102073,2,0,L|220:276,1,97.4999955368044,10|0,0:0|0:0,0:0:0:0:
337,203,102358,1,2,3:0:0:0:
421,293,102501,1,0,3:0:0:0:
313,320,102644,1,10,0:0:0:0:
313,185,102787,6,0,L|333:50,1,97.4999955368044,2|0,3:0|0:0,0:0:0:0:
419,162,103073,1,0,3:0:0:0:
240,226,103215,2,0,P|222:168|243:47,1,146.249993305207,10|0,0:0|0:0,0:0:0:0:
236,65,103501,2,0,L|175:40,4,48.7499977684022,2|0|10|0|8,3:0|0:0|0:0|0:0|0:0,0:0:0:0:
407,54,103930,6,0,L|461:23,4,48.7499977684022,2|0|0|0|2,3:0|0:0|0:0|0:0|3:0,0:0:0:0:
319,140,104358,1,10,0:0:0:0:
440,203,104501,1,2,0:0:0:0:
334,278,104644,2,0,L|343:377,1,97.4999955368044,2|0,3:0|3:0,0:0:0:0:
419,177,104930,5,10,0:0:0:0:
272,216,105073,2,0,L|168:194,1,82.5000025177003,2|0,3:0|0:0,0:0:0:0:
43,228,105358,1,2,3:0:0:0:
43,240,105430,1,0,0:0:0:0:
42,252,105501,2,0,P|80:215|82:104,1,165.000005035401,8|0,0:0|0:0,0:0:0:0:
147,283,105930,1,8,3:0:0:0:
163,295,106001,1,8,0:0:0:0:
179,307,106073,1,8,0:0:0:0:
195,318,106144,1,8,0:0:0:0:
211,330,106215,6,0,B|282:306|282:306|375:372,1,165.000005035401,4|0,0:0|3:0,0:0:0:0:
477,287,106644,1,8,0:0:0:0:
477,287,106930,1,0,3:0:0:0:
399,205,107073,1,0,3:0:0:0:
485,137,107215,1,8,0:0:0:0:
402,233,107358,6,0,P|341:214|282:115,1,165.000005035401,0|0,3:0|3:0,0:0:0:0:
386,32,107787,1,8,0:0:0:0:
386,32,108073,2,0,L|382:123,1,82.5000025177003,0|0,3:0|3:0,0:0:0:0:
307,226,108358,1,8,0:0:0:0:
179,163,108501,6,0,P|104:150|28:104,1,165.000005035401,0|2,3:0|3:0,0:0:0:0:
62,289,108930,2,0,P|122:289|159:261,1,82.5000025177003,10|2,0:0|0:0,0:0:0:0:
150,270,109144,1,0,0:0:0:0:
158,259,109215,2,0,L|156:357,1,82.5000025177003,10|2,3:2|3:0,0:0:0:0:
350,377,109501,1,8,0:0:0:0:
270,272,109644,6,0,B|231:214|231:214|240:100,1,165.000005035401,2|0,3:2|0:0,0:0:0:0:
242,103,110001,1,0,0:0:0:0:
245,85,110073,2,0,P|285:107|346:108,1,82.5000025177003,10|0,0:0|3:2,0:0:0:0:
445,32,110358,1,8,0:0:0:0:
441,52,110430,1,8,0:0:0:0:
437,72,110501,1,8,0:0:0:0:
510,156,110644,1,8,0:0:0:0:
417,253,110787,5,4,0:0:0:0:
417,253,111073,1,0,3:0:0:0:
325,309,111215,2,0,P|273:294|231:298,1,82.5000025177003,10|0,0:2|3:0,0:0:0:0:
233,316,111429,1,0,3:0:0:0:
224,334,111501,2,0,L|196:280,2,41.2500012588501,2|0|2,3:2|3:0|3:2,0:0:0:0:
226,171,111787,1,8,0:0:0:0:
87,144,111930,6,0,L|-6:159,1,82.5000025177003,2|0,3:2|3:0,0:0:0:0:
74,246,112215,1,0,3:0:0:0:
212,144,112358,2,0,L|197:36,1,82.5000025177003,10|0,0:2|3:0,0:0:0:0:
211,47,112573,1,0,3:0:0:0:
219,31,112644,2,0,L|266:21,2,41.2500012588501,2|0|2,3:2|3:2|3:2,0:0:0:0:
324,183,112930,1,10,0:0:0:0:
410,106,113073,6,0,P|435:63|428:-3,1,82.5000025177003,2|0,3:2|3:0,0:0:0:0:
336,35,113358,1,2,3:2:0:0:
324,183,113501,2,0,P|338:245|358:271,1,82.5000025177003,10|0,0:0|3:0,0:0:0:0:
360,268,113715,1,0,3:0:0:0:
373,274,113787,2,0,L|427:273,2,41.2500012588501,2|0|2,3:2|3:0|3:2,0:0:0:0:
292,366,114073,1,8,0:0:0:0:
121,294,114215,6,0,B|109:231|109:231|132:191|132:191|116:106,1,165.000005035401,2|2,3:2|3:2,0:0:0:0:
197,76,114644,2,0,P|234:58|259:22,1,82.5000025177003,10|0,0:2|3:0,0:0:0:0:
58,69,114930,1,2,3:2:0:0:
207,156,115073,2,0,L|264:148,3,41.2500012588501,8|8|8|8,0:0|0:0|0:0|0:0,0:0:0:0:
270,146,115358,6,0,P|302:211|406:242,1,165.000005035401,4|0,3:2|3:0,0:0:0:0:
400,234,115715,1,0,0:0:0:0:
417,225,115787,2,0,L|410:115,1,82.5000025177003,10|0,0:0|0:0,0:0:0:0:
282,59,116073,2,0,P|325:40|375:46,1,82.5000025177003,2|2,3:2|3:2,0:0:0:0:
196,143,116358,1,8,0:0:0:0:
196,143,116501,6,0,B|126:111|126:111|17:152,1,165.000005035401,2|2,3:2|3:2,0:0:0:0:
49,335,116930,2,0,P|100:328|130:307,1,82.5000025177003,10|8,0:0|0:0,0:0:0:0:
146,218,117215,1,2,3:2:0:0:
146,218,117287,1,8,3:2:0:0:
146,218,117358,1,0,3:0:0:0:
179,383,117501,1,10,0:2:0:0:
239,292,117644,6,0,B|285:306|285:306|356:283|356:283|419:303,1,165.000005035401,0|2,3:0|3:2,0:0:0:0:
478,212,118073,2,0,L|376:185,1,82.5000025177003,10|0,0:0|0:0,0:0:0:0:
384,176,118287,1,0,0:0:0:0:
372,163,118358,2,0,P|317:128|278:137,1,82.5000025177003,2|2,3:2|3:2,0:0:0:0:
124,226,118644,6,0,P|104:198|104:178,3,41.2500012588501,8|0|2|0,0:0|0:0|3:2|0:0,0:0:0:0:
33,138,118930,2,0,P|57:113|76:109,3,41.2500012588501,0|0|2|0,0:0|0:0|3:2|0:0,0:0:0:0:
111,39,119215,2,0,P|139:58|146:77,3,41.2500012588501,10|0|0|0,0:0|0:0|3:0|0:0,0:0:0:0:
232,57,119501,1,8,0:0:0:0:
240,67,119573,1,8,0:0:0:0:
247,78,119644,2,0,L|248:137,3,41.2500012588501,8|8|8|8,0:0|0:0|0:0|0:0,0:0:0:0:
247,147,119930,6,0,P|304:156|419:124,1,165.000005035401,4|0,3:2|3:0,0:0:0:0:
489,66,120358,1,10,0:0:0:0:
481,201,120501,1,0,3:0:0:0:
481,201,120573,1,0,3:0:0:0:
481,201,120644,2,0,L|469:260,2,41.2500012588501,2|0|2,3:2|3:0|3:2,0:0:0:0:
397,366,120930,2,0,L|374:250,1,82.5000025177003,8|2,0:0|3:2,0:0:0:0:
276,264,121215,5,0,3:0:0:0:
248,383,121358,1,0,3:0:0:0:
136,349,121501,2,0,P|118:302|115:239,1,82.5000025177003,10|0,0:2|3:0,0:0:0:0:
102,254,121715,1,0,3:0:0:0:
91,239,121787,2,0,L|28:233,2,41.2500012588501,2|0|2,3:2|3:0|3:2,0:0:0:0:
209,185,122073,1,8,0:0:0:0:
78,138,122215,6,0,P|32:112|-1:62,1,82.5000025177003,2|0,3:2|3:0,0:0:0:0:
220,215,122501,1,2,3:2:0:0:
168,88,122644,2,0,P|155:54|168:3,1,82.5000025177003,10|0,0:0|3:0,0:0:0:0:
179,15,122858,1,0,3:0:0:0:
194,20,122930,2,0,L|248:14,2,41.2500012588501,2|0|2,3:2|3:0|3:2,0:0:0:0:
333,168,123215,2,0,L|414:155,1,82.5000025177003,8|2,0:0|3:2,0:0:0:0:
320,28,123501,5,0,3:0:0:0:
320,28,123644,1,2,3:2:0:0:
267,229,123787,2,0,L|281:328,1,82.5000025177003,10|0,0:2|3:0,0:0:0:0:
293,324,124001,1,0,3:0:0:0:
306,338,124073,6,0,P|360:311|417:310,1,112.500004291535,2|4,3:2|0:0,0:0:0:0:
411,309,124501,6,0,L|221:288,1,165.000005035401,4|0,0:0|3:0,0:0:0:0:
108,252,124930,2,0,L|120:347,1,82.5000025177003,8|0,0:0|0:0,0:0:0:0:
196,184,125215,2,0,L|216:74,1,82.5000025177003,8|0,3:2|3:0,0:0:0:0:
116,131,125501,1,8,0:0:0:0:
289,210,125644,6,0,P|342:219|405:200,1,82.5000025177003,0|0,3:0|0:0,0:0:0:0:
477,95,125930,1,0,0:0:0:0:
477,95,126073,2,0,P|418:115|390:149,1,82.5000025177003,8|8,0:0|0:0,0:0:0:0:
355,295,126358,1,8,3:2:0:0:
329,316,126430,1,8,0:0:0:0:
298,327,126501,1,8,0:0:0:0:
264,330,126573,1,8,0:0:0:0:
231,328,126644,1,8,0:0:0:0:
93,265,126787,6,0,L|106:143,1,104.999996795654,0|0,0:0|0:0,0:0:0:0:
163,113,127215,2,0,P|178:140|175:172,1,52.4999983978272,0|0,0:0|0:0,0:0:0:0:
163,113,127501,2,0,P|210:93|277:99,1,104.999996795654,0|0,0:0|0:0,0:0:0:0:
429,209,127930,6,0,P|479:132|389:-5,1,255.000004863739,4|8,0:0|0:0,0:0:0:0:
296,171,128358,2,0,L|312:220,3,48.7499977684022,8|8|8|8,0:0|0:0|0:0|0:0,0:0:0:0:
368,272,128644,1,0,0:0:0:0:
366,291,128715,1,8,0:0:0:0:
363,310,128787,1,8,0:0:0:0:
361,329,128858,1,8,0:0:0:0:
360,348,128930,1,8,0:0:0:0:
111,324,129073,6,0,P|190:272|282:293,1,194.999991073609,6|0,0:0|3:0,0:0:0:0:
112,201,129501,2,0,P|80:153|85:86,1,97.4999955368044,8|0,0:0|0:0,0:0:0:0:
86,98,129715,1,0,0:0:0:0:
95,78,129787,2,0,L|150:50,2,48.7499977684022,0|0|0,3:0|0:0|3:0,0:0:0:0:
243,18,130073,1,8,0:0:0:0:
351,98,130215,6,0,L|364:-6,1,97.4999955368044,0|0,3:0|0:0,0:0:0:0:
253,146,130501,1,0,3:0:0:0:
398,214,130644,2,0,L|516:202,1,97.4999955368044,8|0,0:0|0:0,0:0:0:0:
350,295,130930,1,0,3:0:0:0:
242,254,131073,1,0,3:0:0:0:
330,176,131215,1,8,0:0:0:0:
275,337,131358,6,0,P|215:342|155:304,1,97.4999955368044,0|0,3:0|0:0,0:0:0:0:
59,257,131644,1,0,3:0:0:0:
168,118,131787,2,0,B|177:168|177:168|139:234,1,97.4999955368044,8|0,0:0|0:0,0:0:0:0:
38,76,132073,1,0,3:0:0:0:
180,19,132215,1,0,3:0:0:0:
38,76,132358,1,8,0:0:0:0:
180,19,132501,6,0,B|249:8|249:8|302:26|302:26|374:13,1,194.999991073609,0|0,3:0|3:0,0:0:0:0:
430,191,132930,2,0,P|403:150|425:84,1,97.4999955368044,8|0,0:0|0:0,0:0:0:0:
497,299,133215,2,0,L|389:305,1,97.4999955368044,0|8,3:0|0:0,0:0:0:0:
378,291,133430,1,8,0:0:0:0:
357,277,133501,1,8,0:0:0:0:
335,264,133573,1,8,0:0:0:0:
313,250,133644,6,0,P|280:176|157:150,1,194.999991073609,4|0,3:2|3:0,0:0:0:0:
52,200,134073,2,0,L|71:313,1,97.4999955368044,8|0,0:0|0:0,0:0:0:0:
185,240,134358,1,0,3:0:0:0:
185,240,134501,1,0,3:0:0:0:
78,157,134644,1,8,0:0:0:0:
68,296,134787,6,0,B|127:325|127:325|192:313|192:313|258:347,1,194.999991073609,0|0,3:0|3:0,0:0:0:0:
357,319,135215,2,0,P|390:270|374:207,1,97.4999955368044,8|0,0:0|0:0,0:0:0:0:
283,118,135501,1,0,3:0:0:0:
283,118,135644,1,0,0:0:0:0:
310,256,135787,1,8,0:0:0:0:
348,73,135930,6,0,P|259:75|158:17,1,194.999991073609,0|0,3:0|3:0,0:0:0:0:
167,26,136358,2,0,L|175:141,1,97.4999955368044,8|0,0:0|0:0,0:0:0:0:
105,200,136644,1,0,3:0:0:0:
233,238,136787,1,0,3:0:0:0:
55,296,136930,1,8,0:0:0:0:
230,342,137073,6,0,P|296:353|432:309,1,194.999991073609,0|0,3:0|3:0,0:0:0:0:
387,167,137501,2,0,L|315:144,3,48.7499977684022,8|8|8|8,0:0|0:0|0:0|0:0,0:0:0:0:
456,108,137787,2,0,L|528:85,3,48.7499977684022,8|8|8|0,0:3|0:3|0:3|3:0,0:0:0:0:
411,31,138073,1,0,3:0:0:0:
299,251,138215,6,0,B|243:188|243:188|219:57,1,194.999991073609,4|0,0:0|3:0,0:0:0:0:
109,32,138644,2,0,L|128:140,1,97.4999955368044,8|0,0:0|0:0,0:0:0:0:
130,163,138858,1,0,0:0:0:0:
130,163,138930,2,0,P|65:165|17:211,1,97.4999955368044,0|0,3:0|3:0,0:0:0:0:
191,259,139215,1,8,0:0:0:0:
79,384,139358,6,0,B|159:347|159:347|287:336,1,194.999991073609,0|0,3:0|3:0,0:0:0:0:
449,305,139787,1,8,0:0:0:0:
493,228,139930,1,0,0:0:0:0:
420,166,140073,2,0,L|302:187,1,97.4999955368044,0|0,3:0|3:0,0:0:0:0:
161,75,140358,1,8,0:0:0:0:
161,75,140501,6,0,B|264:95,1,97.4999955368044,0|0,3:0|0:0,0:0:0:0:
123,201,140787,1,0,3:0:0:0:
60,133,140930,2,0,L|75:33,1,97.4999955368044,8|0,0:0|0:0,0:0:0:0:
213,168,141215,1,0,3:0:0:0:
302,42,141358,1,0,3:0:0:0:
159,32,141501,1,8,0:0:0:0:
328,150,141644,6,0,L|306:254,1,97.4999955368044,0|0,3:0|0:0,0:0:0:0:
186,382,141930,1,0,3:0:0:0:
226,245,142073,1,8,0:0:0:0:
114,319,142215,1,0,0:0:0:0:
282,366,142358,2,0,P|328:386|387:373,1,97.4999955368044,0|8,3:0|0:0,0:0:0:0:
447,322,142573,1,8,0:0:0:0:
444,302,142644,1,8,0:0:0:0:
441,282,142715,1,8,0:0:0:0:
441,262,142787,6,0,P|390:215|365:85,1,194.999991073609,4|0,3:2|3:0,0:0:0:0:
368,100,143215,1,8,0:0:0:0:
368,100,143501,2,0,P|373:159|356:203,1,97.4999955368044,0|0,3:0|3:0,0:0:0:0:
187,234,143787,2,0,B|138:217|138:217|79:170,1,97.4999955368044,8|0,0:0|3:0,0:0:0:0:
352,299,144073,6,0,B|400:276|400:276|487:280,1,97.4999955368044,0|0,0:0|3:0,0:0:0:0:
172,378,144358,2,0,P|117:379|61:351,1,97.4999955368044,8|0,0:0|0:0,0:0:0:0:
27,209,144644,2,0,L|8:90,1,97.4999955368044,0|0,3:0|3:0,0:0:0:0:
8,87,144858,1,0,0:0:0:0:
8,87,144930,1,8,0:0:0:0:
170,15,145073,6,0,P|233:29|265:144,1,165.000005035401,0|0,3:0|3:0,0:0:0:0:
171,192,145501,2,0,L|184:286,1,82.5000025177003,8|0,0:0|0:0,0:0:0:0:
313,335,145787,2,0,L|320:387,2,41.2500012588501,0|0|0,3:0|0:0|3:0,0:0:0:0:
384,205,146073,5,8,0:0:0:0:
396,201,146144,1,0,0:0:0:0:
405,198,146215,2,0,P|445:245|436:368,1,165.000005035401,0|0,3:0|3:0,0:0:0:0:
281,186,146644,2,0,L|262:90,1,82.5000025177003,8|8,3:2|0:0,0:0:0:0:
356,18,146930,2,0,L|424:3,5,41.2500012588501,8|8|8|8|8|8,0:0|0:0|0:0|0:0|0:0|0:0,0:0:0:0:
469,44,147358,6,0,P|371:40|245:22,1,194.999991073609,6|0,0:0|0:0,0:0:0:0:
161,62,147787,2,0,P|156:117|168:170,1,97.4999955368044,8|0,0:0|0:0,0:0:0:0:
235,276,148073,1,0,3:0:0:0:
350,227,148215,1,0,3:0:0:0:
235,276,148358,1,8,0:0:0:0:
377,149,148501,6,0,P|382:265|329:365,1,194.999991073609,4|0,3:2|3:0,0:0:0:0:
263,378,148930,2,0,P|213:361|147:364,1,97.4999955368044,8|0,0:0|0:0,0:0:0:0:
65,263,149215,1,0,3:0:0:0:
65,263,149358,1,0,3:0:0:0:
34,384,149501,1,8,0:0:0:0:
177,267,149644,6,0,L|151:172,1,97.4999955368044,4|0,3:2|0:0,0:0:0:0:
366,204,149930,1,0,3:0:0:0:
366,204,150001,1,0,0:0:0:0:
366,204,150073,2,0,L|392:99,1,97.4999955368044,8|0,0:0|0:0,0:0:0:0:
230,130,150358,2,0,L|205:24,1,97.4999955368044,0|0,3:0|3:0,0:0:0:0:
332,17,150644,1,8,0:0:0:0:
272,201,150787,6,0,P|205:160|89:190,1,194.999991073609,4|8,3:2|3:0,0:0:0:0:
45,310,151215,2,0,P|78:347|130:363,1,97.4999955368044,8|8,0:0|0:0,0:0:0:0:
218,313,151501,1,4,3:2:0:0:
151,137,151644,1,8,0:0:0:0:
151,137,151715,1,8,0:0:0:0:
151,137,151787,1,8,0:0:0:0:
24,226,151930,6,0,P|14:169|39:32,1,194.999991073609,4|0,0:0|3:0,0:0:0:0:
139,60,152358,2,0,L|263:52,1,97.4999955368044,8|0,0:0|0:0,0:0:0:0:
399,42,152644,1,0,3:0:0:0:
321,144,152787,1,0,3:0:0:0:
405,24,152930,1,8,0:0:0:0:
509,162,153073,6,0,P|482:208|471:362,1,194.999991073609,4|0,3:2|3:0,0:0:0:0:
340,232,153501,2,0,P|275:235|220:274,1,97.4999955368044,8|0,0:0|0:0,0:0:0:0:
123,342,153787,1,0,3:0:0:0:
123,342,153930,1,0,3:0:0:0:
215,259,154073,1,8,0:0:0:0:
30,174,154215,6,0,L|64:265,1,97.4999955368044,4|0,3:2|0:0,0:0:0:0:
171,118,154501,1,0,3:0:0:0:
171,118,154573,1,0,0:0:0:0:
171,118,154644,2,0,L|196:3,1,97.4999955368044,8|0,0:0|0:0,0:0:0:0:
291,228,154930,2,0,L|313:324,1,97.4999955368044,0|0,3:0|3:0,0:0:0:0:
451,359,155215,1,8,0:0:0:0:
512,140,155358,6,0,B|465:167|465:167|386:136|386:136|335:159,1,194.999991073609,4|0,3:2|3:0,0:0:0:0:
335,159,155787,2,0,P|310:108|315:51,1,97.4999955368044,12|0,0:2|0:0,0:0:0:0:
418,33,156073,5,12,0:0:0:0:
427,30,156144,1,8,0:0:0:0:
436,28,156216,1,8,0:0:0:0:
445,26,156287,1,8,0:0:0:0:
454,23,156359,1,8,0:0:0:0:
463,21,156430,1,8,0:0:0:0:
472,19,156501,1,4,3:2:0:0:
423,143,156787,5,0,3:0:0:0:
319,41,156930,1,8,0:0:0:0:
318,147,157073,5,0,3:0:0:0:
318,147,157215,2,0,B|208:161,1,97.4999955368044,0|0,3:0|3:0,0:0:0:0:
19,163,157501,1,8,0:0:0:0:
100,89,157644,5,0,3:0:0:0:
100,89,157787,2,0,L|130:219,1,97.4999955368044,0|0,3:0|3:0,0:0:0:0:
166,374,158073,1,8,0:0:0:0:
119,299,158215,5,0,3:0:0:0:
119,299,158358,2,0,L|242:271,1,97.4999955368044,0|0,3:0|3:0,0:0:0:0:
447,360,158644,6,0,P|420:374|391:376,1,48.7499977684022,8|0,0:0|0:0,0:0:0:0:
330,335,158787,2,0,P|310:293|318:243,1,97.4999955368044,0|0,3:0|3:0,0:0:0:0:
387,171,159073,1,0,3:0:0:0:
133,216,159215,6,0,P|160:230|189:232,1,48.7499977684022,8|0,0:0|0:0,0:0:0:0:
250,191,159358,2,0,P|269:149|261:99,1,97.4999955368044,0|0,3:0|3:0,0:0:0:0:
193,18,159644,1,0,3:0:0:0:
394,71,159787,6,0,P|363:93|325:103,1,48.7499977684022,8|0,0:0|0:0,0:0:0:0:
304,37,159930,2,0,P|248:15|122:63,1,194.999991073609,0|0,3:0|3:0,0:0:0:0:
45,138,160358,2,0,B|15:102|15:102|29:28,1,97.4999955368044,8|0,3:2|3:0,0:0:0:0:
143,168,160644,1,8,0:0:0:0:
143,168,160715,1,8,0:0:0:0:
143,168,160787,2,0,L|128:232,3,48.7499977684022,8|8|8|8,0:0|0:0|0:0|0:0,0:0:0:0:
161,242,161073,6,0,L|183:124,1,97.4999955368044,4|0,0:0|0:0,0:0:0:0:
364,76,161358,1,0,3:0:0:0:
364,76,161430,1,0,0:0:0:0:
364,76,161501,2,0,B|391:125|391:125|349:231,1,146.249993305207,8|0,0:0|0:0,0:0:0:0:
350,224,161787,2,0,P|305:196|238:208,1,97.4999955368044,8|0,3:2|3:0,0:0:0:0:
100,318,162073,1,8,0:0:0:0:
206,350,162215,6,0,L|170:200,1,146.249993305207,4|0,3:2|0:0,0:0:0:0:
171,207,162501,1,0,3:0:0:0:
240,141,162644,2,0,P|298:125|360:135,1,97.4999955368044,8|0,0:0|0:0,0:0:0:0:
107,124,162930,2,0,P|55:144|-8:133,1,97.4999955368044,8|0,3:2|3:0,0:0:0:0:
138,10,163215,1,8,0:0:0:0:
356,37,163358,6,0,P|257:56|212:134,1,194.999991073609,4|8,3:2|0:0,0:0:0:0:
270,280,163787,1,8,0:0:0:0:
23,376,163930,2,0,P|65:339|231:336,1,194.999991073609,0|8,0:2|0:0,0:0:0:0:
280,384,164358,1,8,0:0:0:0:
355,258,164501,1,0,3:0:0:0:
192,223,164644,6,0,P|153:207|111:215,3,56.2500021457673,8|8|8|8,0:0|0:0|3:0|0:0,0:0:0:0:
257,141,164930,2,0,P|257:121|232:86,3,56.2500021457673,8|8|8|8,0:0|0:0|3:0|0:0,0:0:0:0:
352,179,165215,2,0,P|383:159|399:122,3,56.2500021457673,8|8|8|8,0:0|0:0|0:0|0:0,0:0:0:0:
389,40,165501,1,8,0:0:0:0:
417,34,165573,1,8,0:0:0:0:
439,44,165644,6,0,B|349:108|318:-27|192:32,1,247.500007553101,6|10,0:1|0:0,0:0:0:0:
94,65,166215,1,0,3:0:0:0:
94,65,166287,1,0,3:0:0:0:
94,65,166358,2,0,L|81:130,2,41.2500012588501,2|0|2,3:2|3:0|3:2,0:0:0:0:
147,168,166644,1,8,0:0:0:0:
73,270,166787,6,0,L|171:288,1,82.5000025177003,2|0,3:2|3:0,0:0:0:0:
218,232,167073,1,0,3:0:0:0:
277,333,167215,2,0,L|382:299,1,82.5000025177003,10|0,0:0|3:0,0:0:0:0:
374,314,167430,1,0,3:0:0:0:
393,320,167501,2,0,L|414:361,2,41.2500012588501,2|0|2,3:2|3:0|3:2,0:0:0:0:
457,204,167787,2,0,P|476:251|465:304,1,82.5000025177003,10|2,0:0|3:2,0:0:0:0:
330,231,168073,5,0,3:0:0:0:
302,153,168215,1,2,3:2:0:0:
351,86,168358,1,10,0:2:0:0:
447,106,168501,1,0,3:0:0:0:
447,106,168573,1,0,3:0:0:0:
447,106,168644,2,0,L|497:119,2,41.2500012588501,2|0|2,3:2|3:0|3:2,0:0:0:0:
324,156,168930,1,8,0:0:0:0:
235,41,169073,6,0,P|208:94|240:205,1,165.000005035401,2|0,3:2|3:0,0:0:0:0:
315,242,169501,1,10,0:2:0:0:
223,280,169644,1,0,3:0:0:0:
130,173,169787,6,0,P|82:175|52:198,1,82.5000025177003,2|8,3:2|0:0,0:0:0:0:
7,268,170001,1,8,0:0:0:0:
14,287,170073,1,8,0:0:0:0:
22,305,170144,1,8,0:0:0:0:
29,324,170215,6,0,B|85:331|85:331|122:366|122:366|183:371,1,165.000005035401,4|2,0:0|3:2,0:0:0:0:
307,317,170644,2,0,L|334:224,1,82.5000025177003,10|0,0:2|0:0,0:0:0:0:
222,202,170930,2,0,L|204:113,1,82.5000025177003,2|2,3:2|3:2,0:0:0:0:
174,275,171215,1,8,0:0:0:0:
307,144,171358,6,0,P|377:126|459:194,1,165.000005035401,2|2,3:2|3:2,0:0:0:0:
416,323,171787,1,10,0:2:0:0:
455,202,171930,1,10,0:0:0:0:
328,232,172073,1,2,3:2:0:0:
328,232,172144,1,8,0:0:0:0:
328,232,172215,2,0,P|278:233|240:204,1,82.5000025177003,0|10,3:0|0:0,0:0:0:0:
122,75,172501,6,0,B|82:131|82:131|100:239,1,165.000005035401,0|0,3:0|3:0,0:0:0:0:
128,320,172930,2,0,P|171:296|210:298,1,82.5000025177003,10|0,0:0|0:0,0:0:0:0:
278,367,173215,1,2,3:2:0:0:
324,252,173358,1,0,3:0:0:0:
212,138,173501,6,0,L|227:177,3,41.2500012588501,10|0|2|0,0:0|0:0|3:2|0:0,0:0:0:0:
293,85,173787,2,0,L|310:30,3,41.2500012588501,0|0|2|0,0:0|0:0|3:2|0:0,0:0:0:0:
224,21,174073,2,0,L|108:9,1,82.5000025177003,10|0,0:0|3:0,0:0:0:0:
22,105,174358,6,8,L|74:91,3,41.2500012588501,8|8|8|8,0:0|0:0|0:0|0:0,0:0:0:0:
134,147,174644,1,8,0:0:0:0:
136,154,174715,1,8,0:0:0:0:
138,161,174787,1,4,0:0:0:0:
117,321,175072,5,0,3:0:0:0:
172,249,175215,1,10,0:0:0:0:
267,265,175358,1,0,3:0:0:0:
267,265,175430,1,0,3:0:0:0:
267,265,175501,2,0,L|284:213,2,41.2500012588501,2|0|2,3:2|3:0|3:2,0:0:0:0:
435,307,175787,1,8,0:0:0:0:
336,341,175930,1,2,3:2:0:0:
362,240,176073,6,0,L|391:160,1,82.5000025177003,0|0,0:0|3:0,0:0:0:0:
218,153,176358,1,10,0:0:0:0:
267,265,176501,1,0,3:0:0:0:
267,265,176573,1,0,3:0:0:0:
267,265,176644,2,0,L|284:213,2,41.2500012588501,2|0|2,3:2|3:0|3:2,0:0:0:0:
446,312,176930,1,10,0:0:0:0:
333,352,177073,1,2,3:2:0:0:
367,232,177215,6,0,L|396:152,1,82.5000025177003,0|0,0:0|3:0,0:0:0:0:
164,169,177501,1,10,0:0:0:0:
267,265,177644,1,0,3:0:0:0:
267,265,177716,1,0,3:0:0:0:
267,265,177787,2,0,L|284:213,2,41.2500012588501,2|0|2,3:2|3:0|3:2,0:0:0:0:
451,315,178073,1,10,0:0:0:0:
333,361,178216,1,2,0:0:0:0:
371,221,178359,6,0,L|397:130,1,82.5000025177003,2|0,0:0|0:0,0:0:0:0:
321,42,178644,1,10,0:0:0:0:
225,188,178787,1,2,3:0:0:0:
225,188,178858,1,0,3:0:0:0:
225,188,178930,6,0,P|179:196|100:163,1,112.500004291535,2|4,3:0|0:0,0:0:0:0:
117,176,179358,6,0,B|94:278|94:278|137:343,1,165.000005035401,4|2,0:0|0:0,0:0:0:0:
210,274,179787,2,0,P|255:250|295:250,1,82.5000025177003,10|2,0:0|0:0,0:0:0:0:
394,324,180073,2,0,P|455:327|494:291,1,82.5000025177003,2|4,3:0|0:0,0:0:0:0:
493,303,180287,1,0,0:0:0:0:
493,303,180358,1,8,0:0:0:0:
476,95,180501,6,0,B|428:107|428:107|393:157|393:157|324:172,1,165.000005035401,4|2,0:0|0:0,0:0:0:0:
193,109,180930,2,0,P|182:69|203:11,1,82.5000025177003,10|2,0:0|0:0,0:0:0:0:
291,74,181215,1,0,3:0:0:0:
209,229,181358,2,0,P|165:209|137:185,1,82.5000025177003,4|0,3:2|0:0,0:0:0:0:
85,376,181644,6,0,P|158:345|247:395,1,165.000005035401,4|0,3:2|3:0,0:0:0:0:
410,329,182073,2,0,P|440:310|454:288,3,41.2500012588501,8|8|8|8,0:0|0:0|0:0|0:0,0:0:0:0:
366,222,182358,2,0,P|369:201|388:177,3,48.7499977684022,8|8|8|8,0:0|0:0|0:0|0:0,0:0:0:0:
475,123,182644,2,0,P|466:84|429:53,3,56.2500021457673,8|8|8|8,0:0|0:0|0:0|0:0,0:0:0:0:
348,50,182930,2,0,L|275:88,3,63.7500012159348,8|8|8|0,0:0|0:0|0:0|0:0,0:0:0:0:
233,161,183215,1,8,0:0:0:0:
192,152,183287,1,8,0:0:0:0:
152,142,183358,1,8,0:0:0:0:
111,131,183430,1,8,0:0:0:0:
71,121,183501,5,8,0:0:0:0:
71,121,184930,1,0,0:0:0:0:
43,290,185073,6,0,B|26:378|26:378|70:333|150:371,1,194.999991073609,6|0,3:2|3:0,0:0:0:0:
177,289,185501,2,0,P|234:297|269:325,1,82.5000025177003,8|0,0:0|0:0,0:0:0:0:
268,325,185715,1,0,0:0:0:0:
268,325,185787,1,0,3:0:0:0:
451,297,185930,1,0,3:0:0:0:
313,224,186073,1,8,0:0:0:0:
396,368,186215,6,0,P|412:314|391:176,1,165.000005035401,0|0,3:0|3:0,0:0:0:0:
304,43,186644,1,8,0:0:0:0:
278,156,186787,1,0,0:0:0:0:
409,98,186930,2,0,L|429:5,1,82.5000025177003,0|0,3:0|3:0,0:0:0:0:
307,134,187215,1,8,0:0:0:0:
189,93,187358,6,0,L|210:205,1,82.5000025177003,0|0,3:0|0:0,0:0:0:0:
155,322,187644,1,0,3:0:0:0:
279,381,187787,1,8,0:0:0:0:
288,200,187930,1,0,0:0:0:0:
116,293,188073,2,0,P|94:348|108:401,1,82.5000025177003,0|0,3:0|3:0,0:0:0:0:
194,217,188358,1,8,0:0:0:0:
194,217,188501,6,0,P|200:156|163:44,1,165.000005035401,0|0,0:0|3:0,0:0:0:0:
163,65,188859,1,0,0:0:0:0:
154,73,188930,2,0,L|70:66,1,82.5000025177003,8|0,0:0|0:0,0:0:0:0:
267,14,189215,1,0,3:0:0:0:
342,141,189358,1,8,0:0:0:0:
369,132,189430,1,8,0:0:0:0:
390,112,189501,1,8,0:0:0:0:
396,83,189573,1,8,0:0:0:0:
388,55,189644,6,0,L|390:254,1,165.000005035401,4|0,3:2|3:0,0:0:0:0:
396,345,190073,1,8,0:0:0:0:
396,345,190358,1,0,3:0:0:0:
280,380,190501,1,0,3:0:0:0:
312,258,190644,1,8,0:0:0:0:
192,301,190787,6,0,B|155:246|155:246|169:132,1,165.000005035401,0|0,3:0|0:0,0:0:0:0:
275,100,191215,2,0,P|338:121|385:113,1,82.5000025177003,8|0,0:0|3:0,0:0:0:0:
209,20,191501,2,0,P|151:19|106:38,1,82.5000025177003,0|0,3:0|3:0,0:0:0:0:
15,90,191787,1,8,0:0:0:0:
88,212,191930,6,0,B|149:216|149:216|197:181|197:181|253:186,1,165.000005035401,0|0,3:0|3:0,0:0:0:0:
331,234,192358,2,0,P|342:294|320:335,1,82.5000025177003,8|0,0:0|0:0,0:0:0:0:
184,384,192644,1,0,3:0:0:0:
224,257,192787,1,0,3:0:0:0:
326,344,192930,1,8,0:0:0:0:
458,232,193073,6,0,B|433:65,1,165.000005035401,0|0,3:3|3:0,0:0:0:0:
329,35,193501,2,0,P|308:37|288:35,3,41.2500012588501,8|8|8|8,0:0|0:0|0:0|0:0,0:0:0:0:
225,99,193787,1,8,0:3:0:0:
233,118,193858,1,8,0:3:0:0:
242,137,193930,1,8,0:3:0:0:
401,89,194073,1,0,3:0:0:0:
322,209,194215,6,0,L|309:297,1,82.5000025177003,4|0,3:2|0:0,0:0:0:0:
210,347,194501,1,0,3:0:0:0:
137,234,194644,1,8,0:0:0:0:
111,324,194787,1,0,0:0:0:0:
40,259,194930,2,0,P|16:226|8:168,1,82.5000025177003,0|8,3:0|3:2,0:0:0:0:
73,78,195215,1,8,0:0:0:0:
213,216,195358,6,0,P|241:167|232:53,1,165.000005035401,0|0,3:0|3:0,0:0:0:0:
117,9,195787,1,8,0:0:0:0:
117,9,195930,1,0,0:0:0:0:
169,119,196073,1,0,3:0:0:0:
328,54,196215,1,8,3:2:0:0:
228,30,196358,1,8,0:0:0:0:
324,150,196501,6,0,L|339:238,1,82.5000025177003,0|0,3:0|0:0,0:0:0:0:
443,317,196787,1,0,3:0:0:0:
485,219,196930,2,0,L|462:310,1,82.5000025177003,8|0,0:0|0:0,0:0:0:0:
261,346,197215,1,0,3:0:0:0:
212,212,197358,1,8,0:0:0:0:
350,232,197501,1,8,0:0:0:0:
104,347,197644,6,0,B|74:269|74:269|131:196,1,165.000005035401,0|0,3:0|3:0,0:0:0:0:
250,289,198073,2,0,P|196:294|153:273,1,82.5000025177003,8|0,0:0|3:0,0:0:0:0:
289,144,198358,2,0,L|383:110,1,82.5000025177003,0|8,3:0|0:0,0:0:0:0:
480,119,198573,1,8,0:0:0:0:
492,144,198644,1,8,0:0:0:0:
488,172,198715,1,8,0:0:0:0:
476,198,198787,6,0,P|450:133|451:22,1,165.000005035401,4|0,3:2|3:0,0:0:0:0:
456,45,199215,1,8,0:0:0:0:
456,45,199501,2,0,P|412:29|374:30,1,82.5000025177003,0|0,3:0|3:0,0:0:0:0:
170,72,199787,5,8,0:0:0:0:
152,162,199930,1,0,3:0:0:0:
322,231,200073,5,0,0:0:0:0:
352,137,200216,1,0,3:0:0:0:
165,252,200358,5,8,0:0:0:0:
209,332,200501,1,0,0:0:0:0:
376,369,200644,2,0,P|434:369|473:347,1,82.5000025177003,0|0,3:0|3:0,0:0:0:0:
299,300,200930,1,8,0:0:0:0:
140,384,201073,6,0,P|109:345|100:208,1,165.000005035401,0|0,3:0|3:0,0:0:0:0:
142,133,201501,2,0,P|114:117|62:116,1,82.5000025177003,8|0,0:0|0:0,0:0:0:0:
264,90,201787,2,0,P|318:80|345:61,1,82.5000025177003,0|0,3:0|3:0,0:0:0:0:
165,9,202073,1,8,0:0:0:0:
233,191,202215,6,0,B|284:196|284:196|345:166|345:166|411:171,1,165.000005035401,0|0,3:0|3:0,0:0:0:0:
443,284,202644,2,0,L|347:272,1,82.5000025177003,8|0,0:0|3:0,0:0:0:0:
154,246,202930,1,8,0:0:0:0:
154,246,203001,1,8,0:0:0:0:
154,246,203073,2,0,P|137:300|151:347,1,82.5000025177003,8|8,0:0|0:0,0:0:0:0:
258,384,203358,5,4,3:2:0:0:
258,384,203644,1,0,3:0:0:0:
317,241,203787,2,0,B|343:281|343:281|346:350,1,82.5000025177003,8|0,0:0|3:0,0:0:0:0:
151,181,204073,2,0,B|154:139|154:139|175:105,1,82.5000025177003,8|0,0:0|3:0,0:0:0:0:
349,19,204358,6,0,P|383:35|422:38,3,48.7499977684022,8|8|0|0,0:0|0:0|3:0|0:0,0:0:0:0:
472,120,204644,2,0,P|465:167|445:194,3,56.2500021457673,8|8|8|8,0:0|0:0|3:2|0:0,0:0:0:0:
356,264,204930,2,0,P|362:216|381:184,3,56.2500021457673,8|8|0|8,3:2|0:0|0:0|0:0,0:0:0:0:
295,136,205215,5,0,3:0:0:0:
267,124,205287,1,0,3:0:0:0:
237,122,205358,1,0,3:0:0:0:
208,130,205430,1,0,3:0:0:0:
183,146,205501,1,0,3:0:0:0:
154,155,205573,1,0,3:0:0:0:
124,157,205644,6,0,P|87:109|111:8,1,165.000005035401,6|2,0:0|3:2,0:0:0:0:
219,41,206073,2,0,L|241:145,1,82.5000025177003,10|0,0:0|0:0,0:0:0:0:
278,221,206358,2,0,P|324:199|393:207,1,82.5000025177003,2|0,3:2|3:2,0:0:0:0:
214,302,206644,1,10,0:0:0:0:
214,302,206787,6,0,B|146:333|146:333|25:304,1,165.000005035401,0|0,3:2|3:0,0:0:0:0:
15,190,207215,2,0,L|34:133,2,41.2500012588501,10|0|2,0:0|0:0|0:0,0:0:0:0:
128,138,207501,2,0,L|109:79,2,41.2500012588501,2|0|0,3:2|0:0|3:0,0:0:0:0:
25,52,207787,1,10,0:0:0:0:
110,213,207930,6,0,B|163:223|193:182|193:182|224:164|270:176,1,165.000005035401,0|2,3:0|3:2,0:0:0:0:
433,212,208358,2,0,P|450:252|429:316,1,82.5000025177003,10|0,0:0|0:0,0:0:0:0:
349,139,208644,2,0,P|341:94|371:31,1,82.5000025177003,2|0,3:2|3:2,0:0:0:0:
434,102,208930,1,10,0:0:0:0:
336,254,209073,6,0,P|262:280|162:242,1,165.000005035401,0|2,3:0|3:2,0:0:0:0:
54,174,209501,1,10,0:0:0:0:
77,289,209644,1,0,0:0:0:0:
168,168,209787,1,2,3:2:0:0:
30,31,209930,2,8,L|38:80,3,41.2500012588501,8|8|8|8,0:0|0:0|0:0|0:0,0:0:0:0:
42,97,210215,6,0,B|121:123|123:44|232:93,1,165.000005035401,4|2,3:2|3:2,0:0:0:0:
256,150,210644,2,0,P|293:178|346:183,1,82.5000025177003,10|0,0:0|0:0,0:0:0:0:
491,193,210930,2,0,P|454:165|401:160,1,82.5000025177003,2|0,3:2|3:0,0:0:0:0:
279,271,211215,1,10,0:0:0:0:
353,339,211358,6,0,B|383:279|383:279|344:159,1,165.000005035401,0|0,3:0|3:0,0:0:0:0:
267,23,211787,2,0,P|226:30|169:27,1,82.5000025177003,10|0,0:0|0:0,0:0:0:0:
103,102,212073,2,0,P|111:155|103:197,1,82.5000025177003,2|2,3:2|3:2,0:0:0:0:
70,340,212358,1,8,0:0:0:0:
26,258,212501,6,0,P|97:253|166:335,1,165.000005035401,2|2,3:2|3:2,0:0:0:0:
249,373,212930,2,0,L|344:362,1,82.5000025177003,10|0,0:0|0:0,0:0:0:0:
452,295,213215,1,2,3:2:0:0:
359,235,213358,1,0,3:0:0:0:
463,306,213501,1,10,0:0:0:0:
340,343,213644,6,0,P|300:293|294:184,1,165.000005035401,2|0,3:2|3:0,0:0:0:0:
391,152,214073,2,0,P|438:178|484:177,1,82.5000025177003,10|0,0:2|3:0,0:0:0:0:
340,30,214358,2,0,L|295:54,3,41.2500012588501,8|8|8|8,0:0|0:0|0:0|0:0,0:0:0:0:
232,82,214644,1,8,0:0:0:0:
215,71,214715,1,8,0:0:0:0:
197,57,214787,6,0,B|142:30|142:30|30:59,1,165.000005035401,4|0,3:2|3:0,0:0:0:0:
17,194,215215,2,0,P|70:224|121:225,1,82.5000025177003,10|0,0:0|0:0,0:0:0:0:
137,329,215501,2,0,P|183:324|237:290,1,82.5000025177003,2|2,3:2|3:2,0:0:0:0:
246,210,215787,1,8,0:0:0:0:
420,150,215930,6,0,P|465:231|416:319,1,165.000005035401,2|0,3:2|3:0,0:0:0:0:
328,340,216358,2,0,P|304:328|280:309,3,41.2500012588501,10|0|2|0,0:0|0:0|0:2|0:0,0:0:0:0:
327,244,216644,2,0,P|349:239|374:227,3,41.2500012588501,2|0|0|0,3:2|0:0|3:0|0:0,0:0:0:0:
292,165,216930,1,10,0:0:0:0:
292,165,217001,1,0,0:0:0:0:
292,165,217073,6,0,B|245:132|245:132|191:137|191:137|114:91,1,165.000005035401,0|2,3:0|3:2,0:0:0:0:
51,48,217501,2,0,L|61:139,1,82.5000025177003,10|0,0:0|0:0,0:0:0:0:
73,271,217787,1,2,3:2:0:0:
141,194,217930,1,2,3:2:0:0:
50,270,218073,1,8,0:0:0:0:
138,356,218215,6,0,P|194:366|294:326,1,165.000005035401,2|2,3:2|3:2,0:0:0:0:
284,222,218644,1,10,0:0:0:0:
411,175,218787,1,0,0:0:0:0:
403,203,218858,1,0,0:0:0:0:
395,232,218930,1,2,3:2:0:0:
267,114,219073,2,0,L|275:68,3,41.2500012588501,8|8|8|8,0:0|0:0|0:0|0:0,0:0:0:0:
282,53,219358,6,0,P|353:75|463:55,1,165.000005035401,4|2,3:2|3:2,0:0:0:0:
307,193,219787,2,0,P|263:204|218:196,1,82.5000025177003,10|0,0:0|0:0,0:0:0:0:
150,134,220073,2,0,L|141:33,1,82.5000025177003,2|2,3:2|3:2,0:0:0:0:
230,5,220358,1,8,0:0:0:0:
56,96,220501,6,0,P|66:147|64:279,1,165.000005035401,2|2,3:2|3:0,0:0:0:0:
204,344,220930,1,10,0:0:0:0:
104,349,221073,1,0,0:0:0:0:
156,265,221215,1,2,3:2:0:0:
261,246,221358,1,2,3:2:0:0:
344,310,221501,1,8,0:0:0:0:
480,217,221644,5,4,0:0:0:0:
480,217,221930,1,0,0:0:0:0:
401,144,222073,2,0,P|357:137|303:112,1,82.5000025177003,0|0,3:0|3:0,0:0:0:0:
166,156,222358,2,0,P|160:115|145:77,1,82.5000025177003,0|0,3:0|3:0,0:0:0:0:
297,285,222644,2,0,P|265:311|239:343,1,82.5000025177003,8|8,0:0|0:0,0:0:0:0:
78,379,222930,5,8,0:0:0:0:
153,298,223073,1,8,0:0:0:0:
34,238,223215,5,8,0:0:0:0:
164,146,223358,1,8,0:0:0:0:
34,59,223501,5,8,0:0:0:0:
37,51,223573,1,0,0:0:0:0:
40,43,223644,1,8,0:0:0:0:
43,35,223715,1,0,0:0:0:0:
45,27,223787,1,8,0:0:0:0:
