osu file format v14

[General]
AudioFilename: 09 - .mp3
AudioLeadIn: 0
PreviewTime: 184858
Countdown: 0
SampleSet: Soft
StackLeniency: 0.7
Mode: 0
LetterboxInBreaks: 1
WidescreenStoryboard: 1

[Editor]
DistanceSpacing: 1
BeatDivisor: 4
GridSize: 4
TimelineZoom: 2.6

[Metadata]
Title:Yakubyougami
TitleUnicode:ヤクビョウガミ
Artist:ayaponzu*
ArtistUnicode:あやぽんず*
Creator:Pho
Version:Elimination
Source:
Tags:まふまふ mafumafu yasu △○□× miwasiba みわしいば chocolate pop* Not-116 utaite 歌い手 asahina momoko mokori m_o_k_o_r_i cryo[iceeicee] cryo jonathanlfj captin1 lmt
BeatmapID:1066243
BeatmapSetID:501001

[Difficulty]
HPDrainRate:6.5
CircleSize:4.3
OverallDifficulty:9
ApproachRate:9.6
SliderMultiplier:1.8
SliderTickRate:1

[Events]
//Background and Video events
Video,-148,"yakubyougami.avi"
0,0,"bg1.jpg",0,0
//Break Periods
2,74415,82421
//Storyboard Layer 0 (Background)
//Storyboard Layer 1 (Fail)
//Storyboard Layer 2 (Pass)
//Storyboard Layer 3 (Foreground)
//Storyboard Sound Samples

[TimingPoints]
73,285.714285714286,4,2,1,50,1,0
1073,-83.3333333333333,4,2,1,90,0,0
4501,-100,4,2,1,90,0,0
4787,-83.3333333333333,4,2,1,90,0,0
5001,-83.3333333333333,4,2,1,40,0,0
5073,-83.3333333333333,4,2,1,90,0,0
5144,-83.3333333333333,4,2,1,40,0,0
5215,-83.3333333333333,4,2,1,90,0,0
5287,-83.3333333333333,4,2,1,40,0,0
5358,-83.3333333333333,4,2,1,90,0,0
9287,-83.3333333333333,4,2,1,5,0,0
9358,-76.9230769230769,4,2,1,90,0,0
9430,-76.9230769230769,4,2,1,40,0,0
9501,-76.9230769230769,4,2,1,90,0,0
9573,-76.9230769230769,4,2,1,40,0,0
9644,-76.9230769230769,4,2,1,90,0,0
9715,-76.9230769230769,4,2,1,40,0,0
9787,-83.3333333333333,4,2,1,90,0,0
14144,-83.3333333333333,4,2,1,40,0,0
14215,-83.3333333333333,4,2,1,90,0,0
14287,-83.3333333333333,4,2,1,40,0,0
14358,-83.3333333333333,4,2,1,90,0,0
14430,-83.3333333333333,4,2,1,40,0,0
14501,-83.3333333333333,4,2,1,90,0,0
17001,-83.3333333333333,4,2,1,40,0,0
17073,-83.3333333333333,4,2,1,90,0,0
17287,-83.3333333333333,4,2,1,5,0,0
17358,-83.3333333333333,4,2,1,90,0,0
18215,-100,4,2,1,90,0,0
18644,-83.3333333333333,4,2,1,90,0,0
19644,-166.666666666667,4,2,1,60,0,0
19930,-166.666666666667,4,2,1,5,0,0
20073,-166.666666666667,4,2,1,60,0,0
20215,-166.666666666667,4,2,1,5,0,0
20358,-166.666666666667,4,2,1,60,0,0
20501,-166.666666666667,4,2,1,5,0,0
20644,-166.666666666667,4,2,1,60,0,0
20787,-166.666666666667,4,2,1,5,0,0
20930,-166.666666666667,4,2,1,60,0,0
21073,-166.666666666667,4,2,1,5,0,0
21215,-166.666666666667,4,2,1,60,0,0
21358,-166.666666666667,4,2,1,20,0,0
21501,-166.666666666667,4,2,1,60,0,0
21644,-166.666666666667,4,2,1,20,0,0
21787,-166.666666666667,4,2,1,60,0,0
21930,-166.666666666667,4,2,1,20,0,0
22073,-166.666666666667,4,2,1,60,0,0
22215,-166.666666666667,4,2,1,5,0,0
22358,-166.666666666667,4,2,1,60,0,0
22501,-166.666666666667,4,2,1,5,0,0
22644,-166.666666666667,4,2,1,60,0,0
22787,-166.666666666667,4,2,1,5,0,0
22930,-166.666666666667,4,2,1,60,0,0
23073,-166.666666666667,4,2,1,20,0,0
23215,-166.666666666667,4,2,1,60,0,0
23358,-166.666666666667,4,2,1,20,0,0
23501,-166.666666666667,4,2,1,60,0,0
23644,-166.666666666667,4,2,1,5,0,0
23787,-166.666666666667,4,2,1,60,0,0
23930,-166.666666666667,4,2,1,5,0,0
24073,-166.666666666667,4,2,1,50,0,0
27215,-66.6666666666667,4,2,6,100,0,0
27358,-100,4,2,1,50,0,0
27501,-71.4285714285714,4,2,1,90,0,0
27573,-71.4285714285714,4,2,1,40,0,0
27644,-71.4285714285714,4,2,1,90,0,0
27715,-71.4285714285714,4,2,1,40,0,0
27787,-71.4285714285714,4,2,1,90,0,0
28501,-90.9090909090909,4,2,1,80,0,0
28858,-76.9230769230769,4,2,1,80,0,0
31930,-90.9090909090909,4,2,1,80,0,0
32787,-76.9230769230769,4,2,1,80,0,0
35358,-90.9090909090909,4,2,1,70,0,0
36930,-90.9090909090909,4,2,1,100,0,0
37073,-90.9090909090909,4,2,1,70,0,0
37215,-90.9090909090909,4,2,1,80,0,0
37930,-90.9090909090909,4,2,1,70,0,0
42215,-83.3333333333333,4,2,1,80,0,0
46787,-90.9090909090909,4,2,1,60,0,0
49073,-76.9230769230769,4,2,1,70,0,0
50787,-66.6666666666667,4,2,1,80,0,0
51358,-76.9230769230769,4,2,1,90,0,0
53287,-90.9090909090909,4,2,1,40,0,0
53358,-90.9090909090909,4,2,1,90,0,0
53430,-90.9090909090909,4,2,1,40,0,0
53501,-90.9090909090909,4,2,1,90,0,0
53573,-90.9090909090909,4,2,1,40,0,0
53644,-90.9090909090909,4,2,1,90,0,0
53787,-90.9090909090909,4,2,1,35,0,0
54073,-90.9090909090909,4,2,1,50,0,0
54358,-83.3333333333333,4,2,1,60,0,0
54644,-76.9230769230769,4,2,1,70,0,0
54930,-71.4285714285714,4,2,1,80,0,0
55215,-66.6666666666667,4,2,1,90,0,0
55644,-90.9090909090909,4,2,1,40,0,0
55787,-90.9090909090909,4,2,1,90,0,0
55858,-90.9090909090909,4,2,1,40,0,0
55930,-66.6666666666667,4,2,3,100,0,1
56001,-66.6666666666667,4,2,1,100,0,1
57001,-66.6666666666667,4,2,1,40,0,1
57073,-66.6666666666667,4,2,1,100,0,1
61858,-66.6666666666667,4,2,1,5,0,1
61930,-66.6666666666667,4,2,1,100,0,1
63573,-66.6666666666667,4,2,1,40,0,1
63644,-66.6666666666667,4,2,1,100,0,1
63715,-66.6666666666667,4,2,1,40,0,1
63787,-66.6666666666667,4,2,1,100,0,1
63858,-66.6666666666667,4,2,1,40,0,1
63930,-66.6666666666667,4,2,1,100,0,1
69287,-66.6666666666667,4,2,1,40,0,1
69358,-66.6666666666667,4,2,1,100,0,1
72715,-66.6666666666667,4,2,1,40,0,1
72787,-66.6666666666667,4,2,1,100,0,1
72858,-66.6666666666667,4,2,1,40,0,1
72930,-66.6666666666667,4,2,1,100,0,1
73501,-58.8235294117647,4,2,1,100,0,1
74144,-58.8235294117647,4,2,1,100,0,0
74215,-58.8235294117647,4,2,3,100,0,1
74287,-90.9090909090909,4,2,1,90,0,0
82930,-83.3333333333333,4,2,1,90,0,0
87001,-83.3333333333333,4,2,1,5,0,0
87073,-83.3333333333333,4,2,1,100,0,0
87287,-83.3333333333333,4,2,1,40,0,0
87358,-83.3333333333333,4,2,1,100,0,0
87430,-83.3333333333333,4,2,1,40,0,0
87501,-83.3333333333333,4,2,1,100,0,0
87573,-83.3333333333333,4,2,1,40,0,0
87644,-83.3333333333333,4,2,1,100,0,0
91358,-100,4,2,1,100,0,0
91573,-83.3333333333333,4,2,1,5,0,0
91644,-66.6666666666667,4,2,1,100,0,0
91715,-66.6666666666667,4,2,1,40,0,0
91787,-66.6666666666667,4,2,1,100,0,0
91858,-66.6666666666667,4,2,1,40,0,0
91930,-66.6666666666667,4,2,1,100,0,0
92001,-66.6666666666667,4,2,1,40,0,0
92073,-66.6666666666667,4,2,1,100,0,0
92787,-166.666666666667,4,2,1,60,0,0
93073,-166.666666666667,4,2,1,5,0,0
93215,-166.666666666667,4,2,1,60,0,0
93358,-166.666666666667,4,2,1,5,0,0
93501,-166.666666666667,4,2,1,60,0,0
93644,-166.666666666667,4,2,1,5,0,0
93787,-166.666666666667,4,2,1,60,0,0
93930,-166.666666666667,4,2,1,5,0,0
94073,-166.666666666667,4,2,1,60,0,0
94215,-166.666666666667,4,2,1,5,0,0
94358,-166.666666666667,4,2,1,60,0,0
94501,-166.666666666667,4,2,1,5,0,0
94644,-166.666666666667,4,2,1,60,0,0
94787,-166.666666666667,4,2,1,5,0,0
94930,-166.666666666667,4,2,1,60,0,0
95073,-166.666666666667,4,2,1,5,0,0
95215,-166.666666666667,4,2,1,60,0,0
95358,-166.666666666667,4,2,1,5,0,0
95501,-166.666666666667,4,2,1,60,0,0
95644,-166.666666666667,4,2,1,5,0,0
95787,-166.666666666667,4,2,1,60,0,0
95930,-166.666666666667,4,2,1,5,0,0
96073,-166.666666666667,4,2,1,60,0,0
96215,-166.666666666667,4,2,1,5,0,0
96358,-166.666666666667,4,2,1,60,0,0
96501,-166.666666666667,4,2,1,5,0,0
96644,-166.666666666667,4,2,1,60,0,0
96787,-166.666666666667,4,2,1,5,0,0
96930,-166.666666666667,4,2,1,60,0,0
97073,-166.666666666667,4,2,1,5,0,0
97215,-166.666666666667,4,2,1,50,0,0
100358,-50,4,2,6,100,0,0
100501,-100,4,2,1,60,0,0
100644,-100,4,2,1,90,0,0
100715,-100,4,2,1,90,0,0
100858,-100,4,2,1,90,0,0
100930,-100,4,2,1,90,0,0
101644,-76.9230769230769,4,2,1,80,0,0
105073,-90.9090909090909,4,2,1,80,0,0
105930,-76.9230769230769,4,2,1,80,0,0
108430,-90.9090909090909,4,2,1,40,0,0
108501,-90.9090909090909,4,2,1,60,0,0
110358,-90.9090909090909,4,2,1,80,0,0
111073,-90.9090909090909,4,2,1,60,0,0
115001,-90.9090909090909,4,2,1,20,0,0
115073,-90.9090909090909,4,2,1,60,0,0
115358,-76.9230769230769,4,2,1,70,0,0
119930,-90.9090909090909,4,2,1,60,0,0
122215,-90.9090909090909,4,2,1,70,0,0
124073,-66.6666666666667,4,2,1,70,0,0
124144,-66.6666666666667,4,2,1,40,0,0
124215,-66.6666666666667,4,2,1,70,0,0
124501,-76.9230769230769,4,2,1,80,0,0
124787,-90.9090909090909,4,2,1,80,0,0
125644,-90.9090909090909,4,2,1,90,0,0
126787,-600,4,2,1,50,0,0
126858,-600,4,2,1,5,0,0
127930,-50,4,2,1,80,0,0
128215,-76.9230769230769,4,2,1,80,0,0
129073,-66.6666666666667,4,2,3,100,0,1
129144,-66.6666666666667,4,2,1,100,0,1
136715,-66.6666666666667,4,2,1,40,0,1
136787,-66.6666666666667,4,2,1,100,0,1
136858,-66.6666666666667,4,2,1,40,0,1
136930,-66.6666666666667,4,2,1,100,0,1
145001,-66.6666666666667,4,2,1,40,0,1
145073,-66.6666666666667,4,2,1,100,0,1
145573,-66.6666666666667,4,2,1,40,0,1
145644,-66.6666666666667,4,2,1,100,0,1
145715,-66.6666666666667,4,2,1,40,0,1
145787,-66.6666666666667,4,2,1,100,0,1
147358,-76.9230769230769,4,2,3,90,0,0
147430,-76.9230769230769,4,2,1,90,0,0
149287,-76.9230769230769,4,2,1,40,0,0
149358,-76.9230769230769,4,2,1,90,0,0
150430,-76.9230769230769,4,2,1,40,0,0
150501,-76.9230769230769,4,2,1,90,0,0
151287,-76.9230769230769,4,2,1,40,0,0
151358,-76.9230769230769,4,2,1,90,0,0
151430,-76.9230769230769,4,2,1,40,0,0
151501,-76.9230769230769,4,2,1,90,0,0
151573,-76.9230769230769,4,2,1,40,0,0
151644,-76.9230769230769,4,2,1,90,0,0
152573,-76.9230769230769,4,2,1,40,0,0
152644,-76.9230769230769,4,2,1,90,0,0
152715,-76.9230769230769,4,2,1,40,0,0
152787,-76.9230769230769,4,2,1,90,0,0
156073,-55.5555555555556,4,2,1,100,0,0
156501,-66.6666666666667,4,2,1,100,0,0
161215,-76.9230769230769,4,2,1,90,0,0
163573,-76.9230769230769,4,2,1,5,0,0
163644,-58.8235294117647,4,2,1,90,0,0
163930,-76.9230769230769,4,2,1,90,0,0
164144,-76.9230769230769,4,2,1,5,0,0
164215,-58.8235294117647,4,2,1,90,0,0
164430,-58.8235294117647,4,2,1,40,0,0
164501,-58.8235294117647,4,2,1,90,0,0
164573,-58.8235294117647,4,2,1,40,0,0
164644,-76.9230769230769,4,2,1,90,0,0
165644,-90.9090909090909,4,2,6,100,0,0
165930,-90.9090909090909,4,2,1,60,0,0
169858,-90.9090909090909,4,2,1,20,0,0
169930,-90.9090909090909,4,2,1,80,0,0
170215,-76.9230769230769,4,2,1,80,0,0
170358,-90.9090909090909,4,2,1,80,0,0
174787,-90.9090909090909,4,2,1,70,0,0
176073,-76.9230769230769,4,2,1,75,0,0
177215,-66.6666666666667,4,2,1,85,0,0
178358,-83.3333333333333,4,2,1,95,0,0
178644,-71.4285714285714,4,2,1,95,0,0
178930,-66.6666666666667,4,2,1,90,0,0
179001,-66.6666666666667,4,2,1,40,0,0
179073,-66.6666666666667,4,2,1,95,0,0
179358,-66.6666666666667,4,2,1,95,0,0
180501,-66.6666666666667,4,2,1,98,0,0
181358,-55.5555555555556,4,2,1,98,0,0
181644,-133.333333333333,4,2,1,100,0,0
181715,-90.9090909090909,4,2,1,50,0,0
182073,-90.9090909090909,4,2,1,60,0,0
182358,-90.9090909090909,4,2,1,70,0,0
182644,-90.9090909090909,4,2,1,80,0,0
182930,-100,4,2,1,90,0,0
183215,-100,4,2,1,95,0,0
183501,-200,4,2,1,100,0,0
183573,-200,4,2,1,5,0,0
184930,-83.3333333333333,4,2,1,5,0,0
185073,-58.8235294117647,4,2,3,100,0,1
185144,-66.6666666666667,4,2,1,100,0,1
187001,-66.6666666666667,4,2,1,40,0,1
187073,-66.6666666666667,4,2,1,100,0,1
187144,-66.6666666666667,4,2,1,40,0,1
187215,-66.6666666666667,4,2,1,100,0,1
189001,-66.6666666666667,4,2,1,40,0,1
189073,-66.6666666666667,4,2,1,100,0,1
189144,-66.6666666666667,4,2,1,40,0,1
189215,-66.6666666666667,4,2,1,100,0,1
189287,-66.6666666666667,4,2,1,40,0,1
189358,-66.6666666666667,4,2,1,100,0,1
191858,-66.6666666666667,4,2,1,40,0,1
191930,-66.6666666666667,4,2,1,100,0,1
193001,-83.3333333333333,4,2,1,40,0,1
193073,-66.6666666666667,4,2,1,100,0,1
193287,-66.6666666666667,4,2,1,5,0,1
193358,-66.6666666666667,4,2,1,100,0,1
203358,-83.3333333333333,4,2,1,90,0,0
203644,-83.3333333333333,4,2,1,60,0,0
203787,-83.3333333333333,4,2,1,80,0,0
203930,-83.3333333333333,4,2,1,70,0,0
204073,-83.3333333333333,4,2,1,90,0,0
204215,-83.3333333333333,4,2,1,80,0,0
204358,-66.6666666666667,4,2,1,80,0,0
204644,-66.6666666666667,4,2,1,85,0,0
204930,-66.6666666666667,4,2,1,90,0,0
205215,-66.6666666666667,4,2,1,88,0,0
205644,-83.3333333333333,4,2,3,100,0,1
205715,-83.3333333333333,4,2,1,90,0,0
208144,-83.3333333333333,4,2,1,5,0,0
208215,-83.3333333333333,4,2,1,90,0,0
209573,-83.3333333333333,4,2,1,40,0,0
209644,-83.3333333333333,4,2,1,90,0,0
209715,-83.3333333333333,4,2,1,40,0,0
209787,-83.3333333333333,4,2,1,90,0,0
209858,-83.3333333333333,4,2,1,40,0,0
209930,-83.3333333333333,4,2,1,90,0,0
212144,-83.3333333333333,4,2,1,40,0,0
212215,-83.3333333333333,4,2,1,90,0,0
212287,-83.3333333333333,4,2,1,40,0,0
212358,-83.3333333333333,4,2,1,90,0,0
212430,-83.3333333333333,4,2,1,40,0,0
212501,-83.3333333333333,4,2,1,90,0,0
218430,-83.3333333333333,4,2,1,40,0,0
218501,-83.3333333333333,4,2,1,90,0,0
218715,-83.3333333333333,4,2,1,40,0,0
218787,-83.3333333333333,4,2,1,90,0,0
221930,-83.3333333333333,4,2,1,50,0,0
222073,-83.3333333333333,4,2,1,60,0,0
222358,-83.3333333333333,4,2,1,70,0,0
222644,-83.3333333333333,4,2,1,80,0,0
222930,-83.3333333333333,4,2,1,85,0,0
223215,-83.3333333333333,4,2,1,90,0,0

[Colours]
Combo1 : 192,192,192
Combo2 : 125,85,149
Combo3 : 69,69,69
Combo4 : 184,180,92
SliderBorder : 89,121,134
SliderTrackOverride : 20,20,20

[HitObjects]
361,151,501,5,0,0:0:0:0:
361,151,644,1,0,0:0:0:0:
188,349,930,2,0,L|132:340,1,45,0|0,3:0|2:0,0:0:0:0:
46,280,1073,6,0,P|36:209|66:106,1,161.999995056153,4|0,1:0|0:0,0:0:0:0:
57,122,1358,1,2,0:0:0:0:
259,17,1501,2,0,L|244:132,1,107.999996704102,8|0,0:0|0:0,0:0:0:0:
222,273,1787,1,10,3:2:0:0:
344,199,1930,1,2,3:2:0:0:
138,140,2073,1,8,0:0:0:0:
182,337,2215,6,0,P|284:290|349:301,1,161.999995056153,2|0,3:2|0:0,0:0:0:0:
330,294,2501,1,0,3:0:0:0:
418,218,2644,1,8,0:0:0:0:
418,218,2715,1,0,0:0:0:0:
418,218,2787,1,0,0:0:0:0:
443,335,2930,1,10,3:2:0:0:
282,236,3073,1,2,3:2:0:0:
444,76,3215,2,0,L|430:153,1,53.9999983520508,8|0,0:0|0:0,0:0:0:0:
349,168,3358,6,0,L|228:152,1,107.999996704102,2|0,3:2|0:2,0:0:0:0:
73,174,3644,1,2,0:0:0:0:
192,97,3787,1,10,0:0:0:0:
74,28,3930,1,0,0:0:0:0:
86,191,4073,1,10,3:2:0:0:
202,80,4215,1,2,3:2:0:0:
55,34,4358,1,8,0:0:0:0:
169,294,4501,6,0,P|165:221|138:136,1,135,2|0,3:2|0:0,3:0:0:0:
141,143,4787,2,0,P|120:128|99:96,1,53.9999983520508,8|0,0:0|0:0,0:0:0:0:
281,35,4930,2,0,P|293:66|286:116,1,53.9999983520508,10|0,0:0|0:0,0:0:0:0:
265,233,5073,2,0,L|232:150,1,53.9999983520508,8|0,0:0|0:0,0:0:0:0:
186,46,5215,1,2,0:0:0:0:
361,182,5358,1,8,0:0:0:0:
361,182,5430,1,8,0:0:0:0:
361,182,5501,1,8,0:0:0:0:
361,182,5573,1,8,0:0:0:0:
361,182,5644,6,0,B|388:244|362:302|362:302|329:251,1,161.999995056153,4|0,0:0|0:2,0:0:0:0:
341,269,5930,1,2,3:2:0:0:
411,109,6073,2,0,P|461:110|532:67,1,107.999996704102,8|0,0:0|0:0,0:0:0:0:
306,32,6358,1,10,3:2:0:0:
267,170,6501,1,2,3:2:0:0:
298,9,6644,1,8,0:0:0:0:
106,63,6787,6,0,L|134:229,1,161.999995056153,2|0,3:2|0:0,3:0:0:0:
133,222,7073,1,0,3:0:0:0:
279,324,7215,1,10,0:2:0:0:
259,329,7287,1,0,0:0:0:0:
240,335,7358,1,0,0:0:0:0:
112,209,7501,1,10,3:2:0:0:
138,384,7644,1,10,0:0:0:0:
213,182,7787,1,8,0:0:0:0:
21,272,7930,6,0,P|107:309|182:290,1,161.999995056153,0|0,3:2|0:2,3:2:0:0:
171,295,8215,1,2,3:0:0:0:
122,157,8358,1,10,0:0:0:0:
295,244,8501,1,0,0:0:0:0:
246,90,8644,1,10,3:2:0:0:
181,279,8787,1,2,3:2:0:0:
77,216,8930,1,8,0:0:0:0:
269,170,9073,6,2,B|299:164|310:145|310:145|348:149|348:149|369:121|427:140,1,161.999995056153,0|0,3:1|0:0,0:1:0:0:
432,145,9358,2,0,P|442:164|428:230,1,58.4999973220826,10|0,3:2|0:0,0:1:0:0:
336,275,9501,2,0,P|345:236|373:207,1,58.4999973220826,10|0,0:0|0:0,0:0:0:0:
468,323,9644,2,0,P|429:337|375:325,1,58.4999973220826,8|0,3:2|0:0,0:0:0:0:
244,282,9787,5,10,0:0:0:0:
197,266,9858,1,8,0:0:0:0:
149,281,9930,1,8,0:0:0:0:
111,317,10001,1,8,0:0:0:0:
62,305,10073,1,8,0:0:0:0:
47,257,10144,1,8,0:0:0:0:
83,224,10215,6,0,P|86:153|71:54,1,161.999995056153,4|0,0:0|0:2,0:0:0:0:
73,63,10501,1,2,3:0:0:0:
218,21,10644,1,10,0:0:0:0:
379,131,10787,1,0,0:0:0:0:
369,144,10858,1,0,0:0:0:0:
360,161,10930,2,0,P|314:164|251:132,1,107.999996704102,10|0,3:2|3:2,0:0:0:0:
332,17,11215,1,10,0:2:0:0:
507,240,11358,6,0,B|478:289|431:299|431:299|391:247|316:256,1,215.999993408203,0|0,3:0|3:0,3:0:0:0:
158,239,11787,1,10,0:0:0:0:
171,250,11858,1,0,0:0:0:0:
178,266,11930,1,0,0:0:0:0:
177,283,12001,1,0,0:0:0:0:
167,298,12073,5,10,3:2:0:0:
155,250,12144,1,0,0:0:0:0:
176,205,12215,1,8,3:2:0:0:
217,176,12287,1,0,0:0:0:0:
264,164,12358,1,10,0:0:0:0:
304,128,12430,1,0,0:0:0:0:
300,78,12501,6,0,P|239:28|144:34,1,161.999995056153,0|0,3:0|0:2,3:0:0:0:
158,27,12787,1,2,3:2:0:0:
103,163,12930,1,10,0:0:0:0:
68,25,13073,1,0,0:0:0:0:
261,156,13215,2,0,P|231:168|204:184,1,53.9999983520508,10|0,3:2|0:0,0:0:0:0:
66,239,13358,2,0,P|96:254|154:269,1,53.9999983520508,2|0,3:2|0:0,0:0:0:0:
202,361,13501,1,8,0:0:0:0:
202,361,13573,1,0,0:0:0:0:
202,361,13644,6,0,P|207:310|193:239,1,107.999996704102,2|0,3:2|0:0,3:0:0:0:
332,360,13930,2,0,P|368:359|394:347,1,53.9999983520508,10|0,3:2|0:0,0:0:0:0:
477,252,14073,2,0,L|463:173,1,53.9999983520508,10|0,3:2|0:0,0:0:0:0:
330,101,14215,2,0,P|306:102|266:121,1,53.9999983520508,8|0,0:0|0:0,0:0:0:0:
353,286,14358,2,0,P|382:263|397:230,1,53.9999983520508,2|0,3:2|0:0,0:0:0:0:
476,115,14501,1,8,0:0:0:0:
474,101,14573,1,8,0:0:0:0:
472,87,14644,1,8,0:0:0:0:
469,73,14715,1,8,0:0:0:0:
466,59,14787,6,0,B|418:39|418:39|379:44|379:44|328:5|260:32,1,215.999993408203,4|2,0:0|3:2,0:0:0:0:
153,128,15215,2,0,L|177:240,1,107.999996704102,8|0,0:0|0:0,0:0:0:0:
384,146,15501,1,10,3:2:0:0:
354,270,15644,2,0,L|331:382,1,107.999996704102,2|8,3:2|0:0,0:0:0:0:
72,279,15930,6,0,P|56:225|65:82,1,161.999995056153,2|0,3:2|0:2,3:0:0:0:
55,120,16215,1,2,3:2:0:0:
192,15,16358,1,10,0:0:0:0:
192,15,16429,1,0,0:0:0:0:
192,15,16501,1,0,0:0:0:0:
301,128,16644,1,10,3:2:0:0:
104,19,16787,1,8,3:2:0:0:
178,205,16930,2,0,L|185:266,1,53.9999983520508,8|0,0:0|0:0,0:0:0:0:
246,329,17073,6,0,P|305:333|361:305,1,107.999996704102,2|0,3:2|0:0,0:0:0:0:
459,207,17358,1,2,3:2:0:0:
352,296,17501,1,10,0:2:0:0:
380,100,17644,1,0,0:0:0:0:
251,190,17787,6,0,L|180:177,1,53.9999983520508,10|0,0:0|0:0,0:0:0:0:
53,143,17930,2,0,P|55:170|65:195,1,53.9999983520508,2|0,0:0|0:0,0:0:0:0:
129,308,18073,2,0,P|140:284|136:219,1,53.9999983520508,8|0,0:0|0:0,0:0:0:0:
169,86,18215,6,2,B|220:30|305:59|305:59|282:85|245:86,1,180,0|0,3:0|3:0,3:1:0:0:
279,78,18644,6,2,P|256:132|291:203,1,107.999996704102,8|0,0:0|0:0,0:1:0:0:
432,323,18930,5,8,0:0:0:0:
471,301,19001,1,8,0:0:0:0:
493,261,19073,1,8,0:0:0:0:
493,216,19144,1,8,0:0:0:0:
468,177,19215,1,8,0:0:0:0:
429,153,19287,1,8,0:0:0:0:
383,153,19358,1,0,3:0:0:0:
108,162,19644,5,0,0:0:0:0:
108,162,19787,2,0,L|161:112,1,53.9999983520508,0|0,3:0|0:0,0:0:0:0:
103,241,20073,2,0,L|51:226,1,53.9999983520508,0|0,3:0|0:0,0:0:0:0:
174,210,20358,2,0,L|187:262,1,53.9999983520508,0|0,3:0|0:0,0:0:0:0:
238,353,20644,2,0,P|275:348|309:333,1,53.9999983520508,0|0,3:0|0:0,0:0:0:0:
434,274,20930,2,0,P|407:270|375:258,1,53.9999983520508,0|0,3:0|0:0,0:0:0:0:
420,70,21215,5,0,3:0:0:0:
441,142,21358,1,0,0:0:0:0:
289,109,21501,5,0,3:0:0:0:
337,51,21644,1,0,0:0:0:0:
354,193,21787,5,0,3:0:0:0:
354,193,21930,1,0,0:0:0:0:
259,216,22073,2,0,P|227:225|191:217,1,53.9999983520508,0|0,3:0|0:0,0:0:0:0:
153,141,22358,2,0,P|108:134|84:148,1,53.9999983520508,0|0,3:0|0:0,0:0:0:0:
28,201,22644,2,0,L|40:264,1,53.9999983520508,0|0,3:0|0:0,0:0:0:0:
186,366,22930,5,0,3:0:0:0:
166,282,23073,1,0,0:0:0:0:
243,304,23215,1,0,3:0:0:0:
110,339,23358,1,0,0:0:0:0:
243,304,23501,2,0,L|305:314,1,53.9999983520508,0|0,3:0|0:0,0:0:0:0:
422,272,23787,2,0,P|396:253|379:221,1,53.9999983520508,0|0,3:0|0:0,0:0:0:0:
249,123,24073,5,2,3:0:0:0:
320,65,24215,1,2,0:3:0:0:
337,155,24358,1,2,3:0:0:0:
200,282,24501,5,2,0:3:0:0:
148,212,24644,1,2,3:3:0:0:
234,202,24787,1,0,0:3:0:0:
399,303,24930,5,2,3:0:0:0:
388,367,25073,1,2,0:3:0:0:
323,373,25215,1,2,3:0:0:0:
296,313,25358,1,0,0:0:0:0:
343,269,25501,2,0,P|360:237|359:211,1,53.9999983520508,2|0,3:0|0:0,0:0:0:0:
190,138,25787,2,0,P|192:172|203:190,1,53.9999983520508,2|0,3:0|0:3,0:0:0:0:
325,69,26073,2,0,P|332:40|324:10,1,53.9999983520508,2|0,3:0|0:0,0:0:0:0:
107,22,26358,5,2,0:3:0:0:
35,117,26501,1,2,0:3:0:0:
152,135,26644,1,2,0:3:0:0:
105,37,26787,5,2,0:3:0:0:
53,113,26930,1,2,3:0:0:0:
139,124,27073,1,0,0:0:0:0:
98,93,27215,6,0,B|87:112|83:132|95:153|121:162|130:190|96:214|74:198|77:175|96:177,1,135,2|0,0:1|0:0,0:0:0:0:
139,314,27501,6,0,P|163:313|207:292,1,62.9999980773926,8|0,0:0|0:0,0:0:0:0:
291,175,27644,2,0,P|261:196|239:255,1,62.9999980773926,8|0,0:0|0:0,0:0:0:0:
301,358,27787,2,0,P|297:321|260:280,1,62.9999980773926,8|0,3:2|0:0,0:0:0:0:
141,222,27930,2,0,P|113:169|125:123,1,62.9999980773926,8|0,0:0|0:0,0:0:0:0:
167,23,28073,5,8,0:2:0:0:
167,23,28144,1,8,0:0:0:0:
167,23,28215,2,0,L|184:98,1,62.9999980773926,0|0,3:0|0:0,0:0:0:0:
347,225,28358,2,0,L|328:127,1,62.9999980773926,8|0,0:0|0:0,0:0:0:0:
261,27,28501,6,0,B|274:100|274:100|245:150|245:150|258:233,1,198.000006042481,4|2,0:0|3:2,0:0:0:0:
255,215,28858,1,0,3:0:0:0:
255,215,28930,1,10,0:0:0:0:
340,344,29073,1,0,3:0:0:0:
340,344,29144,1,0,0:0:0:0:
340,344,29215,2,0,P|379:351|423:332,1,58.4999973220826,2|0,3:2|0:0,0:0:0:0:
489,329,29358,2,0,P|469:273|457:265,1,58.4999973220826,2|0,0:0|0:0,0:0:0:0:
379,208,29501,2,0,P|370:243|374:266,1,58.4999973220826,8|0,0:0|0:0,0:0:0:0:
484,190,29644,6,0,P|441:97|353:51,1,175.499991966248,2|0,3:2|0:0,0:0:0:0:
297,45,29930,2,0,L|211:65,1,58.4999973220826,2|0,3:2|0:0,0:0:0:0:
171,124,30073,2,0,L|113:132,1,58.4999973220826,10|0,0:0|0:0,0:0:0:0:
233,209,30215,2,0,L|154:224,1,58.4999973220826
46,330,30358,6,0,P|78:321|110:289,1,58.4999973220826,2|0,3:2|0:0,0:0:0:0:
147,364,30501,2,0,P|170:337|175:302,1,58.4999973220826,10|0,0:2|0:0,0:0:0:0:
247,339,30644,2,0,P|253:304|238:262,1,58.4999973220826,8|0,0:0|0:0,0:0:0:0:
331,213,30787,6,0,P|363:222|395:254,1,58.4999973220826,2|0,3:2|0:0,0:0:0:0:
414,200,30930,2,0,P|437:227|442:262,1,58.4999973220826
486,231,31073,2,0,P|492:266|477:308,1,58.4999973220826,2|0,3:0|0:0,0:0:0:0:
389,369,31215,5,10,0:0:0:0:
268,296,31358,1,0,0:0:0:0:
309,161,31501,1,2,3:2:0:0:
449,163,31644,1,2,3:0:0:0:
501,293,31787,1,8,0:0:0:0:
224,280,31930,6,0,B|207:234|226:186|226:186|206:142|206:142|229:90,1,198.000006042481,2|0,3:2|3:2,0:2:0:0:
240,77,32287,1,0,3:0:0:0:
240,77,32358,2,0,B|187:88|123:55|123:55,1,99.0000030212403,10|0,0:0|0:0,0:0:0:0:
339,8,32644,1,2,3:2:0:0:
480,140,32787,1,8,0:0:0:0:
480,140,32858,1,8,0:0:0:0:
480,140,32930,1,8,0:0:0:0:
480,140,33001,1,8,0:0:0:0:
480,140,33073,6,0,P|457:234|478:334,1,175.499991966248,4|0,0:0|0:0,0:0:0:0:
478,323,33358,1,0,3:0:0:0:
303,368,33501,1,8,0:0:0:0:
331,182,33644,1,0,0:0:0:0:
307,174,33715,1,0,0:0:0:0:
282,168,33787,1,0,3:2:0:0:
159,260,33930,1,0,3:0:0:0:
191,101,34073,1,8,0:0:0:0:
293,290,34215,6,0,B|309:155,1,116.999994644165,0|0,3:2|2:0,0:0:0:0:
392,44,34501,1,0,0:0:0:0:
416,38,34573,1,0,0:0:0:0:
439,31,34644,1,8,0:0:0:0:
508,176,34787,1,0,0:0:0:0:
486,164,34858,1,0,0:0:0:0:
464,153,34930,2,0,L|439:229,1,58.4999973220826,0|0,3:0|0:0,0:0:0:0:
373,262,35073,2,0,L|387:324,1,58.4999973220826
280,255,35215,1,8,0:0:0:0:
319,108,35358,6,0,P|395:114|513:85,1,198.000006042481,0|2,3:0|3:0,0:0:0:0:
385,229,35787,2,0,P|440:232|496:258,1,99.0000030212403,10|2,0:0|3:0,0:0:0:0:
495,277,36001,1,0,3:0:0:0:
495,277,36073,2,0,L|477:384,1,99.0000030212403,10|0,0:0|3:0,0:0:0:0:
292,243,36358,5,10,0:0:0:0:
292,243,36430,1,0,3:0:0:0:
292,243,36501,2,0,L|274:36,1,198.000006042481,2|0,3:0|3:0,0:0:0:0:
272,23,36858,1,0,3:0:0:0:
272,23,36930,2,0,P|212:2|166:22,1,99.0000030212403,10|0,0:0|3:0,0:0:0:0:
140,88,37144,1,0,3:0:0:0:
129,104,37215,5,8,0:0:0:0:
172,129,37287,1,8,0:0:0:0:
219,141,37358,1,8,0:0:0:0:
266,126,37430,1,8,0:0:0:0:
310,105,37501,1,8,0:0:0:0:
359,111,37573,1,8,0:0:0:0:
399,139,37644,5,4,0:0:0:0:
399,139,37930,1,0,3:0:0:0:
322,208,38073,1,10,0:0:0:0:
241,132,38215,1,0,3:0:0:0:
241,118,38287,1,0,3:0:0:0:
240,103,38358,2,0,L|196:74,2,49.5000015106202,2|0|2,3:2|3:0|3:2,3:0:0:0:
248,290,38644,1,8,0:0:0:0:
141,214,38787,5,2,3:2:0:0:
127,125,38930,1,0,3:0:0:0:
114,36,39073,1,0,3:0:0:0:
210,170,39215,1,10,0:0:0:0:
110,285,39358,1,0,3:0:0:0:
91,277,39430,1,0,3:0:0:0:
72,270,39501,2,0,L|16:286,2,49.5000015106202,2|0|2,3:2|3:0|3:2,3:0:0:0:
193,384,39787,1,10,0:2:0:0:
188,364,39858,1,0,0:0:0:0:
185,344,39930,5,2,3:2:0:0:
273,306,40073,1,0,3:0:0:0:
361,270,40215,1,2,3:2:0:0:
485,373,40358,1,10,0:2:0:0:
269,346,40501,1,0,3:0:0:0:
270,326,40573,1,0,3:0:0:0:
273,306,40644,2,0,L|287:219,2,49.5000015106202,2|0|2,3:2|3:0|3:2,3:0:0:0:
117,183,40930,1,8,0:0:0:0:
339,203,41073,5,2,3:2:0:0:
199,275,41215,1,0,3:0:0:0:
211,107,41358,1,0,3:0:0:0:
250,194,41501,1,10,0:2:0:0:
118,255,41644,1,0,3:0:0:0:
123,275,41715,1,0,0:0:0:0:
128,294,41787,1,2,3:2:0:0:
132,311,41858,1,0,0:0:0:0:
168,345,41930,5,10,0:0:0:0:
217,349,42001,1,8,0:0:0:0:
261,326,42073,1,10,0:0:0:0:
309,317,42144,1,8,0:0:0:0:
356,328,42215,6,0,B|399:261|399:261|361:121,1,215.999993408203,4|2,0:0|3:2,0:0:0:0:
359,115,42573,1,0,3:0:0:0:
359,115,42644,1,10,0:0:0:0:
166,216,42787,1,0,3:0:0:0:
166,216,42858,1,0,3:0:0:0:
166,216,42930,2,0,L|87:208,1,53.9999983520508,2|0,3:2|0:0,3:0:0:0:
48,113,43073,2,0,P|63:41|94:13,1,107.999996704102,2|10,3:2|0:0,0:0:0:0:
85,18,43358,6,0,P|138:106|109:216,1,215.999993408203,2|2,3:2|3:2,0:0:0:0:
36,245,43715,1,0,0:0:0:0:
36,245,43787,2,0,P|38:280|68:331,1,53.9999983520508,10|0,0:0|0:0,0:0:0:0:
112,384,43930,2,0,P|128:360|136:309,1,53.9999983520508,10|0,0:0|0:0,0:0:0:0:
201,264,44073,1,2,3:2:0:0:
241,246,44144,1,8,0:0:0:0:
285,253,44216,1,0,3:0:0:0:
328,263,44287,1,0,3:0:0:0:
368,244,44358,1,10,0:0:0:0:
343,90,44501,6,0,B|333:73|336:30|336:30|274:111|327:183,1,215.999993408203,2|2,3:2|3:2,0:0:0:0:
320,173,44858,1,0,0:0:0:0:
320,173,44930,1,10,0:0:0:0:
427,306,45073,1,0,3:0:0:0:
427,306,45144,1,0,3:0:0:0:
427,306,45215,2,0,P|451:266|436:195,1,107.999996704102,2|2,3:2|3:2,3:0:0:0:
157,8,45501,6,0,P|180:22|216:72,1,53.9999983520508,8|0,0:0|0:0,0:0:0:0:
379,40,45644,2,0,P|356:48|324:67,1,53.9999983520508,10|0,0:0|0:0,0:0:0:0:
149,47,45787,2,0,P|181:59|210:98,1,53.9999983520508
382,87,45930,2,0,P|337:97|317:121,1,53.9999983520508,2|0,0:0|0:0,0:0:0:0:
231,210,46073,2,0,L|252:127,1,53.9999983520508,10|0,0:0|0:0,0:0:0:0:
275,21,46216,2,0,L|259:106,1,53.9999983520508
331,187,46358,5,10,0:0:0:0:
367,210,46430,1,8,0:0:0:0:
410,206,46501,1,10,0:0:0:0:
152,135,46644,1,8,0:0:0:0:
115,111,46715,1,8,0:0:0:0:
75,115,46787,6,0,B|68:160|78:194|78:194|98:215|111:237|111:237|101:272|116:340,1,198.000006042481,4|0,0:0|3:0,0:0:0:0:
196,384,47215,1,10,0:0:0:0:
296,329,47358,1,0,3:0:0:0:
320,324,47430,1,0,3:0:0:0:
346,325,47501,2,0,P|381:337|402:365,2,49.5000015106202,2|0|2,3:2|3:0|3:2,3:0:0:0:
116,284,47787,1,8,0:2:0:0:
315,202,47930,5,2,3:2:0:0:
278,313,48073,1,0,3:0:0:0:
197,229,48215,1,0,3:2:0:0:
389,189,48358,1,10,0:0:0:0:
224,82,48501,1,0,3:0:0:0:
207,63,48573,1,0,3:0:0:0:
191,44,48644,2,0,P|178:86|187:109,1,49.5000015106202,2|0,3:2|3:0,3:0:0:0:
78,163,48787,2,0,P|103:169|130:169,1,49.5000015106202,2|0,3:2|0:0,0:0:0:0:
244,282,48930,2,0,L|230:203,1,49.5000015106202,8|0,0:0|0:0,0:0:0:0:
297,106,49073,6,0,L|313:240,1,116.999994644165,2|0,3:2|3:0,0:0:0:0:
323,341,49358,1,0,3:0:0:0:
380,147,49501,1,10,0:0:0:0:
167,264,49644,1,0,3:0:0:0:
157,286,49715,1,0,3:0:0:0:
154,312,49787,2,0,P|160:349|190:383,2,58.4999973220826,2|0|2,3:2|3:0|3:2,3:0:0:0:
221,193,50073,5,10,0:0:0:0:
139,93,50215,1,2,3:2:0:0:
90,216,50358,1,0,3:0:0:0:
240,198,50501,5,2,3:2:0:0:
133,67,50644,1,10,0:0:0:0:
70,241,50787,1,0,3:0:0:0:
70,241,50858,1,0,3:0:0:0:
70,241,50930,2,0,P|67:288|48:361,1,67.5000025749208,2|0,3:2|3:0,3:0:0:0:
200,382,51073,2,0,L|165:230,1,135.000005149842,4|0,0:0|0:0,0:0:0:0:
249,6,51358,6,0,P|289:83|269:166,1,175.499991966248,4|0,0:0|0:0,0:0:0:0:
269,165,51644,1,0,3:0:0:0:
31,123,51787,1,10,0:2:0:0:
120,328,51930,1,0,3:0:0:0:
120,328,52001,1,0,3:0:0:0:
120,328,52073,1,10,3:2:0:0:
203,201,52215,1,0,3:2:0:0:
400,254,52358,1,8,0:2:0:0:
274,366,52501,6,0,P|266:322|282:252,1,116.999994644165,2|0,3:2|0:0,3:0:0:0:
393,70,52787,1,0,3:0:0:0:
393,70,52858,1,0,0:0:0:0:
393,70,52930,2,0,L|365:186,1,116.999994644165,10|0,0:2|0:0,0:0:0:0:
219,156,53215,2,0,L|158:139,1,58.4999973220826,10|0,3:2|0:0,0:0:0:0:
74,31,53358,2,0,L|102:100,1,49.5000015106202,2|0,3:2|0:0,0:0:0:0:
36,206,53501,2,0,L|101:137,1,49.5000015106202,8|0,0:0|0:0,0:0:0:0:
208,39,53644,5,4,3:2:0:0:
208,39,53930,1,0,3:0:0:0:
293,90,54073,2,0,L|286:144,1,49.5000015106202,8|0,3:2|0:0,0:0:0:0:
171,216,54215,2,0,L|195:273,1,49.5000015106202,0|0,3:0|0:0,0:0:0:0:
353,310,54358,1,8,0:0:0:0:
359,315,54430,1,8,0:0:0:0:
365,320,54501,2,8,L|347:378,1,53.9999983520508,8|0,0:0|0:0,0:0:0:0:
275,230,54644,1,8,0:0:0:0:
260,219,54716,1,8,0:0:0:0:
246,205,54787,2,8,L|256:141,1,58.4999973220826,8|0,0:0|0:0,0:0:0:0:
342,43,54930,5,8,0:0:0:0:
384,33,55001,1,8,0:0:0:0:
427,43,55073,1,8,0:0:0:0:
461,69,55144,1,0,0:0:0:0:
484,109,55215,6,8,P|470:161|448:204,1,67.5000025749208
344,328,55358,2,8,P|329:301|321:232,1,67.5000025749208
257,31,55501,1,8,0:0:0:0:
58,215,55787,2,0,L|71:299,1,49.5000015106202
31,340,55930,6,0,B|80:359|117:333|117:333|168:353|168:353|194:322|246:338,1,202.500007724762,6|0,0:0|0:0,0:0:0:0:
219,332,56215,1,0,3:0:0:0:
369,358,56358,1,8,0:0:0:0:
319,187,56501,1,0,0:0:0:0:
294,190,56573,1,0,0:0:0:0:
274,205,56644,1,0,3:2:0:0:
342,361,56787,2,0,L|353:282,1,67.5000025749208,0|0,3:2|0:0,0:0:0:0:
431,132,56930,2,0,L|441:43,1,67.5000025749208,8|0,3:2|0:0,0:0:0:0:
461,215,57073,6,0,B|417:233|375:208|375:208|324:228|324:228|298:197|248:206,1,202.500007724762
272,202,57358,1,0,3:0:0:0:
147,292,57501,1,8,0:0:0:0:
127,44,57644,1,0,3:0:0:0:
153,45,57715,1,0,3:0:0:0:
177,56,57787,1,0,3:2:0:0:
72,360,57930,2,0,L|56:288,1,67.5000025749208
143,180,58073,2,0,L|131:105,1,67.5000025749208,8|0,3:2|0:0,0:0:0:0:
226,254,58215,6,0,P|282:270|364:246,1,135.000005149842,0|0,3:0|0:0,0:0:0:0:
406,149,58501,1,0,3:3:0:0:
406,149,58573,1,0,3:3:0:0:
406,149,58644,1,8,0:0:0:0:
322,362,58787,1,0,0:0:0:0:
472,243,58930,1,0,3:0:0:0:
248,171,59073,1,0,3:0:0:0:
455,31,59215,1,8,0:0:0:0:
177,127,59358,5,0,3:0:0:0:
125,145,59430,1,0,3:0:0:0:
74,128,59501,1,8,0:0:0:0:
345,199,59644,5,0,3:0:0:0:
395,180,59715,1,0,3:0:0:0:
445,200,59787,2,0,L|432:303,1,67.5000025749208,8|0,0:0|0:0,0:0:0:0:
327,384,59930,2,0,L|303:292,1,67.5000025749208,8|0,0:0|0:0,0:0:0:0:
256,100,60073,1,0,3:0:0:0:
20,284,60215,1,8,0:0:0:0:
20,284,60287,1,8,0:0:0:0:
20,284,60358,1,8,0:0:0:0:
20,284,60430,1,8,0:0:0:0:
20,284,60501,6,0,L|165:301,1,135.000005149842,4|0,0:0|0:0,0:0:0:0:
296,318,60787,1,0,3:0:0:0:
510,106,60930,2,0,L|366:140,1,135.000005149842,8|0,0:0|0:0,0:0:0:0:
352,147,61144,1,0,0:0:0:0:
352,147,61215,1,0,3:0:0:0:
244,38,61358,1,0,3:0:0:0:
151,198,61501,1,8,0:0:0:0:
151,198,61573,1,0,0:0:0:0:
151,198,61644,6,0,P|132:143|154:62,1,135.000005149842,0|0,3:0|0:0,0:0:0:0:
351,219,61930,2,0,P|304:223|266:237,1,67.5000025749208,0|0,3:0|0:0,0:0:0:0:
207,298,62073,2,0,P|221:330|219:385,1,67.5000025749208,8|0,0:0|0:0,0:0:0:0:
110,289,62215,1,0,0:0:0:0:
110,289,62287,1,0,0:0:0:0:
110,289,62358,2,0,P|33:269|-17:226,1,135.000005149842,0|0,3:0|3:0,0:0:0:0:
62,134,62644,1,8,0:0:0:0:
206,376,62787,6,0,B|167:317|188:272|188:272|164:235|164:235|172:180,1,202.500007724762,0|0,3:0|0:0,0:0:0:0:
170,187,63073,2,0,P|217:204|260:197,1,67.5000025749208,0|0,3:0|0:0,0:0:0:0:
318,78,63215,2,0,P|267:100|243:131,1,67.5000025749208,8|0,0:0|0:0,0:0:0:0:
355,257,63358,1,0,0:0:0:0:
365,265,63430,1,0,0:0:0:0:
376,275,63501,2,0,P|381:232|406:188,1,67.5000025749208,0|0,3:0|0:0,0:0:0:0:
460,52,63644,2,0,P|481:91|483:133,1,67.5000025749208,8|0,3:2|0:0,0:0:0:0:
499,259,63787,1,8,0:0:0:0:
334,146,63930,6,0,B|289:89|311:-5|311:-5|320:29|357:52,1,202.500007724762,0|0,3:0|0:0,0:0:0:0:
332,32,64215,1,0,3:0:0:0:
216,151,64358,1,8,0:0:0:0:
190,206,64430,1,8,0:0:0:0:
195,266,64501,1,8,0:0:0:0:
229,317,64573,1,8,0:0:0:0:
284,342,64644,1,8,0:3:0:0:
344,330,64715,5,8,0:3:0:0:
318,312,64787,1,8,0:3:0:0:
288,304,64858,1,0,3:3:0:0:
257,306,64930,1,0,3:3:0:0:
229,317,65001,1,0,3:3:0:0:
206,337,65073,6,0,B|171:368|118:352|118:352|78:320|78:320|43:334|52:367,1,202.500007724762,4|0,0:0|0:0,0:0:0:0:
51,364,65358,1,0,3:0:0:0:
153,280,65501,1,8,0:0:0:0:
87,120,65644,1,0,0:0:0:0:
87,120,65715,1,0,0:0:0:0:
87,120,65787,1,0,3:0:0:0:
44,240,65930,2,0,P|79:219|95:193,1,67.5000025749208,8|0,3:2|0:0,0:0:0:0:
168,66,66073,2,0,P|188:124|205:137,1,67.5000025749208,8|0,3:2|0:0,0:0:0:0:
297,218,66215,6,0,B|330:249|385:233|385:233|426:200|426:200|470:213|451:248,1,202.500007724762,0|0,3:0|0:0,0:0:0:0:
455,239,66501,1,0,3:0:0:0:
351,155,66643,1,8,0:0:0:0:
434,15,66786,1,0,0:0:0:0:
434,15,66857,1,0,0:0:0:0:
434,15,66929,1,0,3:0:0:0:
486,146,67073,2,0,P|470:105|471:69,1,67.5000025749208,8|0,3:2|0:0,0:0:0:0:
354,28,67215,2,0,P|332:76|290:105,1,67.5000025749208,8|0,3:2|0:0,0:0:0:0:
229,146,67358,6,0,P|176:119|55:120,1,135.000005149842,0|0,3:0|0:0,0:0:0:0:
240,35,67644,1,0,3:0:0:0:
240,35,67715,1,0,0:0:0:0:
240,35,67787,1,8,0:0:0:0:
337,293,67930,1,0,0:0:0:0:
337,293,68001,1,0,0:0:0:0:
337,293,68073,2,0,L|359:192,1,67.5000025749208,8|0,0:0|0:0,0:0:0:0:
377,80,68215,2,0,P|332:95|299:98,1,67.5000025749208,8|0,3:2|0:0,0:0:0:0:
173,184,68358,2,0,P|219:191|253:211,1,67.5000025749208,8|0,3:2|0:0,0:0:0:0:
390,360,68501,6,0,P|413:316|429:228,1,135.000005149842,0|0,3:0|0:0,0:0:0:0:
320,20,68787,1,0,3:0:0:0:
298,57,68858,1,0,0:0:0:0:
296,100,68930,1,8,0:0:0:0:
473,150,69073,1,0,0:0:0:0:
473,150,69144,1,0,0:0:0:0:
473,150,69215,2,0,L|388:159,1,67.5000025749208,0|0,3:0|0:0,0:0:0:0:
278,328,69358,5,8,0:0:0:0:
232,367,69430,1,8,0:0:0:0:
173,375,69501,1,8,0:0:0:0:
114,362,69573,1,8,0:0:0:0:
62,332,69644,6,0,B|44:290|44:253|44:253|68:233|100:228|100:228|124:173|100:145|100:145|79:160|31:160,1,270.000010299683,4|0,0:0|3:0,0:0:0:0:
48,51,70073,1,8,0:0:0:0:
230,141,70215,1,0,0:0:0:0:
261,138,70287,1,0,0:0:0:0:
285,124,70358,2,0,P|324:125|364:145,2,67.5000025749208,0|0|0,3:0|0:0|3:0,0:0:0:0:
56,85,70644,5,8,0:0:0:0:
330,23,70787,1,0,3:0:0:0:
139,85,70930,5,0,0:0:0:0:
427,175,71073,1,0,3:0:0:0:
99,15,71215,5,8,0:0:0:0:
301,275,71358,1,0,0:0:0:0:
29,106,71501,2,0,L|48:248,1,135.000005149842,0|0,3:0|3:0,0:0:0:0:
46,239,71715,1,0,0:0:0:0:
46,239,71787,1,8,0:0:0:0:
220,384,71930,6,0,B|288:303|236:197|236:197|235:250|195:292,1,270.000010299683,0|0,3:0|3:0,0:0:0:0:
24,232,72358,2,0,P|56:195|75:150,1,67.5000025749208,8|0,0:0|0:0,0:0:0:0:
112,50,72501,2,0,P|120:86|150:128,1,67.5000025749208
169,201,72644,2,0,P|205:204|247:193,1,67.5000025749208,0|0,3:0|0:0,0:0:0:0:
401,82,72787,2,0,P|400:45|386:9,1,67.5000025749208,0|0,3:0|0:0,0:0:0:0:
307,137,72930,5,8,0:0:0:0:
307,137,73001,1,0,0:0:0:0:
307,137,73073,2,0,B|260:211|290:288|290:288|297:258|334:241,1,202.500007724762,0|0,3:0|0:0,0:0:0:0:
379,245,73358,2,0,P|345:241|314:252,1,67.5000025749208,0|0,3:0|0:0,0:0:0:0:
197,358,73501,2,0,P|227:373|302:352,1,76.5000014591217,8|0,0:0|0:0,0:0:0:0:
457,224,73644,2,0,P|455:185|437:136,1,76.5000014591217,8|0,0:0|0:0,0:0:0:0:
241,20,73787,5,8,0:0:0:0:
172,24,73858,1,8,0:0:0:0:
110,56,73930,1,8,0:0:0:0:
76,115,74001,1,8,0:0:0:0:
66,183,74073,1,8,0:0:0:0:
83,249,74144,1,8,0:0:0:0:
130,298,74215,1,6,0:0:0:0:
339,243,82930,5,8,0:0:0:0:
339,243,83001,1,8,0:0:0:0:
339,243,83073,1,8,0:0:0:0:
339,243,83144,1,8,0:0:0:0:
339,243,83215,1,8,0:0:0:0:
339,243,83287,1,8,0:0:0:0:
339,243,83358,6,0,B|233:225,1,107.999996704102,4|0,3:2|0:2,0:0:0:0:
37,168,83644,1,2,3:2:0:0:
203,92,83787,1,8,0:0:0:0:
109,264,83930,1,0,0:0:0:0:
44,36,84073,1,10,3:2:0:0:
108,148,84215,2,0,P|136:207|121:268,1,107.999996704102,0|10,3:0|0:0,0:0:0:0:
183,359,84501,6,0,B|225:373|265:358|265:358|304:326|304:326|348:332|395:309,1,215.999993408203,0|0,3:0|3:0,0:0:0:0:
460,161,84930,1,10,0:0:0:0:
452,179,85001,1,0,0:0:0:0:
451,198,85073,1,0,0:0:0:0:
457,216,85144,1,0,0:0:0:0:
467,231,85215,5,10,3:2:0:0:
494,189,85287,1,0,0:0:0:0:
491,140,85358,1,0,3:0:0:0:
467,95,85430,1,0,0:0:0:0:
428,63,85501,1,10,0:0:0:0:
375,53,85573,1,0,0:0:0:0:
326,75,85644,6,0,B|283:66|267:45|267:45|226:54|226:54|184:16|157:40,1,161.999995056153,0|0,3:0|0:0,0:0:0:0:
180,31,85930,1,2,3:2:0:0:
21,118,86073,1,10,0:0:0:0:
182,162,86215,1,0,0:0:0:0:
186,373,86358,1,10,3:2:0:0:
42,288,86501,1,2,3:2:0:0:
244,253,86644,2,0,L|158:268,1,53.9999983520508,8|0,0:0|0:0,0:0:0:0:
111,204,86787,6,0,P|93:137|131:28,1,161.999995056153,2|0,3:2|0:0,0:0:0:0:
128,55,87073,2,0,P|161:73|209:79,1,53.9999983520508,8|0,0:0|0:0,0:0:0:0:
281,26,87215,2,0,P|313:13|337:10,1,53.9999983520508,10|0,0:0|0:0,0:0:0:0:
492,61,87358,2,0,P|496:98|486:136,1,53.9999983520508,8|0,0:0|0:0,0:0:0:0:
311,236,87501,2,0,P|308:210|317:157,1,53.9999983520508,2|0,3:0|0:0,0:0:0:0:
402,62,87644,1,8,0:0:0:0:
401,86,87715,1,8,0:0:0:0:
400,110,87787,1,8,0:0:0:0:
399,134,87858,1,8,0:0:0:0:
399,159,87930,6,0,B|405:228|405:228|375:282|375:282|388:367,1,215.999993408203,4|2,3:2|3:2,0:0:0:0:
101,353,88358,1,8,0:0:0:0:
259,284,88501,1,0,0:0:0:0:
79,335,88644,1,10,3:2:0:0:
32,160,88787,2,0,P|24:111|48:49,1,107.999996704102,2|8,3:2|0:0,0:0:0:0:
188,184,89073,6,0,P|195:244|153:314,1,107.999996704102,2|0,3:2|0:0,0:0:0:0:
115,120,89358,1,0,3:0:0:0:
115,120,89430,1,0,0:0:0:0:
115,120,89501,1,10,0:0:0:0:
300,152,89644,1,0,0:0:0:0:
186,39,89787,5,10,3:2:0:0:
272,280,89930,1,8,3:2:0:0:
186,39,90073,1,10,0:0:0:0:
272,280,90215,6,0,P|337:256|376:257,1,107.999996704102,0|0,3:0|0:0,0:0:0:0:
449,351,90501,1,2,3:0:0:0:
449,351,90573,1,0,0:0:0:0:
449,351,90644,1,10,0:0:0:0:
277,384,90787,1,0,0:0:0:0:
387,262,90930,1,10,3:2:0:0:
244,363,91073,1,2,3:2:0:0:
68,288,91215,1,8,0:0:0:0:
176,54,91358,6,0,P|197:94|171:208,1,135,2|0,3:2|0:0,0:0:0:0:
176,197,91644,2,0,P|140:191|80:189,1,67.5000025749208,0|0,3:0|0:0,0:0:0:0:
283,39,91787,2,0,P|317:44|370:46,1,67.5000025749208,10|0,0:0|0:0,0:0:0:0:
471,155,91930,2,0,L|453:271,1,67.5000025749208,0|0,3:0|0:0,0:0:0:0:
348,374,92073,5,10,0:0:0:0:
317,349,92144,1,8,0:0:0:0:
296,315,92215,1,8,0:0:0:0:
281,277,92287,1,8,0:0:0:0:
275,237,92358,1,8,0:0:0:0:
278,197,92430,1,8,0:0:0:0:
288,159,92501,1,0,3:0:0:0:
67,157,92787,5,0,0:0:0:0:
67,157,92930,2,0,P|100:132|122:130,1,53.9999983520508,0|0,3:0|0:0,0:0:0:0:
224,102,93215,2,0,P|201:88|175:83,1,53.9999983520508,0|0,3:0|0:0,0:0:0:0:
66,57,93501,2,0,P|83:36|120:25,1,53.9999983520508,0|0,3:0|0:0,0:0:0:0:
251,29,93787,5,0,3:0:0:0:
251,29,93930,1,0,0:0:0:0:
285,158,94073,1,0,3:0:0:0:
285,158,94215,1,0,0:0:0:0:
384,69,94358,6,0,L|308:85,1,53.9999983520508,0|0,3:0|0:0,0:0:0:0:
474,155,94644,2,0,L|409:136,1,53.9999983520508,0|0,3:0|0:0,0:0:0:0:
305,233,94930,6,0,P|329:257|355:271,1,53.9999983520508,0|0,3:0|0:0,0:0:0:0:
489,290,95215,2,0,P|456:296|421:285,1,53.9999983520508,0|0,3:0|0:0,0:0:0:0:
334,369,95501,2,0,P|369:350|376:331,1,53.9999983520508,0|0,3:0|0:0,0:0:0:0:
403,175,95787,2,0,P|409:200|405:229,1,53.9999983520508,0|0,3:0|0:0,0:0:0:0:
197,288,96073,5,0,3:0:0:0:
315,287,96215,1,0,0:0:0:0:
256,214,96358,1,0,3:0:0:0:
256,328,96501,5,0,0:0:0:0:
256,206,96644,1,0,3:0:0:0:
256,336,96787,1,0,0:0:0:0:
256,197,96930,2,0,L|256:134,1,53.9999983520508,0|0,3:0|0:0,0:0:0:0:
380,23,97215,5,2,3:3:0:0:
455,82,97358,1,2,0:3:0:0:
321,107,97501,1,2,3:3:0:0:
128,23,97644,5,2,0:3:0:0:
68,71,97787,1,2,3:3:0:0:
176,91,97930,1,0,0:0:0:0:
321,90,98073,5,2,3:3:0:0:
302,11,98215,1,2,0:3:0:0:
222,6,98358,1,2,3:3:0:0:
192,79,98501,1,0,0:3:0:0:
252,130,98644,2,0,L|242:183,1,53.9999983520508,0|2,3:0|0:3,0:0:0:0:
176,295,98930,2,0,L|156:239,1,53.9999983520508,2|2,3:3|0:3,0:0:0:0:
327,288,99215,2,0,L|305:362,1,53.9999983520508,2|0,3:0|0:0,0:0:0:0:
42,308,99501,5,2,3:0:0:0:
49,283,99644,1,2,0:3:0:0:
56,257,99787,1,2,3:0:0:0:
64,230,99930,1,2,0:3:0:0:
71,207,100073,1,2,3:0:0:0:
78,182,100215,1,0,0:0:0:0:
85,154,100358,2,0,P|59:206|84:154,1,180,2|0,0:1|0:0,0:0:0:0:
319,180,100644,6,0,P|325:200|325:222,1,45,8|0,0:0|0:0,0:0:0:0:
165,119,100787,2,0,P|147:103|132:85,1,45,8|0,0:0|0:0,0:0:0:0:
323,82,100930,2,0,P|345:82|366:88,1,45,8|0,0:0|0:0,0:0:0:0:
221,211,101073,2,0,P|202:222|180:226,1,45,8|0,0:0|0:0,0:0:0:0:
227,44,101215,1,8,3:2:0:0:
227,44,101287,1,8,0:0:0:0:
227,44,101358,2,0,P|233:22|246:3,2,45,8|0|0,0:0|0:0|0:0,0:0:0:0:
256,143,101644,6,0,B|238:192|265:228|265:228|248:273|248:273|276:313|251:369,1,233.999989288331,4|2,0:0|3:0,0:0:0:0:
252,364,102001,1,0,0:0:0:0:
252,364,102073,1,10,0:0:0:0:
71,330,102215,1,0,0:0:0:0:
71,330,102287,1,0,0:0:0:0:
71,330,102358,2,0,P|48:290|45:261,1,58.4999973220826,2|0,3:0|0:0,0:0:0:0:
124,229,102501,2,0,L|203:204,1,58.4999973220826,0|0,3:0|0:0,0:0:0:0:
79,151,102644,2,0,L|14:139,1,58.4999973220826,10|0,0:0|0:0,0:0:0:0:
127,66,102787,6,0,P|172:100|280:104,1,116.999994644165,2|0,3:0|0:0,0:0:0:0:
245,102,103001,1,0,0:0:0:0:
260,85,103073,2,0,L|236:14,1,58.4999973220826,0|0,3:0|0:0,0:0:0:0:
346,134,103215,2,0,L|420:119,1,58.4999973220826,10|0,0:0|0:0,0:0:0:0:
473,187,103358,2,0,P|483:228|460:272,1,58.4999973220826
384,329,103501,6,0,L|285:301,1,58.4999973220826,2|0,3:0|0:0,0:0:0:0:
252,346,103644,2,0,L|150:319,1,58.4999973220826,10|0,0:0|0:0,0:0:0:0:
116,356,103787,2,0,L|24:332,1,58.4999973220826,8|0,0:0|0:0,0:0:0:0:
16,210,103930,6,0,L|115:182,1,58.4999973220826,2|0,3:0|0:0,0:0:0:0:
117,209,104073,2,0,L|219:182,1,58.4999973220826
223,201,104216,2,0,L|315:177,1,58.4999973220826,2|0,3:0|0:0,0:0:0:0:
316,101,104358,5,10,0:0:0:0:
186,71,104501,1,2,0:0:0:0:
223,201,104644,1,2,3:0:0:0:
272,7,104787,1,0,3:0:0:0:
120,133,104930,1,10,0:0:0:0:
331,195,105073,6,0,P|393:194|474:79,1,198.000006042481,2|2,3:0|3:0,0:0:0:0:
476,74,105430,1,0,0:0:0:0:
476,72,105501,2,0,P|479:130|498:177,1,99.0000030212403,8|0,0:0|3:0,0:0:0:0:
345,31,105787,1,0,3:0:0:0:
370,224,105930,1,8,0:0:0:0:
345,220,106001,1,8,0:0:0:0:
320,217,106073,1,8,0:0:0:0:
295,214,106144,1,8,0:0:0:0:
270,210,106215,6,0,B|220:200|190:245|190:245|136:269|95:236|95:236|114:226|128:196,1,233.999989288331,4|0,0:0|3:0,0:0:0:0:
122,208,106644,2,0,P|135:152|121:80,1,116.999994644165,8|0,0:0|0:0,0:0:0:0:
238,310,106930,1,0,3:0:0:0:
303,145,107073,1,0,3:0:0:0:
244,334,107215,1,8,0:0:0:0:
400,328,107358,6,0,P|382:277|389:198,1,116.999994644165,0|0,3:0|0:0,0:0:0:0:
472,27,107644,1,0,3:0:0:0:
438,35,107715,1,0,0:0:0:0:
405,47,107787,1,8,0:0:0:0:
230,209,107930,1,0,0:0:0:0:
263,217,108001,1,0,0:0:0:0:
296,227,108073,1,0,3:0:0:0:
300,44,108215,1,0,3:0:0:0:
70,76,108358,2,0,L|85:139,1,58.4999973220826,8|0,0:0|0:0,0:0:0:0:
101,217,108501,6,0,P|142:206|208:209,1,99.0000030212403,0|0,3:0|3:0,0:0:0:0:
214,15,108787,2,0,L|207:85,1,49.5000015106202,2|0,3:0|0:0,0:0:0:0:
268,137,108930,2,0,P|333:149|385:138,1,99.0000030212403,10|2,0:0|0:0,0:0:0:0:
445,107,109144,1,0,0:0:0:0:
445,107,109215,2,0,P|433:55|445:-29,1,99.0000030212403,10|2,3:2|3:0,0:0:0:0:
475,270,109501,5,8,0:0:0:0:
475,270,109573,1,0,0:0:0:0:
475,270,109644,2,0,L|270:309,1,198.000006042481,2|0,3:2|0:0,0:0:0:0:
273,333,110001,1,0,0:0:0:0:
270,359,110073,1,10,0:0:0:0:
75,272,110215,1,0,3:2:0:0:
68,244,110287,1,0,0:0:0:0:
60,217,110358,5,8,0:0:0:0:
113,204,110430,1,8,0:0:0:0:
150,165,110501,1,8,0:0:0:0:
164,112,110573,1,8,0:0:0:0:
147,60,110644,1,8,0:0:0:0:
102,28,110715,1,8,0:0:0:0:
47,25,110787,1,4,0:0:0:0:
67,119,111073,5,0,3:0:0:0:
153,179,111216,1,10,0:2:0:0:
240,116,111358,1,0,3:0:0:0:
240,116,111430,1,0,3:0:0:0:
240,116,111501,2,0,L|301:116,2,49.5000015106202,2|0|2,3:2|3:0|3:2,3:0:0:0:
67,198,111787,1,8,0:0:0:0:
272,276,111930,5,2,3:2:0:0:
369,282,112073,1,0,3:0:0:0:
443,230,112215,1,0,3:0:0:0:
234,160,112358,1,10,0:2:0:0:
156,251,112501,1,0,3:0:0:0:
156,251,112573,1,0,3:0:0:0:
156,251,112644,2,0,L|176:315,2,49.5000015106202,2|0|2,3:2|3:2|3:2,3:2:0:0:
70,222,112930,1,10,0:0:0:0:
4,131,113073,5,2,3:2:0:0:
92,122,113215,1,0,3:0:0:0:
164,174,113358,1,2,3:2:0:0:
117,43,113501,1,10,0:0:0:0:
75,228,113644,1,0,3:0:0:0:
75,228,113715,1,0,3:0:0:0:
75,228,113787,2,0,P|87:264|95:306,1,49.5000015106202,2|0,3:2|3:0,3:0:0:0:
46,346,113930,1,2,3:2:0:0:
234,384,114073,1,8,0:0:0:0:
307,204,114215,5,2,3:2:0:0:
411,178,114358,1,0,3:0:0:0:
502,225,114501,1,2,3:2:0:0:
392,350,114644,1,10,0:2:0:0:
339,174,114787,5,0,3:0:0:0:
328,184,114858,1,0,3:0:0:0:
316,192,114930,2,0,P|269:203|248:199,1,49.5000015106202,2|0,3:2|2:0,3:0:0:0:
118,256,115073,1,8,0:0:0:0:
87,288,115144,1,8,0:0:0:0:
83,332,115215,1,8,0:0:0:0:
107,369,115287,1,8,0:0:0:0:
147,383,115358,6,0,B|165:329|142:291|142:291|110:269|114:235|114:235|139:196|112:144,1,233.999989288331,4|0,3:2|3:0,0:0:0:0:
114,141,115715,1,0,0:0:0:0:
114,141,115787,1,10,0:0:0:0:
228,21,115930,1,0,0:0:0:0:
228,21,116001,1,0,0:0:0:0:
228,21,116073,2,0,P|233:60|221:108,1,58.4999973220826,2|0,3:2|0:0,0:0:0:0:
286,145,116215,2,0,P|335:130|410:139,1,116.999994644165,2|8,3:2|0:0,0:0:0:0:
208,338,116501,6,0,P|149:334|98:296,1,116.999994644165,2|0,3:2|0:0,0:0:0:0:
40,167,116787,1,2,3:2:0:0:
46,181,116858,1,0,0:0:0:0:
51,193,116930,1,10,0:0:0:0:
96,26,117073,1,8,0:0:0:0:
300,113,117215,6,0,L|288:178,1,58.4999973220826,2|8,3:2|3:2,0:0:0:0:
189,210,117358,2,0,L|214:286,1,58.4999973220826,0|0,3:0|0:0,0:0:0:0:
308,321,117501,1,10,0:2:0:0:
308,321,117644,6,0,B|363:247|456:252|456:252|411:275|412:300,1,233.999989288331,0|2,3:0|3:2,0:0:0:0:
166,302,118073,2,0,P|98:307|47:291,1,116.999994644165,10|0,0:0|0:0,0:0:0:0:
37,284,118287,1,0,0:0:0:0:
37,284,118358,2,0,P|45:228|20:150,1,116.999994644165,2|2,3:2|3:2,3:0:0:0:
58,21,118644,6,0,P|98:31|117:69,1,58.4999973220826,8|0,0:0|0:0,0:0:0:0:
153,41,118787,2,0,P|182:84|185:113,1,58.4999973220826,2|0,3:2|0:0,0:0:0:0:
247,202,118930,2,0,P|285:214|325:203,1,58.4999973220826
338,237,119073,2,0,P|379:225|405:196,1,58.4999973220826,2|0,3:2|0:0,0:0:0:0:
485,131,119215,2,0,P|446:103|418:95,1,58.4999973220826,10|0,0:0|0:0,0:0:0:0:
331,44,119358,2,0,P|315:80|320:119,1,58.4999973220826,0|0,3:0|0:0,0:0:0:0:
341,261,119501,5,8,0:0:0:0:
344,275,119573,1,8,0:0:0:0:
347,289,119644,1,8,0:0:0:0:
351,303,119715,1,8,0:0:0:0:
355,317,119787,1,8,0:0:0:0:
358,331,119858,1,8,0:0:0:0:
360,345,119930,6,0,B|314:374|265:349|265:349|235:365|235:365|191:370|146:338,1,198.000006042481,4|0,3:2|3:0,0:0:0:0:
87,196,120358,2,0,L|97:133,1,49.5000015106202,10|0,0:0|0:0,0:0:0:0:
24,267,120501,1,0,3:0:0:0:
47,276,120573,1,0,3:0:0:0:
70,283,120644,1,2,3:2:0:0:
94,283,120715,1,0,3:0:0:0:
118,278,120787,1,2,3:2:0:0:
223,137,120930,1,8,0:0:0:0:
197,309,121073,1,2,3:2:0:0:
153,175,121215,5,0,3:0:0:0:
295,263,121358,1,0,3:0:0:0:
399,139,121501,2,0,L|387:78,1,49.5000015106202,10|0,0:2|0:0,0:0:0:0:
462,218,121644,1,0,3:0:0:0:
439,228,121715,1,0,3:0:0:0:
414,233,121787,1,2,3:2:0:0:
389,232,121858,1,0,3:0:0:0:
364,229,121930,1,2,3:2:0:0:
316,78,122073,1,8,0:0:0:0:
295,263,122215,1,2,3:2:0:0:
403,105,122358,5,0,3:0:0:0:
252,194,122501,1,2,3:2:0:0:
141,61,122644,2,8,L|148:13,1,49.5000015106202,10|0,0:0|0:0,0:0:0:0:
73,140,122787,1,0,3:0:0:0:
95,149,122858,1,0,3:0:0:0:
119,155,122930,1,2,3:2:0:0:
143,158,123001,1,0,3:0:0:0:
167,156,123073,1,2,3:2:0:0:
239,6,123215,5,8,0:0:0:0:
253,195,123358,1,2,3:2:0:0:
332,71,123501,5,0,3:0:0:0:
164,102,123644,1,2,3:2:0:0:
350,244,123787,1,10,0:2:0:0:
155,370,123930,1,0,3:0:0:0:
155,370,124001,1,0,3:0:0:0:
155,370,124073,2,0,L|137:283,1,67.5000025749208,2|0,3:2|3:0,3:0:0:0:
151,228,124215,6,0,P|208:206|322:201,1,135.000005149842,4|0,0:0|0:0,0:0:0:0:
49,153,124501,6,0,P|95:71|224:21,1,233.999989288331,4|0,0:0|3:0,0:0:0:0:
355,86,124930,2,0,L|347:157,1,49.5000015106202,8|0,0:0|0:0,0:0:0:0:
408,273,125073,1,0,0:0:0:0:
408,273,125144,1,0,0:0:0:0:
408,273,125215,6,0,L|441:226,1,49.5000015106202,8|0,3:2|0:0,0:0:0:0:
258,208,125358,2,0,L|280:260,1,49.5000015106202,0|0,3:0|0:0,0:0:0:0:
325,346,125501,1,8,0:0:0:0:
424,206,125644,6,0,P|356:211|266:172,1,148.50000453186,0|0,3:0|0:0,0:0:0:0:
286,187,125930,1,0,0:0:0:0:
288,14,126073,2,0,P|282:56|271:85,1,49.5000015106202,8|0,0:0|0:0,0:0:0:0:
72,161,126215,2,0,P|61:137|57:78,1,49.5000015106202,8|0,0:0|0:0,0:0:0:0:
172,35,126358,5,8,3:2:0:0:
163,73,126430,1,8,0:0:0:0:
181,108,126501,1,8,0:0:0:0:
166,145,126573,1,8,0:0:0:0:
184,179,126644,1,8,0:0:0:0:
168,216,126715,1,8,0:0:0:0:
187,246,126787,2,0,B|176:304|176:304|214:344,1,112.5
212,342,127930,6,0,P|302:344|420:321,1,180,4|0,0:0|0:0,0:0:0:0:
478,107,128215,5,8,0:0:0:0:
419,89,128287,1,8,0:0:0:0:
362,109,128358,1,8,0:0:0:0:
322,155,128430,1,8,0:0:0:0:
260,159,128501,1,8,0:0:0:0:
211,122,128573,1,8,0:0:0:0:
213,110,128644,5,0,0:0:0:0:
216,98,128715,1,8,0:0:0:0:
218,86,128787,1,8,0:0:0:0:
222,75,128858,1,8,0:0:0:0:
224,63,128930,2,8,P|195:83|177:134,1,58.4999973220826,8|0,0:0|0:0,0:0:0:0:
65,315,129073,6,0,B|98:265|98:265|58:207|58:207|95:144|56:108,1,202.500007724762,6|0,0:0|0:0,0:0:0:0:
75,139,129358,1,0,3:0:0:0:
41,39,129501,1,8,0:0:0:0:
159,197,129644,1,0,0:0:0:0:
159,197,129715,1,0,0:0:0:0:
159,197,129787,1,0,3:0:0:0:
362,89,129930,2,0,P|322:98|283:100,1,67.5000025749208,0|0,3:0|0:0,0:0:0:0:
266,256,130073,2,0,P|258:218|255:189,1,67.5000025749208,8|0,0:0|0:0,0:0:0:0:
405,24,130215,6,0,B|372:74|372:74|412:132|412:132|375:195|414:231,1,202.500007724762,0|0,3:0|0:0,0:0:0:0:
395,200,130501,1,0,3:0:0:0:
479,293,130644,1,8,0:0:0:0:
480,84,130787,1,0,0:0:0:0:
480,84,130858,1,0,0:0:0:0:
480,84,130930,1,0,3:0:0:0:
496,265,131073,2,0,P|492:224|473:177,1,67.5000025749208,0|0,3:0|0:0,0:0:0:0:
314,197,131215,2,0,P|321:160|348:115,1,67.5000025749208,8|0,0:0|0:0,0:0:0:0:
299,49,131358,6,0,P|252:29|128:60,1,135.000005149842,0|0,3:0|0:0,0:0:0:0:
75,266,131644,6,0,P|72:224|62:190,1,67.5000025749208,0|0,3:0|0:0,0:0:0:0:
4,80,131787,1,8,0:0:0:0:
155,315,131930,6,0,P|166:255|193:214,1,67.5000025749208
243,142,132073,1,0,3:0:0:0:
76,344,132215,6,0,P|48:314|-7:296,1,67.5000025749208,0|0,3:0|0:0,0:0:0:0:
121,190,132358,2,0,P|135:147|183:112,1,67.5000025749208,8|0,0:0|0:0,0:0:0:0:
338,14,132501,6,0,P|431:91|426:234,1,270.000010299683,0|0,3:0|3:0,0:0:0:0:
416,245,132858,1,0,3:0:0:0:
401,261,132930,2,0,L|332:259,1,67.5000025749208,8|0,0:0|0:0,0:0:0:0:
162,146,133073,1,0,0:0:0:0:
162,146,133144,1,0,0:0:0:0:
162,146,133215,2,0,P|203:145|271:214,1,135.000005149842,0|8,3:0|0:0,0:0:0:0:
248,277,133430,1,8,0:0:0:0:
205,303,133501,1,8,0:0:0:0:
151,303,133573,1,8,0:0:0:0:
101,285,133644,6,0,B|90:251|103:198|103:198|75:168|73:139|73:139|89:96|75:49,1,202.500007724762,4|0,3:2|0:0,0:0:0:0:
81,93,133930,1,0,3:0:0:0:
274,127,134073,2,0,P|339:105|377:46,1,135.000005149842,8|0,0:0|0:0,0:0:0:0:
375,52,134287,1,0,0:0:0:0:
375,52,134358,1,0,3:0:0:0:
226,36,134501,1,0,3:0:0:0:
361,206,134644,1,8,0:0:0:0:
361,206,134715,1,0,0:0:0:0:
361,206,134787,6,0,P|425:209|488:196,1,67.5000025749208,0|0,3:0|0:0,0:0:0:0:
512,315,134930,2,0,P|470:307|421:307,1,67.5000025749208
371,365,135073,1,0,3:0:0:0:
506,194,135215,1,8,0:0:0:0:
351,337,135358,2,0,L|271:332,2,67.5000025749208,0|0|0,0:0|0:0|3:0,0:0:0:0:
229,137,135644,2,0,P|230:176|245:220,1,67.5000025749208
86,273,135787,2,0,P|99:220|98:192,1,67.5000025749208,8|0,0:0|0:0,0:0:0:0:
161,54,135930,6,0,P|245:16|370:47,1,202.500007724762,0|0,3:0|0:0,0:0:0:0:
363,38,136215,2,0,P|359:95|372:124,1,67.5000025749208,0|0,3:0|0:0,0:0:0:0:
500,253,136358,2,0,P|433:227|420:210,1,67.5000025749208,8|0,0:0|0:0,0:0:0:0:
343,200,136501,2,0,P|310:234|296:267,1,67.5000025749208
183,351,136644,6,0,P|218:348|248:334,1,67.5000025749208,0|0,3:0|0:0,0:0:0:0:
114,148,136787,2,0,P|75:129|3:130,1,67.5000025749208,0|0,3:0|0:0,0:0:0:0:
8,305,136930,1,8,0:0:0:0:
8,305,137073,2,0,B|12:356|42:381|42:381|87:280|54:202,1,270.000010299683,0|0,3:0|3:0,0:0:0:0:
225,7,137501,5,8,0:0:0:0:
180,53,137573,1,8,0:0:0:0:
177,116,137644,1,8,0:0:0:0:
199,172,137715,1,8,0:0:0:0:
247,206,137787,5,8,0:3:0:0:
237,215,137858,1,8,0:3:0:0:
225,222,137930,1,8,0:3:0:0:
212,225,138001,1,0,3:0:0:0:
198,228,138073,1,0,3:0:0:0:
184,226,138144,1,0,3:0:0:0:
171,220,138215,6,0,P|234:253|314:258,1,135.000005149842,4|0,0:0|0:0,0:0:0:0:
490,216,138501,2,0,P|484:179|467:139,1,67.5000025749208,0|0,3:0|0:0,0:0:0:0:
372,84,138644,1,8,0:0:0:0:
406,310,138787,1,0,0:0:0:0:
406,310,138858,1,0,0:0:0:0:
406,310,138930,1,0,3:0:0:0:
121,261,139073,2,0,P|156:259|208:238,1,67.5000025749208,0|0,3:0|0:0,0:0:0:0:
334,227,139215,2,0,P|308:201|278:190,1,67.5000025749208,8|0,0:0|0:0,0:0:0:0:
188,133,139358,6,0,P|177:62|148:-6,1,135.000005149842,0|0,3:0|0:0,0:0:0:0:
37,185,139644,2,0,L|55:103,1,67.5000025749208,0|0,3:0|0:0,0:0:0:0:
71,26,139787,1,8,0:0:0:0:
124,235,139930,1,0,0:0:0:0:
124,235,140001,1,0,0:0:0:0:
124,235,140073,1,0,3:0:0:0:
315,115,140215,2,0,P|355:134|395:137,1,67.5000025749208,0|0,3:0|0:0,0:0:0:0:
484,40,140358,2,0,P|446:46|422:66,1,67.5000025749208,8|0,0:0|0:0,0:0:0:0:
433,196,140501,6,0,L|399:42,1,135.000005149842,0|0,3:0|0:0,0:0:0:0:
323,263,140787,2,0,L|334:182,1,67.5000025749208,0|0,3:0|0:0,0:0:0:0:
287,104,140930,1,8,0:0:0:0:
251,361,141073,2,0,L|235:296,1,67.5000025749208
160,228,141215,1,0,3:0:0:0:
9,157,141358,2,0,L|83:175,1,67.5000025749208,0|0,3:0|0:0,0:0:0:0:
229,64,141501,2,0,L|140:92,1,67.5000025749208,8|0,0:0|0:0,0:0:0:0:
99,146,141644,6,0,B|69:98|69:98|96:-3,1,135.000005149842,0|0,3:0|0:0,0:0:0:0:
223,302,141930,1,0,3:0:0:0:
223,302,142001,1,0,0:0:0:0:
223,302,142073,2,0,P|167:335|71:328,1,135.000005149842,8|0,0:0|0:0,0:0:0:0:
65,326,142287,1,0,0:0:0:0:
65,326,142358,1,0,3:0:0:0:
331,222,142501,5,8,0:0:0:0:
356,197,142573,1,8,0:0:0:0:
390,192,142644,1,8,0:0:0:0:
424,193,142715,1,8,0:0:0:0:
452,213,142787,6,0,B|479:146|479:146|440:88|440:14|440:14|449:44|480:68,1,270.000010299683,4|0,3:2|3:0,0:0:0:0:
318,128,143215,2,0,P|242:116|219:92,1,67.5000025749208,8|0,0:0|0:0,0:0:0:0:
167,52,143358,1,0,0:0:0:0:
138,50,143430,1,0,0:0:0:0:
111,57,143501,2,0,P|72:79|45:141,2,67.5000025749208,0|0|0,3:0|0:0|3:0,0:0:0:0:
351,30,143787,6,0,P|313:42|267:44,1,67.5000025749208,8|0,0:0|0:0,0:0:0:0:
155,137,143930,1,0,3:0:0:0:
421,137,144073,6,0,P|382:126|331:122,1,67.5000025749208
180,22,144215,1,0,3:0:0:0:
494,47,144358,6,0,P|460:57|401:57,1,67.5000025749208,8|0,0:0|0:0,0:0:0:0:
234,103,144501,2,0,L|259:195,1,67.5000025749208
349,300,144644,2,0,L|362:227,1,67.5000025749208,0|0,3:0|0:0,0:0:0:0:
169,176,144787,1,0,3:0:0:0:
169,176,144858,1,0,0:0:0:0:
169,176,144930,2,0,L|189:275,1,67.5000025749208,8|0,0:0|0:0,0:0:0:0:
277,362,145073,6,0,P|204:379|71:348,1,202.500007724762,0|0,3:0|0:0,3:0:0:0:
80,353,145358,1,0,3:0:0:0:
25,130,145501,2,0,P|53:153|108:165,1,67.5000025749208,8|0,0:0|0:0,0:0:0:0:
207,180,145644,2,0,P|176:208|132:224,1,67.5000025749208
93,274,145787,1,0,3:0:0:0:
93,274,145858,1,0,0:0:0:0:
93,274,145930,1,0,3:0:0:0:
95,58,146073,5,8,0:0:0:0:
95,58,146144,1,0,0:0:0:0:
95,58,146215,2,0,P|175:76|290:34,1,202.500007724762,0|0,3:0|0:0,3:0:0:0:
286,37,146501,1,0,3:0:0:0:
485,253,146644,6,0,L|503:172,1,67.5000025749208,8|0,3:2|0:0,0:0:0:0:
347,102,146787,2,0,L|367:182,1,67.5000025749208,8|0,0:0|0:0,0:0:0:0:
377,365,146930,1,8,0:0:0:0:
319,326,147001,1,8,0:0:0:0:
250,314,147073,1,8,0:0:0:0:
185,339,147144,1,8,0:0:0:0:
116,348,147215,1,8,0:0:0:0:
55,313,147287,1,8,0:0:0:0:
32,248,147358,6,0,B|5:171|48:94|48:94|42:143|77:180,1,233.999989288331,6|0,0:0|0:0,0:0:0:0:
292,22,147787,2,0,L|229:30,1,58.4999973220826,8|0,0:0|0:0,0:0:0:0:
170,88,147930,1,0,0:0:0:0:
170,88,148001,1,0,0:0:0:0:
170,88,148073,2,0,B|172:141|172:141|226:203,1,116.999994644165,0|0,3:0|3:0,3:0:0:0:
449,230,148358,5,8,0:0:0:0:
449,230,148430,1,0,0:0:0:0:
449,230,148501,2,0,P|364:213|270:280,1,175.499991966248,4|0,3:2|0:0,0:0:0:0:
288,253,148787,1,0,3:0:0:0:
209,384,148930,1,8,0:0:0:0:
112,260,149073,1,0,0:0:0:0:
85,251,149144,1,0,0:0:0:0:
54,241,149215,2,0,L|76:167,1,58.4999973220826,0|0,3:0|0:0,0:0:0:0:
105,106,149358,2,0,P|168:100|221:133,1,116.999994644165,0|8,3:0|0:0,0:0:0:0:
477,189,149644,6,0,B|430:129|420:33|420:33|423:83|402:109,1,233.999989288331,4|0,3:2|3:0,3:0:0:0:
401,117,150001,1,0,0:0:0:0:
395,140,150073,1,8,0:0:0:0:
278,289,150215,1,0,0:0:0:0:
265,268,150287,1,0,0:0:0:0:
258,245,150358,2,0,L|275:183,1,58.4999973220826,0|0,3:0|0:0,0:0:0:0:
190,316,150501,2,0,P|124:320|72:292,1,116.999994644165,0|8,3:0|0:0,0:0:0:0:
33,234,150715,1,0,0:0:0:0:
33,234,150787,6,0,P|35:159|15:50,1,175.499991966248,4|0,3:2|0:0,0:0:0:0:
33,32,151073,2,0,P|73:16|111:18,1,58.4999973220826,8|0,3:0|0:0,0:0:0:0:
192,41,151215,2,0,P|215:75|223:117,1,58.4999973220826,8|0,0:0|0:0,0:0:0:0:
281,174,151358,2,0,P|299:146|332:119,1,58.4999973220826,8|0,0:0|0:0,0:0:0:0:
350,24,151501,2,0,P|312:32|252:21,1,58.4999973220826,4|0,3:2|0:0,0:0:0:0:
175,161,151644,5,8,0:0:0:0:
180,213,151715,1,8,0:0:0:0:
207,258,151787,1,8,0:0:0:0:
251,286,151858,1,8,0:0:0:0:
303,293,151930,6,0,P|354:266|441:283,1,116.999994644165,4|0,0:0|0:0,0:0:0:0:
509,185,152215,1,0,3:0:0:0:
509,185,152287,1,0,0:0:0:0:
509,185,152358,1,8,0:0:0:0:
474,17,152501,2,0,P|438:18|415:28,1,58.4999973220826
280,82,152644,2,0,P|318:90|341:92,1,58.4999973220826,0|0,3:0|0:0,0:0:0:0:
412,122,152787,2,0,B|422:152|417:183|417:183|388:209|383:255,1,116.999994644165,0|8,3:0|0:0,0:0:0:0:
304,365,153073,6,0,B|238:379|190:348|190:348|135:337|123:361|123:361|147:366|165:368,1,233.999989288331,4|0,3:2|3:0,3:0:0:0:
282,242,153501,2,0,P|294:182|263:118,1,116.999994644165,8|0,0:0|0:0,0:0:0:0:
262,119,153715,1,0,0:0:0:0:
249,107,153787,2,0,L|162:113,1,58.4999973220826,0|0,3:0|0:0,0:0:0:0:
119,177,153930,2,0,P|134:237|134:304,1,116.999994644165,0|8,3:0|0:0,0:0:0:0:
385,142,154215,6,0,P|370:82|370:15,1,116.999994644165,4|0,3:2|0:0,0:0:0:0:
305,220,154501,1,0,3:0:0:0:
305,220,154573,1,0,0:0:0:0:
305,220,154644,1,8,0:0:0:0:
473,324,154787,1,0,0:0:0:0:
473,324,154858,1,0,0:0:0:0:
473,324,154930,2,0,P|402:301|332:322,1,116.999994644165,0|0,3:0|3:0,3:0:0:0:
194,362,155215,1,8,0:0:0:0:
70,111,155358,6,0,B|162:133|231:94|231:94|227:50|187:22,1,233.999989288331,4|0,3:2|3:0,3:0:0:0:
201,34,155787,2,0,L|196:168,1,116.999994644165,12|0,0:2|0:0,0:0:0:0:
63,297,156073,5,12,0:0:0:0:
63,297,156144,1,8,0:0:0:0:
63,297,156215,1,8,0:0:0:0:
63,297,156287,1,8,0:0:0:0:
63,297,156358,2,8,L|51:198,1,80.9999975280763
21,139,156501,6,0,P|61:134|124:155,1,67.5000025749208,4|0,3:2|0:0,0:0:0:0:
161,215,156644,2,0,P|158:246|177:296,1,67.5000025749208
244,142,156787,2,0,P|256:105|261:27,1,67.5000025749208,0|0,3:0|0:0,0:0:0:0:
353,11,156930,2,0,P|394:3|454:20,1,67.5000025749208,8|0,0:0|0:0,0:0:0:0:
512,126,157073,2,0,P|453:120|418:88,1,67.5000025749208,0|0,3:0|0:0,0:0:0:0:
326,156,157215,6,0,L|351:231,1,67.5000025749208,0|0,3:0|0:0,0:0:0:0:
443,332,157358,2,0,L|464:260,1,67.5000025749208,0|0,3:0|0:0,0:0:0:0:
312,175,157501,6,0,L|340:253,1,67.5000025749208,8|0,0:0|0:0,0:0:0:0:
425,346,157644,2,0,L|450:236,1,67.5000025749208,0|0,3:0|0:0,0:0:0:0:
300,196,157787,6,0,L|326:279,1,67.5000025749208,0|0,3:0|0:0,0:0:0:0:
239,373,157930,2,0,P|206:367|158:336,1,67.5000025749208,0|0,3:0|0:0,0:0:0:0:
78,240,158073,2,0,P|47:245|11:272,1,67.5000025749208,8|0,0:0|0:0,0:0:0:0:
77,383,158215,6,0,P|85:344|77:305,1,67.5000025749208,0|0,3:0|0:0,0:0:0:0:
131,117,158358,2,0,P|143:153|166:194,1,67.5000025749208,0|0,3:0|0:0,0:0:0:0:
305,304,158501,2,0,P|306:263|291:221,1,67.5000025749208,0|0,3:0|0:0,0:0:0:0:
305,28,158644,5,8,0:0:0:0:
305,28,158715,1,0,0:0:0:0:
305,28,158787,2,0,P|319:94|351:119,1,67.5000025749208,0|0,3:0|0:0,0:0:0:0:
385,149,158930,2,0,P|429:171|472:171,1,67.5000025749208,0|0,3:0|0:0,0:0:0:0:
512,117,159073,1,0,3:0:0:0:
256,308,159215,1,8,0:0:0:0:
207,28,159358,5,0,3:0:0:0:
207,28,159429,1,0,0:0:0:0:
207,28,159501,2,0,P|192:94|161:119,1,67.5000025749208,0|0,3:0|0:0,0:0:0:0:
127,149,159644,2,0,P|83:171|40:171,1,67.5000025749208,0|0,3:0|0:0,0:0:0:0:
0,117,159787,1,8,0:0:0:0:
149,303,159930,5,0,3:0:0:0:
149,303,160001,1,0,0:0:0:0:
149,303,160073,2,0,L|56:277,1,67.5000025749208,0|0,3:0|0:0,0:0:0:0:
221,210,160215,2,0,L|300:177,1,67.5000025749208,0|0,3:0|0:0,0:0:0:0:
470,254,160358,2,0,L|442:342,1,67.5000025749208,8|0,3:2|0:0,0:0:0:0:
363,128,160501,2,0,L|344:36,1,67.5000025749208,0|0,3:0|0:0,0:0:0:0:
227,25,160644,5,8,0:0:0:0:
227,25,160715,1,8,0:0:0:0:
227,25,160787,1,8,0:0:0:0:
227,25,160858,1,8,0:0:0:0:
227,25,160930,1,8,0:0:0:0:
227,25,161001,1,8,0:0:0:0:
227,25,161073,6,0,L|259:192,1,135.000005149842,4|0,0:0|0:0,0:0:0:0:
324,372,161358,2,0,P|330:329|326:299,1,58.4999973220826,0|0,3:0|0:0,0:0:0:0:
276,228,161501,2,0,L|401:215,1,116.999994644165,8|0,0:0|0:0,0:0:0:0:
485,264,161715,1,0,0:0:0:0:
485,264,161787,2,0,P|476:199|480:124,1,116.999994644165,8|0,3:2|3:0,0:0:0:0:
311,28,162073,1,8,0:0:0:0:
311,28,162144,1,0,0:0:0:0:
311,28,162215,6,0,P|293:103|243:154,1,116.999994644165,4|0,3:2|0:0,0:0:0:0:
64,207,162501,2,0,L|162:200,1,58.4999973220826,0|0,3:0|0:0,0:0:0:0:
198,294,162644,2,0,P|273:323|342:310,1,116.999994644165,8|0,0:0|0:0,0:0:0:0:
457,118,162930,1,8,3:2:0:0:
326,309,163073,1,0,3:0:0:0:
467,94,163215,1,8,0:0:0:0:
125,41,163358,6,0,P|93:117|91:219,1,175.499991966248,4|0,3:2|0:0,0:0:0:0:
89,209,163644,2,0,P|136:168|164:163,1,76.5000014591217,8|0,0:0|0:0,0:0:0:0:
316,278,163787,2,0,P|273:255|250:211,1,76.5000014591217,8|0,0:0|0:0,0:0:0:0:
398,79,163930,6,0,P|422:158|415:260,1,175.499991966248,0|0,0:2|0:0,0:0:0:0:
417,249,164215,2,0,P|350:213|317:221,1,76.5000014591217,8|0,0:0|0:0,0:0:0:0:
190,370,164358,6,0,P|224:357|249:328,1,76.5000014591217,8|0,0:0|0:0,0:0:0:0:
196,108,164501,2,0,P|198:184|221:208,1,76.5000014591217,0|0,3:0|0:0,0:0:0:0:
328,338,164644,5,8,0:0:0:0:
383,364,164715,1,8,0:0:0:0:
443,352,164787,1,8,3:0:0:0:
487,309,164858,1,8,0:0:0:0:
499,248,164930,1,8,0:0:0:0:
473,192,165001,1,8,0:0:0:0:
422,155,165073,1,8,3:0:0:0:
360,160,165144,1,8,0:0:0:0:
312,196,165215,5,8,0:0:0:0:
250,211,165287,1,8,0:0:0:0:
188,197,165358,1,8,0:0:0:0:
151,145,165430,1,8,0:0:0:0:
151,82,165501,1,8,0:0:0:0:
189,32,165573,1,8,0:0:0:0:
250,23,165644,6,0,B|233:62|255:91|255:91|250:117|237:134|237:134|269:185|242:216,1,198.000006042481,6|0,0:1|3:0,0:0:0:0:
247,208,166073,1,10,0:0:0:0:
135,273,166215,1,0,3:0:0:0:
135,273,166287,1,0,3:0:0:0:
135,273,166358,2,0,P|97:281|70:277,2,49.5000015106202,2|0|2,3:2|3:0|3:2,3:0:0:0:
57,173,166644,1,8,0:0:0:0:
129,352,166787,5,2,3:2:0:0:
216,335,166930,1,0,3:0:0:0:
304,321,167073,1,0,3:0:0:0:
362,111,167215,1,10,0:0:0:0:
239,214,167358,1,0,3:0:0:0:
239,214,167430,1,0,3:0:0:0:
239,214,167501,2,0,P|247:252|243:279,2,49.5000015106202,2|0|2,3:2|3:0|3:2,3:0:0:0:
425,170,167787,1,10,0:0:0:0:
260,61,167930,5,2,3:2:0:0:
340,22,168073,1,0,3:0:0:0:
334,110,168215,1,2,3:2:0:0:
140,182,168358,1,10,0:2:0:0:
335,273,168501,1,0,3:0:0:0:
330,292,168573,1,0,3:0:0:0:
324,312,168644,1,2,3:2:0:0:
319,331,168715,1,0,3:0:0:0:
315,351,168787,1,2,3:2:0:0:
275,189,168930,1,8,0:0:0:0:
411,353,169073,5,2,3:2:0:0:
311,374,169215,1,0,3:2:0:0:
225,323,169358,1,0,3:0:0:0:
274,161,169501,1,10,0:2:0:0:
512,265,169644,1,0,3:0:0:0:
503,272,169715,1,0,3:0:0:0:
496,279,169787,2,0,P|462:295|425:291,1,49.5000015106202,2|0,3:2|0:0,3:0:0:0:
285,282,169930,1,8,0:0:0:0:
271,262,170001,1,8,0:0:0:0:
283,240,170073,1,8,0:0:0:0:
308,240,170144,1,8,0:0:0:0:
318,261,170215,6,0,P|310:200|322:127,1,116.999994644165,4|0,0:0|0:0,0:0:0:0:
170,19,170501,2,0,P|183:42|188:69,1,49.5000015106202,2|0,3:2|0:0,0:0:0:0:
147,148,170644,2,0,P|92:156|34:130,1,99.0000030212403,10|0,0:2|0:0,0:0:0:0:
290,65,170930,1,2,3:2:0:0:
200,296,171073,1,2,3:2:0:0:
160,132,171215,1,8,0:0:0:0:
315,284,171358,6,0,P|407:305|447:292,1,123.75000377655,2|0,3:2|0:0,0:0:0:0:
493,216,171644,1,2,3:2:0:0:
493,216,171715,1,0,0:0:0:0:
493,216,171787,2,0,L|482:130,1,49.5000015106202,10|0,0:2|0:0,0:0:0:0:
387,132,171930,2,0,L|381:74,1,49.5000015106202,10|0,0:0|0:0,0:0:0:0:
285,9,172073,1,2,3:2:0:0:
245,11,172144,1,8,0:0:0:0:
208,26,172215,1,0,3:0:0:0:
178,50,172287,1,0,3:0:0:0:
159,85,172358,1,10,0:0:0:0:
197,335,172501,6,0,B|246:271|246:271|204:139,1,198.000006042481,0|0,3:0|3:0,0:0:0:0:
127,266,172930,1,10,0:0:0:0:
299,368,173073,1,0,0:0:0:0:
299,368,173144,1,0,0:0:0:0:
299,368,173215,2,0,P|357:372|402:347,1,99.0000030212403,2|0,3:2|3:0,0:0:0:0:
503,189,173501,6,0,L|510:237,1,49.5000015106202,10|0,0:0|0:0,0:0:0:0:
370,155,173644,2,0,L|361:106,1,49.5000015106202,2|0,3:2|0:0,0:0:0:0:
487,179,173787,6,0,L|495:228,1,49.5000015106202
355,146,173930,2,0,L|346:97,1,49.5000015106202,2|0,3:2|0:0,0:0:0:0:
471,171,174073,6,0,L|478:219,1,49.5000015106202,10|0,0:0|0:0,0:0:0:0:
340,139,174216,2,0,L|331:90,1,49.5000015106202,0|0,3:0|0:0,0:0:0:0:
184,1,174358,5,8,0:0:0:0:
142,28,174430,1,8,0:0:0:0:
122,73,174501,1,8,0:0:0:0:
124,122,174573,1,8,0:0:0:0:
154,160,174644,2,0,L|226:193,1,49.5000015106202,8|8,0:0|0:0,0:0:0:0:
430,296,174787,6,0,P|362:363|255:367,1,198.000006042481,4|0,0:0|3:0,0:0:0:0:
87,285,175215,1,10,0:0:0:0:
271,81,175358,1,0,3:0:0:0:
312,63,175430,1,0,3:0:0:0:
356,65,175501,1,2,3:2:0:0:
394,88,175573,1,0,3:0:0:0:
415,126,175644,1,2,3:2:0:0:
415,126,175787,6,0,L|378:184,1,49.5000015106202,8|0,0:0|0:0,0:0:0:0:
259,237,175930,2,0,L|197:205,1,49.5000015106202,2|0,3:2|0:0,0:0:0:0:
430,296,176073,6,0,P|362:363|311:374,1,116.999994644165,0|0,0:0|3:0,0:0:0:0:
87,285,176358,1,10,0:0:0:0:
255,80,176501,1,0,3:0:0:0:
304,58,176573,1,0,3:0:0:0:
357,62,176644,1,2,3:2:0:0:
402,88,176716,1,0,3:0:0:0:
428,134,176787,1,2,3:2:0:0:
428,134,176930,6,0,L|380:213,1,58.4999973220826,10|0,0:0|0:0,0:0:0:0:
261,260,177073,2,0,L|183:228,1,58.4999973220826,2|0,3:2|0:0,0:0:0:0:
430,296,177215,6,0,P|362:363|313:376,1,135.000005149842,0|0,0:0|3:0,0:0:0:0:
87,285,177501,1,10,0:0:0:0:
244,73,177644,1,0,3:0:0:0:
301,48,177716,1,0,3:0:0:0:
362,51,177787,1,2,3:2:0:0:
416,83,177859,1,0,3:0:0:0:
446,136,177930,1,2,3:2:0:0:
446,136,178073,6,0,L|395:232,1,67.5000025749208,10|0,0:0|0:0,0:0:0:0:
266,292,178215,2,0,L|186:260,1,67.5000025749208,2|0,0:0|0:0,0:0:0:0:
51,208,178358,6,0,L|226:175,1,161.999995056153,2|0,0:0|0:0,0:0:0:0:
120,80,178644,2,0,L|60:136,1,62.9999980773926,10|0,0:0|0:0,0:0:0:0:
108,281,178787,1,2,3:0:0:0:
108,281,178858,1,0,3:0:0:0:
108,281,178930,2,0,L|179:313,1,67.5000025749208,2|0,3:0|0:0,3:0:0:0:
274,365,179073,2,0,P|317:285|306:196,1,135.000005149842,4|0,0:0|0:0,0:0:0:0:
238,19,179358,6,0,P|195:99|206:188,1,135.000005149842,4|0,0:0|0:0,0:0:0:0:
440,195,179644,1,2,0:0:0:0:
266,192,179787,1,10,0:0:0:0:
414,219,179930,1,2,0:0:0:0:
477,81,180073,1,2,3:0:0:0:
119,241,180215,6,0,P|119:321|132:376,1,135.000005149842,4|8,0:0|0:0,0:0:0:0:
393,143,180501,2,0,P|392:62|380:8,1,135.000005149842,4|0,0:0|0:0,0:0:0:0:
96,132,180787,5,2,0:0:0:0:
279,122,180930,1,10,0:0:0:0:
91,103,181073,1,2,0:0:0:0:
15,267,181215,1,0,3:0:0:0:
272,369,181358,6,0,L|252:190,1,161.999995056153,4|0,3:2|0:0,0:0:0:0:
154,23,181644,6,0,L|141:70,3,33.7500012874604,4|0|0|0,3:2|0:0|0:0|0:0,0:0:0:0:
57,104,181930,2,0,L|51:155,1,49.5000015106202,0|0,3:0|0:0,0:0:0:0:
116,204,182073,1,8,0:0:0:0:
125,215,182144,1,8,0:0:0:0:
133,226,182215,2,8,L|206:236,1,49.5000015106202
407,297,182358,5,8,0:0:0:0:
389,331,182429,1,8,0:0:0:0:
368,361,182501,2,8,L|282:356,1,49.5000015106202
236,74,182644,5,8,0:0:0:0:
274,41,182715,1,8,0:0:0:0:
310,5,182787,2,8,L|388:16,1,49.5000015106202
480,175,182930,5,8,0:0:0:0:
438,235,183001,1,8,0:0:0:0:
363,244,183073,1,8,0:0:0:0:
301,203,183144,1,0,0:0:0:0:
256,144,183215,1,8,0:0:0:0:
182,127,183287,1,8,0:0:0:0:
119,166,183358,1,8,0:0:0:0:
106,239,183430,1,8,0:0:0:0:
152,302,183501,6,0,P|100:140|49:302,1,450,8|0,0:0|0:0,0:0:0:0:
48,301,185073,6,0,B|106:318|106:318|129:302|156:302|156:302|178:326|220:334|220:334|241:318|306:318,1,229.500004377365,6|0,3:2|0:0,0:0:0:0:
260,320,185358,1,0,3:0:0:0:
461,347,185501,1,8,0:0:0:0:
393,200,185644,1,0,0:0:0:0:
393,200,185715,1,0,0:0:0:0:
393,200,185787,1,0,3:0:0:0:
319,375,185930,2,0,P|357:378|408:350,1,67.5000025749208,0|0,3:0|0:0,0:0:0:0:
458,273,186073,2,0,P|466:242|455:185,1,67.5000025749208,8|0,0:0|0:0,0:0:0:0:
389,117,186215,6,0,P|324:129|254:129,1,135.000005149842,0|0,3:0|0:0,0:0:0:0:
131,48,186501,1,0,3:0:0:0:
273,146,186644,1,8,0:0:0:0:
133,265,186787,1,0,0:0:0:0:
133,265,186858,1,0,0:0:0:0:
133,265,186930,2,0,P|90:231|75:188,1,67.5000025749208,0|0,3:0|0:0,0:0:0:0:
70,105,187073,2,0,P|88:61|125:26,1,67.5000025749208,0|0,3:0|0:0,0:0:0:0:
248,16,187215,1,8,0:0:0:0:
278,13,187287,1,0,0:0:0:0:
308,12,187358,6,0,P|341:72|337:149,1,135.000005149842,0|0,3:0|0:0,0:0:0:0:
349,359,187644,1,0,3:0:0:0:
304,354,187716,1,0,0:0:0:0:
269,327,187787,2,0,L|276:249,1,67.5000025749208,8|0,0:0|0:0,0:0:0:0:
403,194,187930,1,0,0:0:0:0:
446,196,188001,1,0,0:0:0:0:
483,220,188073,1,0,3:0:0:0:
291,243,188215,1,0,3:0:0:0:
396,61,188358,1,8,0:0:0:0:
426,273,188501,1,0,0:0:0:0:
426,273,188573,1,0,0:0:0:0:
426,273,188644,6,0,L|333:251,1,67.5000025749208,0|0,3:0|0:0,0:0:0:0:
180,280,188787,1,0,3:0:0:0:
164,288,188858,1,0,0:0:0:0:
146,294,188930,2,0,P|155:333|175:358,1,67.5000025749208,8|0,0:0|0:0,0:0:0:0:
236,195,189073,2,0,P|252:157|254:111,1,67.5000025749208
86,24,189215,2,0,L|99:118,1,67.5000025749208,0|0,3:0|0:0,0:0:0:0:
111,206,189358,1,8,0:0:0:0:
117,210,189430,1,8,0:0:0:0:
123,214,189501,1,8,0:0:0:0:
129,218,189573,1,8,0:0:0:0:
134,222,189644,6,0,B|191:219|191:219|253:258|253:258|351:247,1,202.500007724762,4|0,3:2|0:0,0:0:0:0:
328,239,189930,2,0,L|307:155,1,67.5000025749208,0|0,3:0|0:0,0:0:0:0:
287,6,190073,1,8,0:0:0:0:
218,104,190215,1,0,0:0:0:0:
218,104,190287,1,0,0:0:0:0:
218,104,190358,1,0,3:0:0:0:
377,76,190501,1,0,3:0:0:0:
307,292,190644,2,0,L|316:188,1,67.5000025749208,8|0,0:0|0:0,0:0:0:0:
406,178,190787,6,0,P|458:205|483:280,1,135.000005149842,0|0,3:0|0:0,0:0:0:0:
479,307,191001,1,0,0:0:0:0:
479,307,191073,2,0,P|434:309|394:298,1,67.5000025749208
292,208,191215,2,0,P|250:231|227:265,1,67.5000025749208,8|0,0:0|0:0,0:0:0:0:
111,351,191358,1,0,3:0:0:0:
111,351,191430,1,0,0:0:0:0:
111,351,191501,2,0,P|106:278|83:200,1,135.000005149842,0|0,3:0|3:0,0:0:0:0:
122,30,191787,2,0,L|156:103,1,67.5000025749208,8|0,0:0|0:0,0:0:0:0:
250,237,191930,6,0,L|269:159,3,67.5000025749208,0|0|0|0,3:0|0:0|0:0|0:0,0:0:0:0:
274,144,192215,2,0,P|314:152|380:173,1,67.5000025749208,0|0,3:0|0:0,0:0:0:0:
407,97,192358,2,0,P|387:61|375:17,1,67.5000025749208,8|0,0:0|0:0,0:0:0:0:
286,9,192501,2,0,P|261:41|223:87,1,67.5000025749208
81,214,192644,2,0,P|68:179|46:142,1,67.5000025749208,0|0,3:0|0:0,0:0:0:0:
139,44,192787,2,0,P|150:85|173:118,1,67.5000025749208,0|0,3:0|0:0,0:0:0:0:
245,223,192930,2,0,P|207:230|161:235,1,67.5000025749208,8|0,0:0|0:0,0:0:0:0:
36,307,193073,6,0,B|75:325|101:347|101:347|156:331|242:321,1,202.500007724762,0|0,3:3|0:0,0:0:0:0:
224,323,193358,1,0,3:0:0:0:
491,272,193501,1,8,0:0:0:0:
455,222,193573,1,8,0:0:0:0:
443,162,193644,1,8,0:0:0:0:
459,103,193715,1,8,0:0:0:0:
498,57,193787,5,8,0:3:0:0:
493,106,193858,1,8,0:3:0:0:
458,142,193930,1,8,0:3:0:0:
408,146,194001,1,0,3:0:0:0:
363,121,194073,1,0,3:0:0:0:
340,76,194144,1,0,3:0:0:0:
323,28,194215,6,0,P|269:12|214:27,3,67.5000025749208,4|0|0|0,3:2|0:0|0:0|0:0,0:0:0:0:
188,62,194501,2,0,L|209:140,1,67.5000025749208,0|0,3:0|0:0,0:0:0:0:
258,216,194644,1,8,0:0:0:0:
77,349,194787,1,0,0:0:0:0:
77,349,194858,1,0,0:0:0:0:
77,349,194930,1,0,3:0:0:0:
32,128,195073,2,0,P|73:117|101:100,1,67.5000025749208,8|0,3:2|0:0,0:0:0:0:
173,190,195215,2,0,P|181:234|206:279,1,67.5000025749208,8|0,0:0|0:0,0:0:0:0:
336,251,195358,6,0,L|420:236,3,67.5000025749208,0|0|0|0,3:0|0:0|0:0|0:0,0:0:0:0:
457,173,195644,2,0,L|439:108,1,67.5000025749208,0|0,3:0|0:0,0:0:0:0:
495,29,195787,1,8,0:0:0:0:
351,69,195930,1,0,0:0:0:0:
351,69,196001,1,0,0:0:0:0:
351,69,196073,1,0,3:0:0:0:
362,286,196215,2,0,P|316:263|294:257,1,67.5000025749208,8|0,3:2|0:0,0:0:0:0:
220,129,196358,2,0,P|264:119|299:96,1,67.5000025749208,8|0,0:0|0:0,0:0:0:0:
460,28,196501,6,0,P|445:100|446:122,3,67.5000025749208,0|0|0|0,3:0|0:0|0:0|0:0,0:0:0:0:
399,168,196787,2,0,P|353:176|310:163,1,67.5000025749208,0|0,3:0|0:0,0:0:0:0:
273,35,196930,1,8,0:0:0:0:
213,249,197073,6,0,P|183:221|161:178,1,67.5000025749208
148,80,197215,1,0,3:0:0:0:
102,301,197358,6,0,P|87:331|60:352,1,67.5000025749208,8|0,0:0|0:0,0:0:0:0:
15,221,197501,2,0,P|24:188|45:162,1,67.5000025749208,8|0,0:0|0:0,0:0:0:0:
197,278,197644,6,0,B|233:311|285:326|285:326|331:289|398:301|398:301|365:349,1,270.000010299683,0|0,3:0|3:0,0:0:0:0:
364,354,198001,1,0,0:0:0:0:
355,363,198073,2,0,P|335:296|348:223,1,135.000005149842,8|0,0:0|3:0,0:0:0:0:
465,36,198358,1,0,3:0:0:0:
343,137,198501,5,8,0:0:0:0:
274,180,198573,1,8,0:0:0:0:
192,177,198644,1,8,0:0:0:0:
116,146,198715,1,8,0:0:0:0:
58,86,198787,6,0,B|41:59|23:27|23:27|78:143|21:231,1,270.000010299683,4|0,3:2|3:0,0:0:0:0:
92,364,199215,2,0,P|157:335|232:354,1,135.000005149842,8|0,0:0|0:0,0:0:0:0:
234,358,199430,1,0,0:0:0:0:
234,358,199501,2,0,B|256:220,1,135.000005149842,0|0,3:0|3:0,0:0:0:0:
397,32,199787,5,8,0:0:0:0:
333,332,199930,1,0,3:0:0:0:
156,89,200073,5,0,0:0:0:0:
458,208,200215,1,0,3:0:0:0:
53,175,200358,5,8,0:0:0:0:
356,89,200501,1,0,0:0:0:0:
178,332,200644,5,0,3:0:0:0:
115,32,200787,1,0,3:0:0:0:
115,32,200858,1,0,0:0:0:0:
115,32,200930,1,8,0:0:0:0:
339,182,201073,6,0,L|507:209,1,135.000005149842,0|0,3:0|0:0,0:0:0:0:
256,325,201358,1,0,3:0:0:0:
256,325,201430,1,0,0:0:0:0:
256,325,201501,2,0,B|194:308|194:308|102:341,1,135.000005149842,8|0,0:0|0:0,0:0:0:0:
55,368,201715,1,0,0:0:0:0:
55,368,201787,2,0,L|36:212,1,135.000005149842,0|0,3:0|3:0,0:0:0:0:
200,199,202073,5,8,0:0:0:0:
200,199,202144,1,0,0:0:0:0:
200,199,202215,2,0,B|212:26|212:26|246:86|322:88,1,270.000010299683,0|0,3:0|3:0,0:0:0:0:
366,81,202573,1,0,0:0:0:0:
366,81,202644,2,0,P|443:52|502:81,1,135.000005149842,8|0,0:0|3:0,0:0:0:0:
509,157,202858,1,0,3:0:0:0:
511,175,202930,5,8,0:0:0:0:
480,222,203001,1,8,0:0:0:0:
425,240,203073,1,8,0:0:0:0:
372,219,203144,1,8,0:0:0:0:
315,217,203215,1,8,0:0:0:0:
267,249,203287,1,8,0:0:0:0:
260,304,203358,5,4,3:2:0:0:
260,304,203644,1,0,3:0:0:0:
256,73,203787,5,8,0:0:0:0:
260,316,203930,1,0,3:0:0:0:
256,57,204073,5,8,0:0:0:0:
260,328,204215,1,0,3:0:0:0:
256,33,204358,6,0,P|214:33|173:25,1,67.5000025749208,8|8,0:0|0:0,0:0:0:0:
11,159,204501,2,0,P|51:160|82:165,1,67.5000025749208,0|0,3:0|0:0,0:0:0:0:
367,271,204644,38,0,P|324:272|289:266,1,67.5000025749208,8|8,0:0|0:0,0:0:0:0:
39,365,204787,2,0,P|76:363|117:369,1,67.5000025749208,8|8,3:2|0:0,0:0:0:0:
317,174,204930,6,0,P|309:135|305:79,1,67.5000025749208,8|8,3:2|0:0,0:0:0:0:
98,6,205073,2,0,P|100:52|91:95,1,67.5000025749208,0|8,0:0|0:0,0:0:0:0:
19,228,205215,37,0,3:0:0:0:
93,242,205287,5,0,3:0:0:0:
163,214,205358,37,0,3:0:0:0:
238,220,205430,5,0,3:0:0:0:
308,193,205501,37,0,3:0:0:0:
383,199,205573,5,0,3:0:0:0:
447,161,205644,6,0,B|479:207|479:207|441:128|484:35,1,215.999993408203,6|2,0:0|3:2,0:0:0:0:
365,17,206073,2,0,P|313:49|260:48,1,107.999996704102,10|0,0:0|0:0,0:0:0:0:
64,23,206358,1,2,3:2:0:0:
97,312,206501,2,0,P|107:277|101:232,1,53.9999983520508,0|0,3:2|0:2,0:2:0:0:
168,136,206644,2,0,P|170:166|182:188,1,53.9999983520508,10|0,0:0|0:0,0:0:0:0:
254,260,206787,6,0,P|343:217|432:250,1,161.999995056153,0|0,3:2|0:0,0:0:0:0:
401,229,207073,1,0,3:0:0:0:
238,348,207215,1,10,0:0:0:0:
238,348,207287,1,0,0:0:0:0:
238,348,207358,1,2,0:0:0:0:
115,245,207501,1,2,3:2:0:0:
245,136,207644,1,0,3:0:0:0:
158,340,207787,1,10,0:0:0:0:
379,384,207930,6,0,L|359:268,1,107.999996704102,0|0,3:0|0:0,0:0:0:0:
310,92,208215,1,2,3:2:0:0:
396,155,208358,2,0,P|454:182|521:175,1,107.999996704102,10|0,0:0|0:0,0:0:0:0:
299,214,208644,1,2,3:2:0:0:
213,39,208787,1,0,3:2:0:0:
274,229,208930,1,10,0:0:0:0:
403,67,209073,6,0,B|337:124|286:86|286:86|299:100|311:123,1,161.999995056153,0|0,3:0|0:2,0:0:0:0:
319,134,209358,2,0,P|322:173|312:203,1,53.9999983520508,2|0,3:2|0:0,0:0:0:0:
145,286,209501,2,0,P|135:219|146:188,1,53.9999983520508,10|0,0:0|0:0,0:0:0:0:
198,110,209644,2,0,L|226:163,1,53.9999983520508
307,300,209787,2,0,L|247:336,1,53.9999983520508,2|0,3:2|0:0,0:0:0:0:
96,356,209930,1,8,0:0:0:0:
64,336,210001,1,8,0:0:0:0:
42,304,210073,1,8,0:0:0:0:
35,267,210144,1,8,0:0:0:0:
41,229,210215,6,0,B|42:195|85:158|85:158|32:92|61:19,1,215.999993408203,4|2,3:2|3:2,0:0:0:0:
222,43,210644,2,0,P|287:76|362:64,1,107.999996704102,10|0,0:0|0:0,0:0:0:0:
398,40,210858,1,0,0:0:0:0:
398,40,210930,2,0,P|466:7|528:26,1,107.999996704102,2|0,3:2|3:0,0:0:0:0:
388,174,211215,1,10,0:0:0:0:
388,174,211287,1,0,0:0:0:0:
388,174,211358,2,0,B|360:240|360:240|357:290|382:335|382:335|337:286,1,215.999993408203,0|0,3:0|3:0,0:0:0:0:
485,197,211787,1,10,0:0:0:0:
322,97,211930,1,0,0:0:0:0:
229,274,212073,6,0,P|254:264|280:267,1,53.9999983520508,2|0,3:2|0:0,0:0:0:0:
313,372,212215,2,0,P|280:361|254:338,1,53.9999983520508,2|0,3:2|0:0,0:0:0:0:
166,233,212358,2,0,P|141:268|137:299,1,53.9999983520508,8|0,0:0|0:0,0:0:0:0:
61,379,212501,6,0,B|38:264|38:264,1,107.999996704102,2|0,3:2|0:2,0:0:0:0:
198,102,212787,1,2,3:2:0:0:
35,56,212930,1,10,0:0:0:0:
219,114,213073,1,0,0:0:0:0:
91,209,213215,2,0,P|82:139|100:106,1,107.999996704102,2|0,3:2|3:0,0:0:0:0:
229,24,213501,1,10,0:0:0:0:
362,275,213644,6,0,B|380:257|403:237|403:237|413:188|378:144|378:144|408:115|411:56,1,215.999993408203,2|0,3:2|3:0,0:0:0:0:
407,92,214073,2,0,P|347:73|283:79,1,107.999996704102,10|0,0:2|3:0,0:0:0:0:
55,171,214358,5,8,0:0:0:0:
100,201,214430,1,8,0:0:0:0:
153,203,214501,1,8,0:0:0:0:
195,168,214573,1,8,0:0:0:0:
248,169,214644,1,8,0:0:0:0:
282,210,214715,1,8,0:0:0:0:
269,263,214787,6,0,P|272:214|292:146,1,107.999996704102,4|0,3:2|0:0,0:0:0:0:
113,17,215073,1,0,3:0:0:0:
113,17,215144,1,0,0:0:0:0:
113,17,215215,2,0,P|128:79|119:148,1,107.999996704102,10|0,0:0|0:0,0:0:0:0:
205,309,215501,1,2,3:2:0:0:
36,191,215644,1,2,3:2:0:0:
225,330,215787,1,8,0:0:0:0:
53,337,215930,6,0,P|89:277|230:217,1,215.999993408203,2|0,3:2|3:0,0:0:0:0:
408,324,216358,1,10,0:0:0:0:
420,347,216430,1,0,0:0:0:0:
406,370,216501,1,2,0:2:0:0:
379,362,216573,1,0,0:0:0:0:
374,336,216644,1,2,3:2:0:0:
393,286,216715,1,0,0:0:0:0:
447,260,216787,1,0,3:0:0:0:
478,210,216858,1,0,0:0:0:0:
487,150,216930,1,10,0:0:0:0:
459,97,217001,1,0,0:0:0:0:
413,58,217073,6,0,B|339:14|339:14|216:30,1,161.999995056153,0|0,3:0|0:2,0:0:0:0:
263,23,217358,1,2,3:2:0:0:
102,145,217501,2,0,P|63:107|57:26,1,107.999996704102,10|0,0:0|0:0,0:0:0:0:
201,155,217787,2,0,P|210:215|189:271,1,107.999996704102,2|2,3:2|3:2,0:0:0:0:
182,281,218001,1,0,0:0:0:0:
182,281,218073,1,8,0:0:0:0:
307,166,218215,5,2,3:2:0:0:
307,166,218287,1,0,0:0:0:0:
307,166,218358,2,0,L|378:181,1,53.9999983520508
478,275,218501,1,2,3:2:0:0:
478,275,218573,1,0,0:0:0:0:
478,275,218644,2,0,L|407:290,1,53.9999983520508,10|0,0:0|0:0,0:0:0:0:
315,337,218787,1,0,0:0:0:0:
310,353,218858,1,0,0:0:0:0:
305,371,218930,6,0,L|164:347,1,107.999996704102,2|8,3:2|0:0,0:0:0:0:
92,378,219144,1,8,0:0:0:0:
62,333,219215,1,8,0:0:0:0:
50,279,219287,1,8,0:0:0:0:
60,226,219358,6,0,P|136:193|168:140,1,107.999996704102,4|0,3:2|0:0,0:0:0:0:
182,17,219644,1,2,3:2:0:0:
317,166,219787,2,0,P|250:134|216:97,1,107.999996704102,10|0,0:0|0:0,0:0:0:0:
439,32,220073,2,0,L|414:165,1,107.999996704102,2|2,3:2|3:2,0:0:0:0:
414,169,220287,1,0,0:0:0:0:
414,169,220358,1,8,0:0:0:0:
295,353,220501,6,0,P|278:295|300:233,1,107.999996704102,2|0,3:2|0:0,0:0:0:0:
477,293,220787,1,2,3:0:0:0:
477,293,220858,1,0,0:0:0:0:
477,293,220930,2,0,L|358:300,1,107.999996704102,10|0,0:0|0:0,0:0:0:0:
303,245,221144,1,0,0:0:0:0:
303,245,221215,2,0,L|223:236,1,53.9999983520508,2|0,3:2|0:0,0:0:0:0:
181,282,221358,2,0,P|136:320|64:320,1,107.999996704102,2|8,3:2|0:0,0:0:0:0:
131,120,221644,5,4,0:0:0:0:
131,120,221930,1,0,0:0:0:0:
168,98,222073,1,0,3:0:0:0:
252,115,222215,1,0,3:0:0:0:
322,223,222358,1,0,3:0:0:0:
230,343,222501,1,0,3:0:0:0:
123,206,222644,5,8,0:0:0:0:
389,178,222787,1,8,0:0:0:0:
124,299,222930,1,8,0:0:0:0:
388,85,223073,1,8,0:0:0:0:
381,356,223215,1,8,0:0:0:0:
131,28,223358,1,8,0:0:0:0:
496,121,223501,5,8,0:0:0:0:
473,216,223573,1,0,0:0:0:0:
404,284,223644,1,8,0:0:0:0:
311,310,223715,1,0,0:0:0:0:
213,297,223787,1,8,0:0:0:0:
