osu file format v14

[General]
AudioFilename: 09 - .mp3
AudioLeadIn: 0
PreviewTime: 184858
Countdown: 0
SampleSet: Soft
StackLeniency: 0.7
Mode: 0
LetterboxInBreaks: 1
WidescreenStoryboard: 1

[Editor]
Bookmarks: 37644,74215,92501,110787,147358,185073
DistanceSpacing: 0.7
BeatDivisor: 4
GridSize: 4
TimelineZoom: 1.8

[Metadata]
Title:Yakubyougami
TitleUnicode:ヤクビョウガミ
Artist:ayaponzu*
ArtistUnicode:あやぽんず*
Creator:Pho
Version:Collab Extra
Source:
Tags:まふまふ mafumafu yasu △○□× miwasiba みわしいば chocolate pop* Not-116 utaite 歌い手 asahina momoko mokori m_o_k_o_r_i cryo[iceeicee] cryo jonathanlfj captin1 lmt
BeatmapID:1495657
BeatmapSetID:501001

[Difficulty]
HPDrainRate:6
CircleSize:4.2
OverallDifficulty:8
ApproachRate:9.3
SliderMultiplier:1.8
SliderTickRate:2

[Events]
//Background and Video events
Video,-148,"yakubyougami.avi"
0,0,"bg1.jpg",0,0
//Break Periods
2,74415,91519
2,183701,184376
//Storyboard Layer 0 (Background)
//Storyboard Layer 1 (Fail)
//Storyboard Layer 2 (Pass)
//Storyboard Layer 3 (Foreground)
//Storyboard Sound Samples

[TimingPoints]
73,285.714285714286,4,2,1,50,1,0
19501,-133.333333333333,4,2,1,50,0,0
27215,-133.333333333333,4,2,6,90,0,0
27358,-133.333333333333,4,2,1,50,0,0
27501,-100,4,2,1,60,0,0
37644,-117.647058823529,4,2,1,50,0,0
41930,-83.3333333333333,4,2,1,50,0,0
42215,-100,4,2,1,60,0,0
46787,-117.647058823529,4,2,1,50,0,0
51073,-100,4,2,1,60,0,0
54358,-100,4,2,1,65,0,0
54930,-100,4,2,1,70,0,0
55215,-90.9090909090909,4,2,1,75,0,0
55501,-166.666666666667,4,2,1,75,0,0
55930,-86.9565217391304,4,2,1,80,0,1
74144,-76.9230769230769,4,2,1,80,0,0
74215,-76.9230769230769,4,2,1,80,0,1
74287,-90.9090909090909,4,2,1,80,0,0
92073,-100,4,2,1,70,0,0
92501,-133.333333333333,4,2,1,50,0,0
97215,-133.333333333333,4,2,1,55,0,0
100358,-133.333333333333,4,2,6,90,0,0
100501,-133.333333333333,4,2,1,55,0,0
100644,-100,4,2,1,55,0,0
101644,-100,4,2,1,60,0,0
110787,-117.647058823529,4,2,1,60,0,0
115358,-100,4,2,1,60,0,0
119930,-117.647058823529,4,2,1,60,0,0
124501,-100,4,2,1,60,0,0
127930,-83.3333333333333,4,2,1,60,0,0
128644,-71.4285714285714,4,2,1,60,0,0
129073,-86.9565217391304,4,2,1,100,0,1
147358,-100,4,2,1,70,0,0
151644,-80,4,2,1,70,0,0
151930,-100,4,2,1,70,0,0
156073,-80,4,2,1,70,0,0
156501,-86.9565217391304,4,2,1,80,0,0
158787,-100,4,2,1,80,0,0
159358,-90.9090909090909,4,2,1,80,0,0
159930,-83.3333333333333,4,2,1,80,0,0
165644,-111.111111111111,4,2,1,60,0,0
169930,-83.3333333333333,4,2,1,60,0,0
170215,-90.9090909090909,4,2,1,70,0,0
174787,-111.111111111111,4,2,1,60,0,0
179073,-90.9090909090909,4,2,1,70,0,0
182358,-90.9090909090909,4,2,1,75,0,0
182930,-90.9090909090909,4,2,1,80,0,0
183073,-83.3333333333333,4,2,1,80,0,0
183215,-76.9230769230769,4,2,1,85,0,0
183358,-71.4285714285714,4,2,1,85,0,0
183501,-71.4285714285714,4,2,1,90,0,0
185073,-83.3333333333333,4,2,1,100,0,1
203358,-83.3333333333333,4,2,1,100,0,0
205644,-83.3333333333333,4,2,1,100,0,1
205715,-90.9090909090909,4,2,1,90,0,0

[Colours]
Combo1 : 192,192,192
Combo2 : 125,85,149
Combo3 : 69,69,69
Combo4 : 255,128,128
SliderBorder : 89,121,134
SliderTrackOverride : 20,20,20

[HitObjects]
87,175,930,5,0,3:0:0:0:
201,252,1073,2,0,B|134:262|134:262|98:282|98:282|6:299,1,180,4|2,1:0|0:0,0:0:0:0:
274,137,1501,2,0,P|312:161|359:179,1,90,8|0,0:0|0:0,0:0:0:0:
467,152,1787,1,10,3:2:0:0:
375,355,1930,2,0,L|363:255,1,90,2|8,3:2|0:0,0:0:0:0:
411,59,2216,6,0,P|360:39|250:101,1,180,2|0,3:2|3:0,0:0:0:0:
155,270,2644,2,0,P|196:253|234:229,1,90,8|0,0:0|0:0,0:0:0:0:
138,146,2930,1,10,3:2:0:0:
194,354,3073,1,2,3:2:0:0:
308,212,3216,1,8,0:0:0:0:
199,252,3358,6,0,B|145:281|145:281|9:264,1,180,2|2,3:2|0:0,0:0:0:0:
287,336,3787,2,0,L|382:318,1,90,10|0,0:0|0:0,0:0:0:0:
457,152,4073,1,10,3:2:0:0:
490,336,4216,1,2,3:2:0:0:
370,216,4358,1,8,0:0:0:0:
370,216,4501,6,0,B|381:150|381:150|370:103|370:103|383:26,1,180,2|8,3:2|0:0,0:0:0:0:
174,67,4930,2,0,P|168:106|188:162,1,90,10|8,0:0|0:0,0:0:0:0:
326,291,5216,1,2,0:0:0:0:
283,182,5358,1,8,0:0:0:0:
283,182,5430,1,8,0:0:0:0:
283,182,5501,1,8,0:0:0:0:
283,182,5573,1,8,0:0:0:0:
283,182,5644,6,0,L|89:202,1,180,4|2,0:0|3:2,0:0:0:0:
352,267,6073,2,0,P|392:283|437:292,1,90,8|0,0:0|0:0,0:0:0:0:
326,87,6358,1,10,3:2:0:0:
511,184,6501,2,0,L|396:194,1,90,2|8,3:2|0:0,0:0:0:0:
262,319,6787,6,0,P|215:276|243:147,1,180,2|0,3:2|3:0,0:0:0:0:
69,36,7215,2,0,P|85:73|98:129,1,90,10|0,0:2|0:0,0:0:0:0:
90,361,7501,1,10,3:2:0:0:
30,188,7644,1,10,0:0:0:0:
191,275,7787,1,8,0:0:0:0:
14,215,7930,6,0,B|131:202|131:202|180:150,1,180,0|2,3:2|3:0,0:0:0:0:
394,284,8358,2,0,P|337:269|290:265,1,90,10|0,0:0|0:0,0:0:0:0:
178,365,8644,1,10,3:2:0:0:
254,193,8787,1,2,3:2:0:0:
404,307,8930,1,8,0:0:0:0:
182,243,9073,6,0,B|145:213|145:213|125:145|160:77,1,180,0|10,3:1|3:2,0:0:0:0:
407,137,9501,1,10,0:0:0:0:
234,162,9644,1,8,3:2:0:0:
432,48,9787,1,10,0:0:0:0:
461,68,9858,1,8,0:0:0:0:
490,89,9930,1,8,0:0:0:0:
487,124,10001,1,8,0:0:0:0:
484,160,10073,1,8,0:0:0:0:
481,195,10144,1,8,0:0:0:0:
479,230,10215,6,0,B|426:252|426:252|288:228,1,180,4|2,0:0|3:0,0:0:0:0:
152,347,10644,2,0,P|198:324|239:317,1,90,10|0,0:0|0:0,0:0:0:0:
353,136,10930,1,10,3:2:0:0:
413,269,11073,2,0,L|310:252,1,90,0|10,3:2|0:2,0:0:0:0:
168,82,11358,6,0,P|129:149|184:249,1,180,0|0,3:0|3:0,0:0:0:0:
333,349,11787,1,10,0:0:0:0:
333,349,11858,1,0,0:0:0:0:
333,349,11930,1,0,0:0:0:0:
333,349,12001,1,0,0:0:0:0:
333,349,12073,2,0,L|319:277,1,45,10|0,3:2|0:0,0:0:0:0:
228,163,12215,2,0,L|242:235,1,45,8|0,3:2|0:0,0:0:0:0:
198,369,12358,2,0,L|184:297,1,45,10|0,0:0|0:0,0:0:0:0:
75,268,12501,6,0,L|103:77,1,180,0|2,3:0|3:2,0:0:0:0:
313,177,12930,2,0,P|316:221|300:263,1,90,10|0,0:0|0:0,0:0:0:0:
180,203,13215,1,10,3:2:0:0:
376,123,13358,1,2,3:2:0:0:
347,332,13501,1,8,0:0:0:0:
291,179,13644,6,0,B|415:168|415:168|461:205,1,180,2|10,3:2|3:2,0:0:0:0:
473,309,14073,1,10,3:2:0:0:
402,94,14215,1,8,0:0:0:0:
251,265,14358,1,2,3:2:0:0:
387,217,14501,1,8,0:0:0:0:
387,217,14573,1,8,0:0:0:0:
387,217,14644,1,8,0:0:0:0:
387,217,14715,1,8,0:0:0:0:
387,217,14787,6,0,B|316:208|316:208|288:185|288:185|202:173,1,180,4|2,0:0|3:2,0:0:0:0:
71,285,15215,2,0,P|66:333|86:373,1,90,8|0,0:0|0:0,0:0:0:0:
276,214,15501,1,10,3:2:0:0:
38,146,15644,2,0,L|130:157,1,90,2|8,3:2|0:0,0:0:0:0:
268,245,15930,6,0,P|181:253|127:177,1,180,2|2,3:2|3:2,0:0:0:0:
187,5,16358,2,0,B|212:44|212:44|208:101,1,90,10|0,0:0|0:0,0:0:0:0:
278,284,16644,1,10,3:2:0:0:
335,110,16787,1,8,3:2:0:0:
128,185,16930,1,8,0:0:0:0:
268,245,17073,6,0,B|356:261|356:261|446:219,1,180,2|2,3:2|3:2,0:0:0:0:
195,333,17501,2,0,L|95:315,1,90,10|0,0:2|0:0,0:0:0:0:
22,94,17787,1,10,0:0:0:0:
134,220,17930,1,2,0:0:0:0:
12,336,18073,1,8,0:0:0:0:
170,220,18215,6,0,B|264:188|250:255|343:216,1,180,0|0,3:0|3:0,0:0:0:0:
451,118,18644,1,8,0:0:0:0:
403,334,18787,1,0,0:0:0:0:
240,194,18930,1,8,0:0:0:0:
216,167,19001,1,8,0:0:0:0:
203,132,19073,1,8,0:0:0:0:
205,96,19144,1,8,0:0:0:0:
220,63,19215,1,8,0:0:0:0:
242,34,19287,1,8,0:0:0:0:
276,23,19358,5,0,3:0:0:0:
276,23,19787,2,0,P|304:55|340:72,1,67.5000025749208,0|0,3:0|0:0,0:0:0:0:
487,100,20073,2,0,P|445:108|412:130,1,67.5000025749208,0|0,3:0|0:0,0:0:0:0:
315,243,20358,2,0,P|328:202|325:163,1,67.5000025749208,0|0,3:0|0:0,0:0:0:0:
161,117,20644,6,0,L|169:189,1,67.5000025749208,0|0,3:0|0:0,0:0:0:0:
66,273,20930,2,0,L|58:345,1,67.5000025749208,0|0,3:0|0:0,0:0:0:0:
59,111,21215,2,0,L|67:183,1,67.5000025749208,0|0,3:0|0:0,0:0:0:0:
158,343,21501,2,0,L|165:275,1,67.5000025749208,0|0,3:0|0:0,0:0:0:0:
277,189,21787,6,0,P|321:181|345:182,1,67.5000025749208,0|0,3:0|0:0,0:0:0:0:
511,264,22073,2,0,P|477:264|444:256,1,67.5000025749208,0|0,3:0|0:0,0:0:0:0:
441,152,22358,2,0,L|449:79,1,67.5000025749208,0|0,3:0|0:0,0:0:0:0:
344,291,22644,2,0,L|336:364,1,67.5000025749208,0|0,3:0|0:0,0:0:0:0:
202,196,22930,6,0,P|185:160|177:120,1,67.5000025749208,0|0,3:0|0:0,0:0:0:0:
38,135,23215,2,0,P|55:99|63:59,1,67.5000025749208,0|0,3:0|0:0,0:0:0:0:
125,310,23501,2,0,P|108:274|100:234,1,67.5000025749208,0|0,3:0|0:0,0:0:0:0:
291,65,23787,2,0,P|282:97|267:127,1,67.5000025749208,0|0,3:0|0:0,0:0:0:0:
384,287,24073,5,2,3:0:0:0:
381,300,24215,1,2,0:3:0:0:
379,313,24358,1,2,3:0:0:0:
465,214,24501,1,2,0:3:0:0:
468,227,24643,1,2,3:3:0:0:
470,240,24786,1,0,0:3:0:0:
308,215,24930,5,2,3:0:0:0:
306,228,25073,1,2,0:3:0:0:
225,307,25215,1,2,3:0:0:0:
223,294,25358,1,0,0:0:0:0:
143,224,25501,6,0,L|132:143,1,67.5000025749208,2|0,3:0|0:0,0:0:0:0:
313,100,25787,2,0,L|248:150,1,67.5000025749208,2|0,3:0|0:3,0:0:0:0:
121,15,26073,2,0,L|196:45,1,67.5000025749208,2|0,3:0|0:0,0:0:0:0:
450,172,26358,6,0,L|371:186,1,67.5000025749208,2|2,0:3|0:3,0:0:0:0:
220,318,26644,1,2,0:3:0:0:
300,305,26787,1,2,0:3:0:0:
170,223,26930,1,2,3:0:0:0:
200,339,27073,1,0,0:0:0:0:
347,181,27215,1,2,0:1:0:0:
309,335,27358,1,0,0:0:0:0:
239,104,27501,5,8,0:0:0:0:
449,254,27644,2,0,B|461:300|461:300|452:345,1,90,8|8,0:0|3:2,0:0:0:0:
340,303,27930,1,8,0:0:0:0:
455,115,28073,1,8,0:2:0:0:
455,115,28144,1,8,0:0:0:0:
455,115,28215,2,0,L|401:108,1,45,0|0,3:0|0:0,0:0:0:0:
290,203,28358,2,0,L|236:210,1,45,8|0,0:0|0:0,0:0:0:0:
88,247,28501,6,0,B|45:221|45:221|30:152|82:80,1,180,4|2,0:0|3:2,0:0:0:0:
192,318,28930,1,10,0:0:0:0:
315,266,29073,1,0,3:0:0:0:
315,266,29144,1,0,0:0:0:0:
315,266,29215,1,2,3:2:0:0:
203,188,29358,1,2,0:0:0:0:
285,360,29501,1,8,0:0:0:0:
34,324,29644,6,0,B|76:292|76:292|204:286,1,180,2|2,3:2|3:2,0:0:0:0:
392,337,30001,1,0,0:0:0:0:
392,337,30073,2,0,P|376:304|369:282,1,45,10|0,0:0|0:0,0:0:0:0:
298,202,30215,2,0,P|314:169|321:147,1,45,0|0,0:0|0:0,0:0:0:0:
413,39,30358,1,2,3:2:0:0:
435,61,30430,1,0,0:0:0:0:
441,91,30501,1,10,0:2:0:0:
434,122,30573,1,0,0:0:0:0:
412,144,30644,1,8,0:0:0:0:
223,121,30787,6,0,L|37:94,1,180,2|2,3:2|3:0,0:0:0:0:
6,32,31144,1,0,0:0:0:0:
6,32,31215,1,10,0:0:0:0:
117,195,31358,1,0,0:0:0:0:
120,212,31430,1,0,0:0:0:0:
123,229,31501,1,2,3:2:0:0:
159,67,31644,1,2,3:0:0:0:
0,212,31787,1,8,0:0:0:0:
192,350,31930,6,0,B|267:335|267:335|292:343|292:343|379:326,1,180,2|0,3:2|3:2,0:0:0:0:
459,295,32287,1,0,3:0:0:0:
456,312,32358,1,10,0:0:0:0:
330,246,32501,1,0,0:0:0:0:
484,174,32644,1,2,3:2:0:0:
355,125,32787,1,8,0:0:0:0:
355,125,32858,1,8,0:0:0:0:
355,125,32930,1,8,0:0:0:0:
355,125,33001,1,8,0:0:0:0:
355,125,33073,6,0,P|285:175|186:148,1,180,4|0,0:0|3:0,0:0:0:0:
49,35,33501,2,0,L|64:130,1,90,8|0,0:0|0:0,0:0:0:0:
94,353,33787,1,0,3:2:0:0:
117,198,33930,1,0,3:0:0:0:
14,298,34073,1,8,0:0:0:0:
194,250,34215,6,0,B|315:235|315:235|372:260,1,180,0|0,3:2|0:0,0:0:0:0:
505,148,34644,2,0,P|481:189|468:230,1,90,8|0,0:0|0:0,0:0:0:0:
303,346,34930,1,0,3:0:0:0:
458,267,35073,2,0,L|359:258,1,90,0|8,0:0|0:0,0:0:0:0:
105,170,35358,6,0,P|150:146|241:132,1,135,0|0,3:0|0:0,0:0:0:0:
256,156,35644,1,2,3:0:0:0:
191,297,35787,1,10,0:0:0:0:
108,77,35930,1,2,3:0:0:0:
108,77,36001,1,0,3:0:0:0:
108,77,36073,1,10,0:0:0:0:
328,100,36215,2,0,L|345:192,1,90,0|10,3:0|0:0,0:0:0:0:
378,332,36430,1,0,3:0:0:0:
378,332,36501,6,0,P|391:272|440:161,1,180,2|0,3:0|3:0,0:0:0:0:
491,228,36858,1,0,3:0:0:0:
491,228,36930,1,10,0:0:0:0:
281,318,37073,1,0,3:0:0:0:
281,318,37144,1,0,3:0:0:0:
281,318,37215,2,0,L|221:307,1,45,8|8,0:0|0:0,0:0:0:0:
96,212,37358,2,0,L|156:201,1,45,8|8,0:0|0:0,0:0:0:0:
295,108,37501,2,0,L|235:97,1,45,8|8,0:0|0:0,0:0:0:0:
60,24,37644,6,0,B|100:32|100:32|220:12,1,153.000002918243,4|0,0:0|3:0,0:0:0:0:
104,120,38073,1,10,0:0:0:0:
236,184,38215,1,0,3:0:0:0:
256,180,38287,1,0,3:0:0:0:
276,176,38358,1,2,3:2:0:0:
296,172,38430,1,0,3:0:0:0:
316,168,38501,1,2,3:2:0:0:
104,120,38644,1,8,0:0:0:0:
300,60,38787,6,0,L|452:88,1,153.000002918243,2|0,3:2|3:0,0:0:0:0:
236,184,39215,1,10,0:0:0:0:
396,264,39358,1,0,3:0:0:0:
416,260,39430,1,0,3:0:0:0:
436,256,39501,1,2,3:2:0:0:
456,252,39573,1,0,3:0:0:0:
476,248,39644,1,2,3:2:0:0:
353,160,39787,2,0,L|316:168,1,38.2500007295609,10|0,0:2|0:0,0:0:0:0:
164,232,39930,6,0,B|188:196|188:196|180:76,1,153.000002918243,2|2,3:2|3:2,0:0:0:0:
60,248,40358,1,10,0:2:0:0:
240,296,40501,1,0,3:0:0:0:
260,292,40573,1,0,3:0:0:0:
280,288,40644,1,2,3:2:0:0:
300,284,40716,1,0,3:0:0:0:
320,280,40787,1,2,3:2:0:0:
164,232,40930,1,8,0:0:0:0:
376,200,41073,6,0,L|356:356,1,153.000002918243,2|0,3:2|3:0,0:0:0:0:
492,224,41501,1,10,0:2:0:0:
308,112,41644,1,0,3:0:0:0:
328,108,41716,1,0,0:0:0:0:
348,104,41787,1,2,3:2:0:0:
368,100,41859,1,0,0:0:0:0:
388,96,41930,6,0,L|328:72,1,53.9999983520508,10|8,0:0|0:0,0:0:0:0:
228,128,42073,2,0,L|168:104,1,53.9999983520508,10|8,0:0|0:0,0:0:0:0:
68,160,42215,6,0,P|84:232|64:336,1,180,4|2,0:0|3:2,0:0:0:0:
248,376,42644,2,0,P|236:320|236:280,1,90,10|0,0:0|3:0,0:0:0:0:
404,112,42930,1,2,3:2:0:0:
484,184,43073,2,0,P|484:244|476:284,1,90,2|10,3:2|0:0,0:0:0:0:
235,287,43358,6,0,P|272:236|392:228,1,180,2|2,3:2|3:2,0:0:0:0:
336,320,43787,1,10,0:0:0:0:
200,180,43930,1,10,0:0:0:0:
196,160,44001,1,0,0:0:0:0:
136,304,44144,1,8,0:0:0:0:
140,324,44215,1,0,3:0:0:0:
36,224,44358,1,10,0:0:0:0:
256,280,44501,6,0,B|304:288|344:268|344:268|388:248|432:264,1,180,2|2,3:2|3:2,0:0:0:0:
308,96,44930,2,0,P|288:152|288:192,1,90,10|0,0:0|3:0,0:0:0:0:
396,360,45215,1,2,3:2:0:0:
388,164,45358,1,2,3:2:0:0:
232,272,45501,1,8,0:0:0:0:
464,240,45644,6,0,P|492:180|452:76,1,180,10|2,0:0|0:0,0:0:0:0:
264,128,46073,2,0,P|312:132|372:120,1,90,10|0,0:0|0:0,0:0:0:0:
372,116,46287,1,0,0:0:0:0:
329,248,46430,1,8,0:0:0:0:
324,268,46501,2,0,P|328:316|348:360,1,90,10|8,0:0|0:0,0:0:0:0:
344,354,46715,1,8,0:0:0:0:
344,354,46787,6,0,B|304:340|304:340|184:360,1,153.000002918243,4|0,0:0|3:0,0:0:0:0:
32,288,47215,1,10,0:0:0:0:
160,168,47358,1,0,3:0:0:0:
156,192,47430,1,0,3:0:0:0:
152,216,47501,1,2,3:2:0:0:
148,240,47573,1,0,3:0:0:0:
144,264,47644,1,2,3:2:0:0:
76,100,47787,1,8,0:2:0:0:
264,168,47930,6,0,L|424:152,1,153.000002918243,2|0,3:2|3:2,0:0:0:0:
208,72,48358,1,10,0:0:0:0:
304,264,48501,1,0,3:0:0:0:
300,288,48573,1,0,3:0:0:0:
296,312,48644,1,2,3:2:0:0:
292,336,48716,1,0,3:0:0:0:
288,360,48787,1,2,3:2:0:0:
264,168,48930,1,8,0:0:0:0:
460,232,49073,6,0,B|476:264|476:264|464:380,1,153.000002918243,2|0,3:2|3:0,0:0:0:0:
352,232,49501,1,10,0:0:0:0:
480,112,49644,1,0,3:0:0:0:
476,136,49716,1,0,3:0:0:0:
472,160,49787,1,2,3:2:0:0:
468,184,49859,1,0,3:0:0:0:
464,208,49930,1,2,3:2:0:0:
264,168,50073,1,10,0:0:0:0:
360,28,50215,6,0,L|368:124,1,76.5000014591217,2|0,3:2|3:0,0:0:0:0:
144,140,50501,1,2,3:2:0:0:
270,244,50644,2,0,L|262:148,1,76.5000014591217,10|0,0:0|3:0,0:0:0:0:
255,92,50858,1,0,3:0:0:0:
253,72,50930,5,2,3:2:0:0:
219,324,51073,1,4,0:0:0:0:
219,324,51358,6,0,B|242:309|258:288|258:288|330:280|376:328,1,180,4|0,0:0|3:0,0:0:0:0:
169,240,51787,2,0,P|98:266|39:237,1,135,10|0,0:2|3:0,0:0:0:0:
33,220,52073,1,10,3:2:0:0:
256,185,52215,2,0,P|304:190|358:169,1,90,0|8,3:2|0:2,0:0:0:0:
170,45,52501,6,0,P|123:28|5:74,1,180,2|0,3:2|3:0,0:0:0:0:
292,90,52930,2,0,P|298:48|293:-2,1,90,10|0,0:2|0:0,0:0:0:0:
170,206,53215,1,10,3:2:0:0:
343,178,53358,2,0,P|379:142|400:84,1,90,2|8,3:2|0:0,0:0:0:0:
111,122,53644,6,0,P|66:203|102:283,1,180,4|0,3:2|3:0,0:0:0:0:
296,341,54073,1,8,3:2:0:0:
170,206,54215,1,0,3:0:0:0:
294,90,54358,5,8,0:0:0:0:
258,258,54501,1,8,0:0:0:0:
460,291,54644,5,8,0:0:0:0:
323,181,54787,1,8,0:0:0:0:
447,40,54930,5,8,0:0:0:0:
447,40,55001,1,8,0:0:0:0:
447,40,55073,2,0,L|441:102,1,45,8|0,0:0|0:0,0:0:0:0:
329,230,55215,1,8,0:0:0:0:
329,230,55287,1,8,0:0:0:0:
329,230,55358,2,0,L|321:171,1,49.5000015106202,8|8,0:0|0:0,0:0:0:0:
202,13,55501,6,0,B|184:37|184:37|191:127,1,107.999996704102,8|0,0:0|0:0,0:0:0:0:
358,326,55930,6,0,P|415:284|402:155,1,207.000003948212,6|0,0:0|3:0,0:0:0:0:
190,114,56358,1,8,0:0:0:0:
329,230,56501,1,0,0:0:0:0:
125,295,56644,2,0,P|112:256|120:178,1,103.500001974106,0|0,3:2|3:2,0:0:0:0:
230,346,56930,1,8,3:2:0:0:
414,286,57073,6,0,P|406:160|330:127,1,207.000003948212,0|0,0:0|3:0,0:0:0:0:
114,194,57501,1,8,0:0:0:0:
329,230,57644,1,0,3:0:0:0:
219,65,57787,2,0,P|211:138|219:175,1,103.500001974106,0|0,3:2|0:0,0:0:0:0:
414,286,58073,1,8,3:2:0:0:
318,123,58215,6,0,B|266:103|217:123|217:123|165:142|111:122,1,207.000003948212,0|0,3:0|3:3,0:0:0:0:
44,256,58644,1,8,0:0:0:0:
68,251,58715,1,0,0:0:0:0:
93,252,58787,1,0,0:0:0:0:
268,360,58930,1,0,3:0:0:0:
77,345,59073,1,0,3:0:0:0:
264,212,59215,1,8,0:0:0:0:
52,128,59358,6,0,P|128:160|224:72,1,207.000003948212,0|0,3:0|3:0,0:0:0:0:
384,0,59787,2,0,P|388:60|404:104,1,103.500001974106,8|8,0:0|0:0,0:0:0:0:
496,172,60073,1,0,3:0:0:0:
304,160,60215,2,0,P|280:164|252:176,1,51.7500009870529,8|8,0:0|0:0,0:0:0:0:
325,329,60358,2,0,P|339:307|356:288,1,51.7500009870529,8|8,0:0|0:0,0:0:0:0:
208,288,60501,6,0,B|168:312|168:312|112:312|68:276,1,155.250002961159,4|0,0:0|0:0,0:0:0:0:
36,208,60787,1,0,3:0:0:0:
254,174,60930,2,0,L|362:182,1,103.500001974106,8|0,0:0|0:0,0:0:0:0:
168,100,61215,1,0,3:0:0:0:
168,100,61358,1,0,3:0:0:0:
348,40,61501,1,8,0:0:0:0:
96,20,61644,6,0,P|64:80|64:120,1,103.500001974106,0|0,3:0|0:0,0:0:0:0:
254,174,61930,1,0,3:0:0:0:
184,352,62073,2,0,L|172:240,1,103.500001974106,8|0,0:0|0:0,0:0:0:0:
320,348,62358,1,0,3:0:0:0:
320,348,62501,1,0,3:0:0:0:
84,312,62644,1,8,0:0:0:0:
254,174,62787,6,0,P|340:172|374:294,1,207.000003948212,0|0,3:0|3:0,0:0:0:0:
152,376,63215,1,8,0:0:0:0:
300,248,63358,1,0,0:0:0:0:
69,201,63501,1,0,3:0:0:0:
261,74,63644,2,0,B|272:124|272:124|253:173,1,103.500001974106,8|8,3:2|0:0,0:0:0:0:
59,336,63930,6,0,P|141:279|232:320,1,207.000003948212,0|0,3:0|3:0,0:0:0:0:
456,340,64358,1,8,0:0:0:0:
424,348,64430,2,0,P|364:340|324:308,1,103.500001974106,8|8,0:0|0:0,0:0:0:0:
300,248,64644,1,8,0:3:0:0:
325,242,64715,1,8,0:3:0:0:
350,244,64787,1,8,0:3:0:0:
373,254,64858,1,0,3:3:0:0:
398,257,64930,1,0,3:3:0:0:
423,253,65001,1,0,3:3:0:0:
446,241,65073,6,0,B|396:207|350:244|350:244|307:279|255:250,1,207.000003948212,4|0,0:0|3:0,0:0:0:0:
153,127,65501,1,8,0:0:0:0:
201,348,65644,1,0,0:0:0:0:
12,233,65787,2,0,P|75:215|127:218,1,103.500001974106,0|8,3:0|3:2,0:0:0:0:
305,347,66073,1,8,3:2:0:0:
446,241,66215,6,0,B|376:225|376:225|322:263|322:263|255:250,1,207.000003948212,0|0,3:0|3:0,0:0:0:0:
146,94,66644,1,8,0:0:0:0:
185,322,66787,1,0,0:0:0:0:
2,194,66930,2,0,B|55:187|55:187|115:201,1,103.500001974106,0|8,3:0|3:2,0:0:0:0:
281,352,67215,1,8,3:2:0:0:
46,290,67358,6,0,L|63:77,1,207.000003948212,0|0,3:0|3:0,0:0:0:0:
241,18,67787,1,8,0:0:0:0:
179,183,67930,1,0,0:0:0:0:
341,123,68073,1,8,0:0:0:0:
315,120,68144,1,0,0:0:0:0:
289,117,68215,1,8,3:2:0:0:
430,61,68358,1,8,3:2:0:0:
302,220,68501,6,0,B|370:257|370:257|499:232,1,207.000003948212,0|0,3:0|3:0,0:0:0:0:
289,117,68930,2,0,L|173:104,1,103.500001974106,8|0,0:0|0:0,0:0:0:0:
388,155,69215,1,0,3:0:0:0:
201,203,69358,2,0,L|131:208,1,51.7500009870529,8|8,0:0|0:0,0:0:0:0:
100,58,69501,2,0,L|48:54,1,51.7500009870529,8|8,0:0|0:0,0:0:0:0:
8,248,69644,6,0,B|45:214|45:214|202:203,1,207.000003948212,4|0,0:0|3:0,0:0:0:0:
391,267,70073,2,0,L|406:374,1,103.500001974106,8|0,0:0|0:0,0:0:0:0:
240,331,70358,1,0,3:0:0:0:
240,331,70501,1,0,3:0:0:0:
319,170,70644,2,0,L|306:52,1,103.500001974106,8|0,0:0|3:0,0:0:0:0:
79,199,70930,6,0,P|147:211|197:205,1,103.500001974106,0|0,0:0|3:0,0:0:0:0:
456,260,71215,2,0,P|381:269|331:290,1,103.500001974106,8|0,0:0|0:0,0:0:0:0:
156,293,71501,1,0,3:0:0:0:
319,170,71644,1,0,3:0:0:0:
139,101,71787,1,8,0:0:0:0:
258,264,71930,6,0,B|273:193|273:193|256:134|256:134|270:62,1,207.000003948212,0|0,3:0|3:0,0:0:0:0:
457,124,72358,2,0,B|406:138|406:138|347:131,1,103.500001974106,8|0,0:0|0:0,0:0:0:0:
80,17,72644,2,0,B|131:3|131:3|190:10,1,103.500001974106,0|0,3:0|3:0,0:0:0:0:
355,132,72930,1,8,0:0:0:0:
156,194,73073,6,0,P|131:96|180:8,1,207.000003948212,0|0,3:0|3:0,0:0:0:0:
273,232,73501,2,0,P|237:283|186:314,1,103.500001974106,8|8,0:0|0:0,0:0:0:0:
254,112,73787,1,8,0:0:0:0:
287,111,73858,1,8,0:0:0:0:
320,120,73930,1,8,0:0:0:0:
349,137,74001,1,8,0:0:0:0:
372,161,74073,2,0,P|387:186|394:219,1,51.7500009870529,8|8,0:0|0:0,0:0:0:0:
156,194,74215,5,6,0:0:0:0:
120,71,92073,6,0,L|172:57,1,45,10|8,0:0|0:0,0:0:0:0:
113,151,92215,2,0,L|165:137,1,45,8|8,0:0|0:0,0:0:0:0:
106,231,92358,2,0,L|158:217,1,45,8|8,0:0|0:0,0:0:0:0:
99,311,92501,6,0,L|238:272,1,135.000005149842,0|0,3:0|0:0,0:0:0:0:
326,299,92930,2,0,P|336:343|337:373,1,67.5000025749208,0|0,3:0|0:0,0:0:0:0:
380,215,93215,2,0,P|428:220|464:231,1,67.5000025749208,0|0,3:0|0:0,0:0:0:0:
315,136,93501,2,0,P|328:104|358:63,1,67.5000025749208,0|0,3:0|0:0,0:0:0:0:
218,173,93787,5,0,3:0:0:0:
228,274,93930,1,0,0:0:0:0:
326,299,94073,1,0,3:0:0:0:
380,215,94215,1,0,0:0:0:0:
315,136,94358,2,0,P|280:137|244:154,1,67.5000025749208,0|0,3:0|0:0,0:0:0:0:
474,179,94644,2,0,P|486:127|487:37,1,135.000005149842,0|0,3:0|3:0,0:0:0:0:
380,215,95073,5,0,0:0:0:0:
427,307,95215,2,0,P|472:321|506:324,1,67.5000025749208,0|0,3:0|0:0,0:0:0:0:
326,299,95501,1,0,3:0:0:0:
234,332,95644,1,0,0:0:0:0:
330,303,95787,1,0,3:0:0:0:
230,328,95930,1,0,0:0:0:0:
334,307,96073,6,0,L|261:305,1,67.5000025749208,0|0,3:0|0:0,0:0:0:0:
80,333,96358,2,0,L|153:331,1,67.5000025749208,0|0,3:0|0:0,0:0:0:0:
401,308,96644,2,0,L|328:306,1,67.5000025749208,0|0,3:0|0:0,0:0:0:0:
147,331,96930,1,0,3:0:0:0:
147,331,97073,1,0,0:0:0:0:
240,226,97215,5,2,3:3:0:0:
161,182,97358,2,0,L|155:252,1,67.5000025749208,2|2,0:3|3:3,0:0:0:0:
86,62,97644,1,2,0:3:0:0:
174,32,97787,2,0,L|168:102,1,67.5000025749208,2|0,3:3|0:0,0:0:0:0:
322,263,98073,2,0,L|328:193,1,67.5000025749208,2|2,3:3|0:3,0:0:0:0:
72,209,98358,2,0,L|66:279,1,67.5000025749208,2|0,3:3|0:0,0:0:0:0:
155,249,98644,5,0,3:0:0:0:
156,263,98787,1,2,0:3:0:0:
240,226,98930,5,2,3:3:0:0:
260,249,99073,1,2,0:3:0:0:
281,146,99215,5,2,3:0:0:0:
324,156,99358,1,0,0:0:0:0:
259,59,99501,6,0,L|187:67,1,67.5000025749208,2|2,3:0|0:3,0:0:0:0:
465,112,99787,2,0,L|494:45,1,67.5000025749208,2|2,3:0|0:3,0:0:0:0:
324,156,100073,1,2,3:0:0:0:
302,252,100215,2,0,L|344:310,1,67.5000025749208,0|2,0:0|0:1,0:0:0:0:
399,224,100501,1,0,0:0:0:0:
152,176,100644,5,8,0:0:0:0:
358,60,100787,2,0,L|264:69,1,90,8|8,0:0|0:0,0:0:0:0:
456,110,101073,1,8,0:0:0:0:
319,193,101215,1,8,3:2:0:0:
307,166,101287,1,8,0:0:0:0:
336,170,101358,1,8,0:0:0:0:
245,320,101501,1,0,0:0:0:0:
479,312,101644,6,0,B|451:276|451:276|384:253|312:285,1,180,4|2,0:0|3:0,0:0:0:0:
84,288,102073,2,0,P|149:257|172:234,1,90,10|0,0:0|0:0,0:0:0:0:
203,134,102358,1,2,3:0:0:0:
245,320,102501,1,0,3:0:0:0:
245,320,102573,1,0,0:0:0:0:
245,320,102644,1,10,0:0:0:0:
71,192,102787,6,0,P|133:152|234:175,1,180,2|0,3:0|3:0,0:0:0:0:
278,244,103144,1,0,0:0:0:0:
278,244,103215,2,0,P|305:249|338:249,1,45,10|0,0:0|0:0,0:0:0:0:
387,200,103358,2,0,P|389:174|382:140,1,45,0|0,0:0|0:0,0:0:0:0:
317,80,103501,1,2,3:0:0:0:
335,99,103573,1,0,0:0:0:0:
359,110,103644,1,10,0:0:0:0:
385,112,103715,1,0,0:0:0:0:
411,106,103787,1,8,0:0:0:0:
431,89,103858,1,0,0:0:0:0:
443,65,103930,6,0,B|409:62|381:46|381:46|334:79|270:72,1,180,2|2,3:0|3:0,0:0:0:0:
170,39,104358,1,10,0:0:0:0:
252,169,104501,1,2,0:0:0:0:
143,55,104644,1,2,3:0:0:0:
173,228,104787,1,0,3:0:0:0:
113,64,104930,2,0,L|100:121,1,45,10|0,0:0|0:0,0:0:0:0:
77,248,105073,6,0,B|136:243|136:243|196:265|196:265|254:257,1,180,2|2,3:0|3:0,0:0:0:0:
509,280,105501,2,0,B|420:275,1,90,8|0,0:0|3:0,0:0:0:0:
326,360,105787,1,0,3:0:0:0:
367,160,105930,2,0,L|356:222,1,45,8|8,0:0|0:0,0:0:0:0:
326,360,106073,2,0,L|337:298,1,45,8|8,0:0|0:0,0:0:0:0:
375,114,106215,6,0,P|429:170|359:204,1,180,4|0,0:0|3:0,0:0:0:0:
163,164,106644,2,0,P|241:140|301:149,1,135,8|0,0:0|0:0,0:0:0:0:
292,146,106930,1,0,3:0:0:0:
130,82,107073,1,0,3:0:0:0:
323,34,107215,1,8,0:0:0:0:
99,0,107358,6,0,L|76:192,1,180,0|0,3:0|3:0,0:0:0:0:
236,336,107787,2,0,L|226:228,1,90,8|0,0:0|0:0,0:0:0:0:
371,56,108073,1,0,3:0:0:0:
451,217,108215,2,0,L|461:128,1,90,0|8,3:0|0:0,0:0:0:0:
181,160,108501,6,0,B|225:147|269:162|269:162|312:177|358:163,1,180,0|2,3:0|3:0,0:0:0:0:
227,246,108930,2,0,P|181:256|134:249,1,90,10|2,0:0|0:0,0:0:0:0:
85,199,109144,1,0,0:0:0:0:
85,199,109215,1,10,3:2:0:0:
287,324,109358,2,0,P|334:310|385:310,1,90,2|8,3:0|0:0,0:0:0:0:
445,336,109573,1,0,0:0:0:0:
460,347,109644,6,0,P|447:287|459:160,1,180,2|0,3:2|0:0,0:0:0:0:
494,105,110001,1,0,0:0:0:0:
489,88,110073,1,10,0:0:0:0:
346,182,110215,1,0,3:2:0:0:
340,157,110287,1,0,0:0:0:0:
334,132,110358,6,0,L|347:73,1,45,8|8,0:0|0:0,0:0:0:0:
257,253,110501,2,0,L|270:312,1,45,8|8,0:0|0:0,0:0:0:0:
191,109,110644,2,0,L|204:50,1,45,8|8,0:0|0:0,0:0:0:0:
111,231,110787,6,0,L|145:389,1,153.000002918243,4|0,0:0|3:0,0:0:0:0:
270,213,111215,1,10,0:2:0:0:
87,170,111358,1,0,3:0:0:0:
83,190,111430,1,0,3:0:0:0:
79,210,111501,1,2,3:2:0:0:
75,230,111573,1,0,3:0:0:0:
71,250,111644,1,2,3:2:0:0:
270,213,111787,1,8,0:0:0:0:
227,50,111930,6,0,B|192:85|192:85|180:191,1,153.000002918243,2|0,3:2|3:0,0:0:0:0:
392,145,112358,1,10,0:2:0:0:
273,153,112501,1,0,3:0:0:0:
269,173,112573,1,0,3:0:0:0:
265,193,112644,1,2,3:2:0:0:
261,213,112716,1,0,3:2:0:0:
257,233,112787,1,2,3:2:0:0:
202,360,112930,2,0,L|243:353,1,38.2500007295609,10|0,0:0|0:0,0:0:0:0:
364,357,113073,6,0,B|408:367|408:367|528:339,1,153.000002918243,2|2,3:2|3:2,0:0:0:0:
305,251,113501,1,10,0:0:0:0:
414,143,113644,1,0,3:0:0:0:
410,163,113716,1,0,3:0:0:0:
406,183,113787,1,2,3:2:0:0:
402,203,113859,1,0,3:0:0:0:
398,223,113930,1,2,3:2:0:0:
439,313,114073,1,8,0:0:0:0:
299,177,114215,6,0,L|130:198,1,153.000002918243,2|2,3:2|3:2,0:0:0:0:
26,110,114644,1,10,0:2:0:0:
126,220,114787,2,0,L|120:262,1,38.2500007295609,0|0,3:0|3:0,0:0:0:0:
180,319,114930,1,2,3:2:0:0:
176,342,115001,1,0,2:0:0:0:
159,358,115073,5,8,0:0:0:0:
195,346,115144,1,8,0:0:0:0:
223,320,115215,1,8,0:0:0:0:
231,282,115287,1,8,0:0:0:0:
223,244,115358,6,0,B|165:206|105:204|105:204|41:236,1,180,4|0,3:2|3:0,0:0:0:0:
258,98,115787,2,0,P|307:109|362:108,1,90,10|0,0:0|0:0,0:0:0:0:
476,342,116073,1,2,3:2:0:0:
395,262,116215,2,0,P|350:263|306:273,1,90,2|8,3:2|0:0,0:0:0:0:
135,359,116501,6,0,P|87:297|117:187,1,180,2|2,3:2|3:2,0:0:0:0:
344,168,116930,1,10,0:0:0:0:
195,264,117073,1,8,0:0:0:0:
124,105,117215,1,2,3:2:0:0:
124,105,117287,1,8,3:2:0:0:
124,105,117358,1,0,3:0:0:0:
294,246,117501,2,0,L|302:298,1,45,10|0,0:2|0:0,0:0:0:0:
369,359,117644,6,0,P|387:298|447:188,1,180,0|2,3:0|3:2,0:0:0:0:
321,53,118073,2,0,P|329:107|347:159,1,90,10|0,0:0|0:0,0:0:0:0:
239,352,118358,1,2,3:2:0:0:
226,168,118501,1,2,3:2:0:0:
361,272,118644,1,8,0:0:0:0:
176,302,118787,6,0,P|85:291|1:263,1,180,2|2,3:2|3:2,0:0:0:0:
318,344,119215,2,0,P|373:321|421:312,1,90,10|0,0:0|3:0,0:0:0:0:
312,127,119501,1,8,0:0:0:0:
302,137,119573,1,8,0:0:0:0:
294,148,119644,1,8,0:0:0:0:
289,160,119715,1,8,0:0:0:0:
286,173,119787,1,8,0:0:0:0:
285,186,119858,1,8,0:0:0:0:
285,199,119930,6,0,L|445:177,1,153.000002918243,4|0,3:2|3:0,0:0:0:0:
210,296,120358,1,10,0:0:0:0:
163,194,120501,1,0,3:0:0:0:
167,174,120572,1,0,3:0:0:0:
171,154,120644,1,2,3:2:0:0:
175,134,120715,1,0,3:0:0:0:
179,114,120787,1,2,3:2:0:0:
331,278,120930,1,8,0:0:0:0:
76,224,121073,6,0,L|-4:232,1,76.5000014591217,2|0,3:2|3:0,0:0:0:0:
191,333,121358,2,0,L|271:325,1,76.5000014591217,0|10,3:0|0:2,0:0:0:0:
483,221,121644,1,0,3:0:0:0:
462,223,121715,1,0,3:0:0:0:
442,226,121787,1,2,3:2:0:0:
422,229,121858,1,0,3:0:0:0:
402,232,121930,1,2,3:2:0:0:
325,379,122073,1,8,0:0:0:0:
220,250,122215,6,0,B|197:210|197:210|221:89,1,153.000002918243,2|2,3:2|3:2,0:0:0:0:
127,27,122644,1,10,0:0:0:0:
10,155,122787,1,0,3:0:0:0:
31,153,122858,1,0,3:0:0:0:
51,150,122930,1,2,3:2:0:0:
71,147,123001,1,0,3:0:0:0:
91,144,123073,1,2,3:2:0:0:
291,195,123215,1,8,0:0:0:0:
197,345,123358,6,0,P|166:301|197:189,1,153.000002918243,2|2,3:2|3:2,0:0:0:0:
410,33,123787,2,0,L|396:112,1,76.5000014591217,10|0,0:2|3:0,0:0:0:0:
442,187,124001,1,0,3:0:0:0:
442,187,124073,1,2,3:2:0:0:
176,96,124215,1,4,0:0:0:0:
176,96,124501,6,0,B|162:165|162:165|175:203|175:203|156:291,1,180,4|0,0:0|3:0,0:0:0:0:
357,324,124930,2,0,P|300:306|224:344,1,135,8|0,0:0|0:0,0:0:0:0:
221,364,125215,1,8,3:2:0:0:
14,234,125358,2,0,P|54:207|125:217,1,90,0|8,3:0|0:0,0:0:0:0:
228,37,125644,6,0,P|259:94|224:202,1,180,0|0,3:0|0:0,0:0:0:0:
376,364,126073,2,0,P|337:336|317:280,1,90,8|8,0:0|0:0,0:0:0:0:
429,67,126358,1,8,3:2:0:0:
425,94,126430,1,8,0:0:0:0:
421,120,126501,1,8,0:0:0:0:
417,147,126573,1,8,0:0:0:0:
414,173,126644,1,8,0:0:0:0:
411,199,126715,1,8,0:0:0:0:
411,199,127930,6,0,B|350:184|350:184|319:215|319:215|263:189|205:218,1,215.999993408203,4|8,0:0|0:0,0:0:0:0:
145,279,128287,1,8,0:0:0:0:
145,279,128358,6,0,L|136:349,1,53.9999983520508,8|8,0:0|0:0,0:0:0:0:
222,114,128501,2,0,L|213:44,1,53.9999983520508,8|8,0:0|0:0,0:0:0:0:
321,301,128644,6,0,L|312:371,1,62.9999980773926,0|8,0:0|0:0,0:0:0:0:
433,110,128787,2,0,L|424:40,1,62.9999980773926,8|8,0:0|0:0,0:0:0:0:
270,209,128930,5,8,0:0:0:0:
270,209,129001,1,0,0:0:0:0:
270,209,129073,6,0,B|206:187|206:187|138:195|93:261,1,207.000003948212,6|0,0:0|3:0,0:0:0:0:
424,301,129501,1,8,0:0:0:0:
337,124,129644,1,0,0:0:0:0:
200,267,129787,2,0,P|184:318|186:367,1,103.500001974106,0|0,3:0|3:0,0:0:0:0:
93,152,130073,1,8,0:0:0:0:
270,209,130215,6,0,B|325:225|325:225|482:184,1,207.000003948212,0|0,3:0|3:0,0:0:0:0:
427,87,130644,1,8,0:0:0:0:
368,298,130787,1,0,0:0:0:0:
199,156,130930,2,0,P|174:108|176:52,1,103.500001974106,0|0,3:0|3:0,0:0:0:0:
426,197,131215,1,8,0:0:0:0:
294,121,131358,6,0,B|254:125|222:103|222:103|166:121|166:121|132:97|77:98,1,207.000003948212,0|0,3:0|3:0,0:0:0:0:
21,247,131787,1,8,0:0:0:0:
50,237,131858,1,0,0:0:0:0:
74,217,131930,1,0,0:0:0:0:
63,119,132073,1,0,3:0:0:0:
52,316,132215,1,0,3:0:0:0:
166,206,132358,1,8,0:0:0:0:
247,341,132501,6,0,P|313:362|419:274,1,207.000003948212,0|0,3:0|3:0,0:0:0:0:
434,89,132930,2,0,P|403:131|398:205,1,103.500001974106,8|0,0:0|0:0,0:0:0:0:
512,253,133215,1,0,3:0:0:0:
340,81,133358,2,0,P|320:75|291:62,1,51.7500009870529,8|8,0:0|0:0,0:0:0:0:
227,203,133501,2,0,P|207:209|178:222,1,51.7500009870529,8|8,0:0|0:0,0:0:0:0:
59,172,133644,6,0,B|32:134|32:134|46:25,1,155.250002961159,4|0,3:2|0:0,0:0:0:0:
45,26,133930,1,0,3:0:0:0:
162,249,134073,2,0,L|147:353,1,103.500001974106,8|0,0:0|0:0,0:0:0:0:
297,214,134358,1,0,3:0:0:0:
297,214,134501,1,0,3:0:0:0:
181,128,134644,1,8,0:0:0:0:
391,125,134787,6,0,P|417:174|437:238,1,103.500001974106,0|0,3:0|0:0,0:0:0:0:
235,367,135073,1,0,3:0:0:0:
327,294,135215,2,0,L|338:177,1,103.500001974106,8|0,0:0|0:0,0:0:0:0:
209,52,135501,1,0,3:0:0:0:
209,52,135644,1,0,0:0:0:0:
237,242,135787,1,8,0:0:0:0:
0,220,135930,6,0,B|15:191|15:191|74:172|133:211|133:211|178:187,1,207.000003948212,0|0,3:0|3:0,0:0:0:0:
323,54,136358,1,8,0:0:0:0:
127,86,136501,1,0,0:0:0:0:
365,249,136644,1,0,3:0:0:0:
227,24,136787,2,0,B|202:69|202:69|211:138,1,103.500001974106,0|8,3:0|0:0,0:0:0:0:
320,341,137073,6,0,P|376:304|355:171,1,207.000003948212,0|0,3:0|3:0,0:0:0:0:
107,148,137501,1,8,0:0:0:0:
126,178,137573,2,0,L|112:283,1,103.500001974106,8|8,0:0|0:0,0:0:0:0:
212,365,137787,1,8,0:3:0:0:
195,345,137858,1,8,0:3:0:0:
198,319,137930,1,8,0:3:0:0:
200,293,138001,1,0,3:0:0:0:
203,267,138073,1,0,3:0:0:0:
206,241,138144,1,0,3:0:0:0:
209,215,138215,6,0,B|254:248|307:227|307:227|362:206|406:237,1,207.000003948212,4|0,0:0|3:0,0:0:0:0:
128,301,138644,1,8,0:0:0:0:
155,106,138787,1,0,0:0:0:0:
2,168,138930,2,0,P|56:197|107:199,1,103.500001974106,0|0,3:0|3:0,0:0:0:0:
259,86,139215,1,8,0:0:0:0:
405,236,139358,6,0,B|331:211|331:211|279:235|279:235|197:212,1,207.000003948212,0|0,3:0|3:0,0:0:0:0:
144,81,139787,1,8,0:0:0:0:
99,296,139930,1,0,0:0:0:0:
2,168,140073,2,0,B|52:157|52:157|106:179,1,103.500001974106,0|0,3:0|3:0,0:0:0:0:
213,348,140358,1,8,0:0:0:0:
415,313,140501,6,0,L|448:96,1,207.000003948212,0|0,3:0|3:0,0:0:0:0:
221,160,140930,1,8,0:0:0:0:
385,241,141073,1,0,0:0:0:0:
334,65,141215,1,0,3:0:0:0:
328,90,141287,1,0,0:0:0:0:
323,115,141358,1,0,3:0:0:0:
277,306,141501,1,8,0:0:0:0:
64,194,141644,6,0,B|105:184|127:173|127:173|172:196|172:196|206:175|245:182|245:182|254:204,1,207.000003948212,0|0,3:0|3:0,0:0:0:0:
444,95,142073,2,0,P|391:118|338:124,1,103.500001974106,8|0,0:0|0:0,0:0:0:0:
189,46,142358,1,0,3:0:0:0:
354,228,142501,2,0,P|351:255|340:288,1,51.7500009870529,8|8,0:0|0:0,0:0:0:0:
166,362,142644,2,0,P|158:337|156:311,1,51.7500009870529,8|8,0:0|0:0,0:0:0:0:
84,132,142787,6,0,P|183:121|251:200,1,207.000003948212,4|0,3:2|3:0,0:0:0:0:
448,345,143215,2,0,P|393:348|332:308,1,103.500001974106,8|0,0:0|0:0,0:0:0:0:
340,113,143501,1,0,3:0:0:0:
410,262,143644,1,0,3:0:0:0:
259,330,143787,2,0,L|242:214,1,103.500001974106,8|0,0:0|3:0,0:0:0:0:
37,100,144073,6,0,P|92:125|160:135,1,103.500001974106,0|0,0:0|3:0,0:0:0:0:
389,61,144358,2,0,P|338:72|292:94,1,103.500001974106,8|0,0:0|0:0,0:0:0:0:
138,245,144644,1,0,3:0:0:0:
200,64,144787,1,0,3:0:0:0:
344,190,144930,1,8,0:0:0:0:
72,159,145073,6,0,B|144:140|144:140|200:159|200:159|291:128,1,207.000003948212,0|0,3:0|3:0,0:0:0:0:
498,273,145501,2,0,L|370:262,1,103.500001974106,8|0,0:0|0:0,0:0:0:0:
297,157,145787,1,0,3:0:0:0:
346,342,145930,1,0,3:0:0:0:
201,223,146073,1,8,0:0:0:0:
417,178,146215,6,0,B|463:154|463:154|485:79|433:-2,1,207.000003948212,0|0,3:0|3:0,0:0:0:0:
271,190,146644,2,0,P|250:241|245:295,1,103.500001974106,8|8,3:2|0:0,0:0:0:0:
74,354,146929,1,8,0:0:0:0:
100,328,147001,1,8,0:0:0:0:
115,295,147072,1,8,0:0:0:0:
119,258,147144,1,8,0:0:0:0:
110,222,147215,2,0,P|98:197|79:171,1,51.7500009870529,8|8,0:0|0:0,0:0:0:0:
134,36,147358,6,0,B|164:68|164:68|244:80|296:32,1,180,6|0,0:0|0:0,0:0:0:0:
492,144,147787,2,0,P|444:132|404:132,1,90,8|0,0:0|0:0,0:0:0:0:
252,224,148073,1,0,3:0:0:0:
384,332,148215,2,0,L|372:232,1,90,0|8,3:0|0:0,0:0:0:0:
124,312,148501,6,0,P|176:356|276:328,1,180,4|0,3:2|3:0,0:0:0:0:
457,214,148930,2,0,P|393:230|361:250,1,90,8|0,0:0|0:0,0:0:0:0:
456,336,149215,1,0,3:0:0:0:
424,108,149358,2,0,P|380:116|328:144,1,90,0|8,3:0|0:0,0:0:0:0:
208,272,149644,6,0,P|228:188|228:88,1,180,4|0,3:2|3:0,0:0:0:0:
84,240,150073,2,0,L|92:344,1,90,8|0,0:0|0:0,0:0:0:0:
208,272,150358,1,0,3:0:0:0:
32,152,150501,2,0,L|48:60,1,90,0|8,3:0|0:0,0:0:0:0:
320,88,150787,6,0,B|260:92|260:92|208:124|208:124|144:128,1,180,4|8,3:2|3:0,0:0:0:0:
176,24,151215,1,8,0:0:0:0:
296,188,151358,1,8,0:0:0:0:
384,4,151501,1,4,3:2:0:0:
263,91,151644,2,0,L|320:88,1,56.25,8|8,0:0|0:0,0:0:0:0:
480,196,151787,2,0,L|423:192,1,56.25,8|8,0:0|0:0,0:0:0:0:
264,308,151930,6,0,B|308:288|308:288|448:296,1,180,4|0,0:0|3:0,0:0:0:0:
236,204,152358,2,0,B|220:164|220:164|224:104,1,90,8|0,0:0|0:0,0:0:0:0:
156,280,152644,1,0,3:0:0:0:
332,144,152787,2,0,B|344:100|344:100|336:48,1,90,0|8,3:0|0:0,0:0:0:0:
84,68,153073,6,0,P|164:124|244:84,1,180,4|0,3:2|3:0,0:0:0:0:
80,252,153501,2,0,P|48:212|40:168,1,90,8|0,0:0|0:0,0:0:0:0:
184,296,153787,1,0,3:0:0:0:
272,228,153930,2,0,P|332:224|376:232,1,90,0|8,3:0|0:0,0:0:0:0:
472,352,154215,6,0,B|456:292|456:292|476:240|476:240|464:176,1,180,4|0,3:2|3:0,0:0:0:0:
340,48,154644,2,0,L|324:152,1,90,8|0,0:0|0:0,0:0:0:0:
232,348,154930,1,0,3:0:0:0:
148,216,155073,2,0,L|140:124,1,90,0|8,3:0|0:0,0:0:0:0:
68,280,155358,6,0,B|152:240|152:240|256:260,1,180,4|0,3:2|3:0,0:0:0:0:
336,284,155787,1,12,0:2:0:0:
164,336,155930,1,0,0:0:0:0:
244,200,156073,2,0,L|236:264,1,56.25,12|8,0:0|0:0,0:0:0:0:
344,339,156215,2,0,L|334:274,1,56.25,8|8,0:0|0:0,0:0:0:0:
440,200,156358,2,0,L|432:264,1,56.25,8|8,0:0|0:0,0:0:0:0:
336,252,156501,5,4,3:2:0:0:
339,226,156573,1,0,0:0:0:0:
342,200,156644,1,0,0:0:0:0:
345,174,156715,1,0,0:0:0:0:
347,148,156787,1,0,3:0:0:0:
349,122,156858,1,0,0:0:0:0:
352,96,156930,2,0,L|358:34,3,51.7500009870529,8|0|0|0,0:0|0:0|3:0|0:0,0:0:0:0:
279,21,157215,5,0,3:0:0:0:
260,46,157287,1,0,0:0:0:0:
232,59,157358,1,0,3:0:0:0:
200,58,157430,1,0,0:0:0:0:
173,42,157501,2,0,P|147:33|111:34,1,51.7500009870529,8|0,0:0|0:0,0:0:0:0:
58,95,157644,5,0,3:0:0:0:
61,120,157715,1,0,0:0:0:0:
65,145,157787,1,0,3:0:0:0:
69,170,157858,1,0,0:0:0:0:
73,195,157930,1,0,3:0:0:0:
77,220,158001,1,0,0:0:0:0:
82,245,158073,2,0,L|75:307,3,51.7500009870529,8|0|0|0,0:0|0:0|3:0|0:0,0:0:0:0:
153,337,158358,5,0,3:0:0:0:
185,320,158430,1,0,0:0:0:0:
218,334,158501,1,0,3:0:0:0:
250,317,158573,1,0,0:0:0:0:
283,329,158644,1,8,0:0:0:0:
500,237,158787,6,0,B|458:253|458:253|418:234|418:234|383:261|325:249,1,180,0|0,3:0|3:0,0:0:0:0:
256,192,159215,1,8,0:0:0:0:
5,134,159358,6,0,B|52:115|52:115|97:135|97:135|139:107|201:121,1,198.000006042481,0|0,3:0|3:0,0:0:0:0:
256,192,159787,1,8,0:0:0:0:
512,255,159930,6,0,B|461:274|461:274|413:251|413:251|371:283|302:269,1,215.999993408203,0|0,3:0|3:0,0:0:0:0:
256,192,160358,1,8,3:2:0:0:
264,166,160430,1,0,0:0:0:0:
281,145,160501,1,0,3:0:0:0:
304,130,160573,1,0,0:0:0:0:
330,123,160644,1,8,0:0:0:0:
356,124,160715,1,8,0:0:0:0:
381,132,160787,6,0,P|407:151|422:181,1,53.9999983520508,8|8,0:0|0:0,0:0:0:0:
368,41,160930,2,0,P|397:43|438:57,1,53.9999983520508,8|8,0:0|0:0,0:0:0:0:
292,97,161073,2,0,P|206:113|112:17,1,215.999993408203,4|0,0:0|3:0,0:0:0:0:
14,230,161501,2,0,P|79:213|129:216,1,107.999996704102,8|0,0:0|0:0,0:0:0:0:
231,325,161787,1,8,3:2:0:0:
419,289,161930,2,0,P|367:266|304:264,1,107.999996704102,0|8,3:0|0:0,0:0:0:0:
231,325,162144,1,0,0:0:0:0:
231,325,162215,6,0,L|218:209,1,107.999996704102,4|0,3:2|0:0,0:0:0:0:
208,112,162501,1,0,3:0:0:0:
18,191,162644,2,0,L|129:177,1,107.999996704102,8|0,0:0|0:0,0:0:0:0:
306,157,162930,1,8,3:2:0:0:
125,177,163073,1,0,3:0:0:0:
196,10,163215,1,8,0:0:0:0:
218,217,163358,6,0,P|142:277|31:218,1,215.999993408203,4|8,3:2|0:0,0:0:0:0:
243,111,163787,1,8,0:0:0:0:
303,280,163930,6,0,P|379:340|490:281,1,215.999993408203,0|8,0:2|0:0,0:0:0:0:
266,89,164358,1,8,0:0:0:0:
218,217,164501,2,0,P|201:243|172:266,1,53.9999983520508,0|0,3:0|0:0,0:0:0:0:
111,278,164644,1,8,0:0:0:0:
100,276,164715,1,8,0:0:0:0:
89,272,164787,1,8,3:0:0:0:
79,268,164858,1,8,0:0:0:0:
69,262,164930,5,8,0:0:0:0:
69,262,165001,2,0,P|91:222|161:188,1,107.999996704102,8|8,0:0|0:0,0:0:0:0:
218,217,165215,1,8,0:0:0:0:
218,217,165287,2,0,P|278:234|339:223,1,107.999996704102,8|8,0:0|0:0,0:0:0:0:
383,176,165501,1,8,0:0:0:0:
383,176,165573,1,8,0:0:0:0:
383,176,165644,6,0,B|360:207|360:207|350:273|383:329,1,161.999995056153,6|0,0:1|3:0,0:0:0:0:
479,202,166073,1,10,0:0:0:0:
306,117,166215,1,0,3:0:0:0:
300,97,166287,1,0,3:0:0:0:
300,76,166358,1,2,3:2:0:0:
306,56,166430,1,0,3:0:0:0:
317,39,166501,1,2,3:2:0:0:
383,176,166644,1,8,0:0:0:0:
216,37,166787,6,0,P|161:22|64:80,1,161.999995056153,2|0,3:2|3:0,0:0:0:0:
93,272,167215,1,10,0:0:0:0:
172,200,167358,1,0,3:0:0:0:
178,180,167430,1,0,3:0:0:0:
178,159,167501,1,2,3:2:0:0:
172,139,167573,1,0,3:0:0:0:
161,122,167644,1,2,3:2:0:0:
59,175,167787,1,10,0:0:0:0:
279,123,167930,6,0,B|322:113|358:133|358:133|396:150|436:141,1,161.999995056153,2|2,3:2|3:2,0:0:0:0:
436,140,168358,1,10,0:2:0:0:
296,294,168501,1,0,3:0:0:0:
290,274,168573,1,0,3:0:0:0:
290,253,168644,1,2,3:2:0:0:
296,233,168716,1,0,3:0:0:0:
307,216,168787,1,2,3:2:0:0:
374,363,168930,1,8,0:0:0:0:
212,207,169073,6,0,P|132:191|47:244,1,161.999995056153,2|0,3:2|3:0,0:0:0:0:
62,225,169501,1,10,0:2:0:0:
159,365,169644,1,0,3:0:0:0:
165,345,169716,1,0,3:0:0:0:
165,324,169787,1,2,3:2:0:0:
159,304,169859,1,0,0:0:0:0:
148,287,169930,6,0,P|130:310|123:337,1,53.9999983520508,8|8,0:0|0:0,0:0:0:0:
255,277,170073,2,0,P|249:246|233:219,1,53.9999983520508,8|8,0:0|0:0,0:0:0:0:
98,127,170215,6,0,B|124:135|143:159|143:159|219:167|284:129,1,198.000006042481,4|2,0:0|3:2,0:0:0:0:
407,9,170644,2,0,P|392:62|390:112,1,99.0000030212403,10|0,0:2|0:0,0:0:0:0:
459,299,170930,1,2,3:2:0:0:
365,238,171073,2,0,P|306:224|254:228,1,99.0000030212403,2|8,3:2|0:0,0:0:0:0:
80,307,171358,6,0,P|160:288|261:345,1,198.000006042481,2|2,3:2|3:2,0:0:0:0:
136,196,171787,1,10,0:2:0:0:
270,362,171930,1,10,0:0:0:0:
248,156,172073,1,2,3:2:0:0:
248,156,172144,2,0,L|241:83,1,49.5000015106202,8|0,0:0|3:0,0:0:0:0:
387,290,172358,1,10,0:0:0:0:
164,296,172501,6,0,L|379:278,1,198.000006042481,0|0,3:0|3:0,0:0:0:0:
125,168,172930,2,0,L|233:177,1,99.0000030212403,10|0,0:0|0:0,0:0:0:0:
341,184,173215,1,2,3:2:0:0:
164,296,173358,1,0,3:0:0:0:
392,368,173501,1,10,0:0:0:0:
250,232,173644,6,0,B|240:166|240:166|266:105|266:105|255:42,1,198.000006042481,2|2,3:2|3:2,0:0:0:0:
57,86,174073,2,0,B|106:102|106:102|173:97,1,99.0000030212403,10|0,0:0|3:0,0:0:0:0:
420,65,174358,2,0,B|395:58|395:58|366:59,1,49.5000015106202,8|8,0:0|0:0,0:0:0:0:
483,141,174501,2,0,B|501:122|501:122|515:97,1,49.5000015106202,8|8,0:0|0:0,0:0:0:0:
386,156,174644,2,0,B|392:181|392:181|407:205,1,49.5000015106202,8|8,0:0|0:0,0:0:0:0:
420,65,174787,6,0,B|371:59|371:59|234:85,1,161.999995056153,4|0,0:0|3:0,0:0:0:0:
404,201,175215,1,10,0:0:0:0:
247,296,175358,1,0,3:0:0:0:
249,271,175430,1,0,3:0:0:0:
250,246,175501,1,2,3:2:0:0:
252,221,175573,1,0,3:0:0:0:
254,197,175644,1,2,3:2:0:0:
155,345,175787,1,8,0:0:0:0:
354,269,175930,6,0,B|407:264|407:264|461:287|461:287|520:281,1,161.999995056153,2|0,3:2|3:0,0:0:0:0:
321,367,176358,1,10,0:0:0:0:
250,246,176501,1,0,3:0:0:0:
248,222,176572,1,0,3:0:0:0:
246,197,176644,1,2,3:2:0:0:
245,172,176715,1,0,3:0:0:0:
243,147,176787,1,2,3:2:0:0:
354,269,176930,1,10,0:0:0:0:
148,222,177073,6,0,B|110:206|110:206|73:220|73:220|35:201|35:201|-5:219,1,161.999995056153,2|0,3:2|3:0,0:0:0:0:
182,324,177501,1,10,0:0:0:0:
246,197,177643,1,0,3:0:0:0:
248,172,177715,1,0,3:0:0:0:
249,147,177786,1,2,3:2:0:0:
251,122,177858,1,0,3:0:0:0:
253,98,177929,1,2,3:2:0:0:
148,222,178073,1,10,0:0:0:0:
355,142,178215,6,0,L|363:39,1,80.9999975280763,2|2,0:0|0:0,0:0:0:0:
444,218,178501,1,0,0:0:0:0:
246,197,178644,2,0,L|240:296,1,80.9999975280763,10|2,0:0|3:0,0:0:0:0:
236,351,178858,1,0,3:0:0:0:
234,373,178930,5,2,3:0:0:0:
253,98,179073,1,4,0:0:0:0:
253,98,179358,6,0,B|214:93|180:119|180:119|126:89|60:100,1,198.000006042481,4|2,0:0|0:0,0:0:0:0:
246,197,179787,2,0,P|324:172|349:99,1,148.50000453186,10|0,0:0|0:0,0:0:0:0:
350,79,180073,1,2,3:0:0:0:
149,211,180215,2,0,P|138:268|139:309,1,99.0000030212403,4|8,0:0|0:0,0:0:0:0:
406,371,180501,6,0,P|438:303|425:180,1,198.000006042481,4|2,0:0|0:0,0:0:0:0:
183,59,180930,2,0,P|244:98|316:93,1,148.50000453186,10|0,0:0|0:0,0:0:0:0:
350,79,181215,1,0,3:0:0:0:
161,194,181358,2,0,P|108:196|48:178,1,99.0000030212403,4|0,3:2|0:0,0:0:0:0:
318,274,181644,6,0,P|396:234|499:266,1,198.000006042481,4|0,3:2|3:0,0:0:0:0:
322,382,182073,1,8,0:0:0:0:
278,151,182215,1,8,0:0:0:0:
429,264,182358,1,8,0:0:0:0:
404,280,182430,1,8,0:0:0:0:
375,287,182501,1,8,0:0:0:0:
345,287,182573,1,8,0:0:0:0:
318,274,182644,1,8,0:0:0:0:
294,256,182715,1,8,0:0:0:0:
264,250,182787,1,8,0:0:0:0:
235,255,182858,1,8,0:0:0:0:
209,269,182930,6,0,L|198:333,1,49.5000015106202,8|8,0:0|0:0,0:0:0:0:
365,191,183073,6,0,L|360:131,1,53.9999983520508,8|0,0:0|0:0,0:0:0:0:
109,215,183215,6,0,L|96:285,1,58.4999973220826,8|8,0:0|0:0,0:0:0:0:
271,73,183358,6,0,L|265:2,1,62.9999980773926,8|8,0:0|0:0,0:0:0:0:
10,161,183501,5,8,0:0:0:0:
10,161,184930,5,0,0:0:0:0:
263,274,185073,6,0,B|174:263|174:263|139:269|139:269|35:254,1,215.999993408203,6|0,0:0|3:0,0:0:0:0:
221,176,185501,1,8,0:0:0:0:
90,355,185644,1,0,0:0:0:0:
340,359,185787,2,0,P|367:308|381:251,1,107.999996704102,0|0,3:0|3:0,0:0:0:0:
201,142,186073,1,8,0:0:0:0:
354,384,186215,6,0,P|395:312|427:182,1,215.999993408203,0|0,3:0|3:0,0:0:0:0:
336,37,186644,1,8,0:0:0:0:
512,153,186787,1,0,0:0:0:0:
332,261,186930,2,0,P|271:245|227:213,1,107.999996704102,0|0,3:0|3:0,0:0:0:0:
402,174,187215,1,8,0:0:0:0:
421,327,187358,6,0,B|376:366|376:366|308:384|200:354,1,215.999993408203,0|0,3:0|3:0,0:0:0:0:
95,147,187787,1,8,0:0:0:0:
89,178,187858,1,0,0:0:0:0:
83,210,187930,1,0,0:0:0:0:
72,66,188073,1,0,3:0:0:0:
219,180,188215,1,0,3:0:0:0:
66,289,188358,1,8,0:0:0:0:
171,89,188501,6,0,B|301:59|256:111|389:78,1,215.999993408203,0|0,0:0|3:0,0:0:0:0:
512,232,188930,2,0,P|456:221|406:194,1,107.999996704102,8|0,0:0|0:0,0:0:0:0:
195,319,189215,1,0,3:0:0:0:
288,209,189358,1,8,0:0:0:0:
298,228,189430,1,8,0:0:0:0:
306,247,189501,1,8,0:0:0:0:
310,268,189573,1,8,0:0:0:0:
310,289,189644,6,0,L|123:254,1,161.999995056153,4|0,3:2|0:0,0:0:0:0:
79,285,189930,1,0,3:0:0:0:
153,86,190073,2,0,P|173:139|184:195,1,107.999996704102,8|0,0:0|0:0,0:0:0:0:
181,373,190358,1,0,3:0:0:0:
181,373,190501,1,0,3:0:0:0:
63,167,190644,1,8,0:0:0:0:
279,103,190787,6,0,L|261:219,1,107.999996704102,0|0,3:0|0:0,0:0:0:0:
374,171,191073,1,0,0:0:0:0:
152,250,191215,2,0,L|170:134,1,107.999996704102,8|0,0:0|3:0,0:0:0:0:
97,55,191501,1,0,3:0:0:0:
97,55,191644,1,0,3:0:0:0:
54,293,191787,1,8,0:0:0:0:
289,189,191930,6,0,B|358:175|358:175|497:217,1,215.999993408203,0|0,3:0|3:0,0:0:0:0:
453,311,192358,1,8,0:0:0:0:
371,83,192501,1,0,0:0:0:0:
248,293,192644,1,0,3:0:0:0:
133,143,192787,2,0,B|184:128|184:128|254:136,1,107.999996704102,0|8,3:0|0:0,0:0:0:0:
497,217,193073,6,0,P|461:266|316:251,1,215.999993408203,0|0,3:3|3:0,0:0:0:0:
63,318,193501,1,8,0:0:0:0:
63,318,193573,2,0,P|118:294|177:292,1,107.999996704102,8|8,0:0|0:0,0:0:0:0:
248,293,193787,1,8,0:3:0:0:
243,271,193858,1,8,0:3:0:0:
238,249,193930,1,8,0:3:0:0:
233,227,194001,1,0,3:0:0:0:
228,205,194073,1,0,3:0:0:0:
223,183,194145,1,0,3:0:0:0:
218,161,194215,6,0,B|167:200|167:200|85:210|19:135,1,215.999993408203,4|0,3:2|3:0,0:0:0:0:
273,65,194644,1,8,0:0:0:0:
243,271,194787,1,0,0:0:0:0:
405,147,194930,2,0,P|334:160|292:181,1,107.999996704102,0|8,3:0|3:2,0:0:0:0:
182,351,195215,1,8,0:0:0:0:
318,200,195358,6,0,B|368:160|368:160|451:151|517:226,1,215.999993408203,0|0,3:0|3:0,0:0:0:0:
263,296,195787,1,8,0:0:0:0:
293,90,195930,1,0,0:0:0:0:
426,251,196073,2,0,P|444:305|452:356,1,107.999996704102,0|8,3:0|3:2,0:0:0:0:
324,184,196358,1,8,0:0:0:0:
213,227,196501,6,0,B|139:244|139:244|77:226|77:226|-10:247,1,215.999993408203,0|0,3:0|3:0,0:0:0:0:
313,299,196930,1,8,0:0:0:0:
142,141,197073,1,0,0:0:0:0:
321,66,197215,1,0,3:0:0:0:
342,62,197287,1,0,0:0:0:0:
364,59,197358,1,8,3:2:0:0:
245,212,197501,1,8,0:0:0:0:
439,205,197644,6,0,B|482:166|482:166|506:9,1,215.999993408203,0|0,3:0|3:0,0:0:0:0:
260,224,198073,2,0,L|239:339,1,107.999996704102,8|0,0:0|3:0,0:0:0:0:
155,83,198358,1,0,3:0:0:0:
343,279,198501,2,0,P|378:282|411:279,1,53.9999983520508,8|8,0:0|0:0,0:0:0:0:
185,168,198644,2,0,P|158:167|131:169,1,53.9999983520508,8|8,0:0|0:0,0:0:0:0:
231,384,198787,6,0,L|269:171,1,215.999993408203,4|0,3:2|3:0,0:0:0:0:
383,28,199215,2,0,B|412:74|412:74|403:131,1,107.999996704102,8|0,0:0|0:0,0:0:0:0:
217,252,199501,1,0,3:0:0:0:
217,252,199644,1,0,3:0:0:0:
422,311,199787,2,0,P|357:333|291:334,1,107.999996704102,8|0,0:0|3:0,0:0:0:0:
138,75,200073,6,0,L|158:185,1,107.999996704102,0|0,0:0|3:0,0:0:0:0:
318,336,200358,2,0,L|298:226,1,107.999996704102,8|0,0:0|0:0,0:0:0:0:
60,288,200644,1,0,3:0:0:0:
243,163,200787,1,0,3:0:0:0:
184,372,200930,1,8,0:0:0:0:
116,158,201073,6,0,P|157:91|284:95,1,215.999993408203,0|0,3:0|3:0,0:0:0:0:
504,172,201501,2,0,P|456:199|397:191,1,107.999996704102,8|0,0:0|0:0,0:0:0:0:
224,349,201787,2,0,P|224:293|261:246,1,107.999996704102,0|0,3:0|3:0,0:0:0:0:
377,102,202073,1,8,0:0:0:0:
310,324,202215,6,0,B|78:308,1,215.999993408203,0|0,3:0|3:0,0:0:0:0:
386,271,202644,2,0,B|402:322|402:322|386:375,1,107.999996704102,8|0,0:0|3:0,0:0:0:0:
190,197,202930,1,8,0:0:0:0:
198,171,203001,1,8,0:0:0:0:
206,145,203073,1,8,0:0:0:0:
214,119,203144,1,8,0:0:0:0:
222,93,203215,2,0,L|208:31,1,53.9999983520508,8|8,0:0|0:0,0:0:0:0:
101,115,203358,6,0,B|61:154|61:154|50:250|137:320,1,215.999993408203,4|0,3:2|3:0,0:0:0:0:
304,256,203787,2,0,L|291:308,3,53.9999983520508,8|0|0|0,0:0|0:0|3:0|0:0,0:0:0:0:
404,234,204073,2,0,L|391:182,3,53.9999983520508,8|0|0|0,0:0|0:0|3:0|0:0,0:0:0:0:
459,89,204358,1,8,0:0:0:0:
459,89,204430,1,8,0:0:0:0:
459,89,204501,1,0,3:0:0:0:
459,89,204573,1,0,0:0:0:0:
459,89,204644,5,8,0:0:0:0:
426,107,204715,1,8,0:0:0:0:
388,113,204787,1,8,3:2:0:0:
354,96,204858,1,8,0:0:0:0:
325,71,204930,1,8,3:2:0:0:
288,60,205001,1,8,0:0:0:0:
250,63,205073,1,0,0:0:0:0:
218,83,205144,1,8,0:0:0:0:
204,117,205215,6,0,L|219:194,1,53.9999983520508,0|0,3:0|3:0,0:0:0:0:
348,361,205358,6,0,L|333:284,1,53.9999983520508,0|0,3:0|3:0,0:0:0:0:
170,98,205501,6,0,L|185:175,1,53.9999983520508,0|0,3:0|3:0,0:0:0:0:
385,382,205644,6,0,L|341:164,1,215.999993408203,6|2,0:0|3:2,0:0:0:0:
430,22,206073,2,0,B|447:69|447:69|427:119,1,99.0000030212403,10|0,0:0|0:0,0:0:0:0:
247,133,206358,1,2,3:2:0:0:
442,292,206501,2,0,L|422:195,1,99.0000030212403,0|10,3:2|0:0,0:0:0:0:
305,70,206787,6,0,P|241:50|138:123,1,198.000006042481,0|0,3:2|3:0,0:0:0:0:
66,367,207215,2,0,P|95:316|111:260,1,99.0000030212403,10|2,0:0|0:0,0:0:0:0:
241,154,207501,1,2,3:2:0:0:
50,178,207644,1,0,3:0:0:0:
201,295,207787,1,10,0:0:0:0:
28,219,207930,6,0,B|162:199|162:199|235:230,1,198.000006042481,0|2,3:0|3:2,0:0:0:0:
476,225,208358,2,0,L|367:251,1,99.0000030212403,10|0,0:0|0:0,0:0:0:0:
323,136,208644,1,2,3:2:0:0:
346,365,208787,1,0,3:0:0:0:
247,237,208930,1,10,0:0:0:0:
247,237,209073,6,0,B|184:244|184:244|159:269|159:269|46:281,1,198.000006042481,0|2,3:0|3:2,0:0:0:0:
39,107,209501,2,0,P|87:126|132:161,1,99.0000030212403,10|0,0:0|0:0,0:0:0:0:
224,322,209787,1,2,3:2:0:0:
387,212,209930,1,8,0:0:0:0:
387,212,210001,1,8,0:0:0:0:
387,212,210073,1,8,0:0:0:0:
387,212,210144,1,8,0:0:0:0:
387,212,210215,6,0,L|355:4,1,198.000006042481,4|2,3:2|3:2,0:0:0:0:
497,249,210644,2,0,P|483:297|459:347,1,99.0000030212403,10|0,0:0|0:0,0:0:0:0:
242,234,210930,1,2,3:2:0:0:
378,295,211073,2,0,L|262:306,1,99.0000030212403,0|10,3:0|0:0,0:0:0:0:
124,335,211358,6,0,P|64:262|100:154,1,198.000006042481,0|0,3:0|3:0,0:0:0:0:
204,120,211787,2,0,P|222:65|230:14,1,99.0000030212403,10|0,0:0|0:0,0:0:0:0:
344,278,212073,1,2,3:2:0:0:
157,238,212215,1,2,3:2:0:0:
307,115,212358,1,8,0:0:0:0:
99,59,212501,6,0,B|64:100|64:100|75:252,1,198.000006042481,2|2,3:2|3:2,0:0:0:0:
221,378,212930,2,0,L|232:265,1,99.0000030212403,10|0,0:0|0:0,0:0:0:0:
217,76,213215,1,2,3:2:0:0:
157,238,213358,1,0,3:0:0:0:
315,151,213501,1,10,0:0:0:0:
155,263,213644,6,0,B|232:243|232:243|270:253|270:253|367:228,1,198.000006042481,2|0,3:2|3:0,0:0:0:0:
414,139,214073,1,10,0:2:0:0:
403,349,214215,1,0,3:0:0:0:
222,169,214358,1,8,0:0:0:0:
222,169,214430,1,8,0:0:0:0:
222,169,214501,1,8,0:0:0:0:
222,169,214573,1,8,0:0:0:0:
222,169,214644,1,8,0:0:0:0:
222,169,214715,1,8,0:0:0:0:
222,169,214787,6,0,B|148:131|70:149|70:149|33:198,1,198.000006042481,4|0,3:2|3:0,0:0:0:0:
285,66,215215,2,0,P|331:90|388:99,1,99.0000030212403,10|0,0:0|0:0,0:0:0:0:
471,37,215501,1,2,3:2:0:0:
405,267,215644,2,0,L|389:157,1,99.0000030212403,2|8,3:2|0:0,0:0:0:0:
152,195,215930,6,0,P|191:246|313:228,1,198.000006042481,2|0,3:2|3:0,0:0:0:0:
485,117,216358,1,10,0:0:0:0:
485,117,216430,1,0,0:0:0:0:
485,117,216501,1,2,0:2:0:0:
485,117,216573,1,0,0:0:0:0:
485,117,216644,2,0,L|476:180,1,49.5000015106202,2|0,3:2|0:0,0:0:0:0:
408,265,216787,2,0,L|417:328,1,49.5000015106202,0|0,3:0|0:0,0:0:0:0:
315,144,216930,2,0,L|306:207,1,49.5000015106202,10|0,0:0|0:0,0:0:0:0:
215,277,217073,6,0,B|167:307|167:307|22:293,1,198.000006042481,0|2,3:0|3:2,0:0:0:0:
139,103,217501,2,0,P|94:119|28:125,1,99.0000030212403,10|0,0:0|0:0,0:0:0:0:
138,214,217787,1,2,3:2:0:0:
328,182,217930,2,0,P|278:176|232:159,1,99.0000030212403,2|8,3:2|0:0,0:0:0:0:
307,305,218215,6,0,P|366:255|478:273,1,198.000006042481,2|2,3:2|3:2,0:0:0:0:
486,80,218644,2,0,P|457:123|437:169,1,99.0000030212403,10|0,0:0|0:0,0:0:0:0:
407,348,218930,1,2,3:2:0:0:
270,226,219073,1,8,0:0:0:0:
264,191,219144,1,8,0:0:0:0:
259,156,219215,1,8,0:0:0:0:
253,121,219287,1,8,0:0:0:0:
248,86,219358,6,0,B|196:77|196:77|136:129|161:212,1,198.000006042481,4|2,3:2|3:2,0:0:0:0:
44,359,219787,2,0,P|67:308|77:260,1,99.0000030212403,10|0,0:0|0:0,0:0:0:0:
20,111,220073,1,2,3:2:0:0:
185,226,220215,2,0,L|293:211,1,99.0000030212403,2|8,3:2|0:0,0:0:0:0:
512,114,220501,6,0,B|396:71|436:148|301:106,1,198.000006042481,2|2,3:2|3:0,0:0:0:0:
185,226,220930,2,0,P|169:282|164:325,1,99.0000030212403,10|0,0:0|0:0,0:0:0:0:
275,359,221215,1,2,3:2:0:0:
92,219,221358,1,2,3:2:0:0:
274,80,221501,1,8,0:0:0:0:
227,208,221644,6,0,L|-4:171,1,198.000006042481,4|0,0:0|0:0,0:0:0:0:
115,33,222073,1,0,3:0:0:0:
129,115,222215,1,0,3:0:0:0:
241,54,222358,1,0,3:0:0:0:
229,165,222500,1,0,3:0:0:0:
339,75,222644,1,8,0:0:0:0:
360,201,222786,1,8,0:0:0:0:
129,148,222930,5,8,0:0:0:0:
316,27,223073,1,8,0:0:0:0:
384,246,223215,1,8,0:0:0:0:
384,246,223287,1,0,0:0:0:0:
384,246,223358,6,0,L|360:291,1,49.5000015106202,8|0,0:0|0:0,0:0:0:0:
197,179,223501,2,0,L|247:177,1,49.5000015106202,8|0,0:0|0:0,0:0:0:0:
224,376,223644,2,0,L|197:332,1,49.5000015106202,8|0,0:0|0:0,0:0:0:0:
349,134,223787,5,8,0:0:0:0:
