osu file format v14

[General]
AudioFilename: 09 - .mp3
AudioLeadIn: 0
PreviewTime: 184858
Countdown: 0
SampleSet: Soft
StackLeniency: 0.7
Mode: 0
LetterboxInBreaks: 1
WidescreenStoryboard: 1

[Editor]
DistanceSpacing: 0.9
BeatDivisor: 4
GridSize: 4
TimelineZoom: 2.6

[Metadata]
Title:Yakubyougami
TitleUnicode:ヤクビョウガミ
Artist:ayaponzu*
ArtistUnicode:あやぽんず*
Creator:Pho
Version:Advanced
Source:
Tags:まふまふ mafumafu yasu △○□× miwasiba みわしいば chocolate pop* Not-116 utaite 歌い手 asahina momoko mokori m_o_k_o_r_i cryo[iceeicee] cryo jonathanlfj captin1 lmt
BeatmapID:1066241
BeatmapSetID:501001

[Difficulty]
HPDrainRate:4
CircleSize:3.5
OverallDifficulty:5
ApproachRate:6
SliderMultiplier:1.1
SliderTickRate:1

[Events]
//Background and Video events
Video,-148,"yakubyougami.avi"
0,0,"bg1.jpg",0,0
//Break Periods
2,74415,81880
//Storyboard Layer 0 (Background)
//Storyboard Layer 1 (Fail)
//Storyboard Layer 2 (Pass)
//Storyboard Layer 3 (Foreground)
//Storyboard Sound Samples

[TimingPoints]
73,285.714285714286,4,2,1,50,1,0
1073,-100,4,2,1,90,0,0
5001,-100,4,2,1,40,0,0
5073,-100,4,2,1,90,0,0
5144,-100,4,2,1,40,0,0
5215,-100,4,2,1,90,0,0
5287,-100,4,2,1,40,0,0
5358,-100,4,2,1,90,0,0
9287,-100,4,2,1,5,0,0
9358,-100,4,2,1,90,0,0
9430,-100,4,2,1,40,0,0
9501,-100,4,2,1,90,0,0
9573,-100,4,2,1,40,0,0
9644,-100,4,2,1,90,0,0
9715,-100,4,2,1,40,0,0
9787,-100,4,2,1,90,0,0
14144,-100,4,2,1,40,0,0
14215,-100,4,2,1,90,0,0
14287,-100,4,2,1,40,0,0
14358,-100,4,2,1,90,0,0
14430,-100,4,2,1,40,0,0
14501,-100,4,2,1,90,0,0
17001,-100,4,2,1,40,0,0
17073,-100,4,2,1,90,0,0
17287,-100,4,2,1,5,0,0
17358,-100,4,2,1,90,0,0
19358,-100,4,2,1,60,0,0
19930,-100,4,2,1,5,0,0
20073,-100,4,2,1,60,0,0
20215,-100,4,2,1,5,0,0
20358,-100,4,2,1,60,0,0
20501,-100,4,2,1,5,0,0
20644,-100,4,2,1,60,0,0
20787,-100,4,2,1,5,0,0
20930,-100,4,2,1,60,0,0
21073,-100,4,2,1,5,0,0
21215,-100,4,2,1,60,0,0
21358,-100,4,2,1,20,0,0
21501,-100,4,2,1,60,0,0
21644,-100,4,2,1,20,0,0
21787,-100,4,2,1,60,0,0
21930,-100,4,2,1,20,0,0
22073,-100,4,2,1,60,0,0
22215,-100,4,2,1,5,0,0
22358,-100,4,2,1,60,0,0
22501,-100,4,2,1,5,0,0
22644,-100,4,2,1,60,0,0
22787,-100,4,2,1,5,0,0
22930,-100,4,2,1,60,0,0
23073,-100,4,2,1,20,0,0
23215,-100,4,2,1,60,0,0
23358,-100,4,2,1,20,0,0
23501,-100,4,2,1,60,0,0
23644,-100,4,2,1,5,0,0
23787,-100,4,2,1,60,0,0
23930,-100,4,2,1,5,0,0
24073,-100,4,2,1,60,0,0
27215,-100,4,2,6,100,0,0
27358,-100,4,2,6,100,0,0
27501,-100,4,2,1,70,0,0
27573,-100,4,2,1,40,0,0
27644,-100,4,2,1,70,0,0
27715,-100,4,2,1,40,0,0
27787,-100,4,2,1,70,0,0
28501,-100,4,2,1,80,0,0
31930,-100,4,2,1,80,0,0
35358,-100,4,2,1,60,0,0
37215,-100,4,2,1,80,0,0
37930,-100,4,2,1,60,0,0
42215,-100,4,2,1,70,0,0
46787,-100,4,2,1,60,0,0
49073,-100,4,2,1,70,0,0
50787,-100,4,2,1,80,0,0
51358,-100,4,2,1,90,0,0
53287,-100,4,2,1,40,0,0
53358,-100,4,2,1,90,0,0
53430,-100,4,2,1,40,0,0
53501,-100,4,2,1,90,0,0
53573,-100,4,2,1,40,0,0
53644,-100,4,2,1,90,0,0
53787,-100,4,2,1,35,0,0
54073,-100,4,2,1,50,0,0
54358,-100,4,2,1,60,0,0
54644,-100,4,2,1,70,0,0
54930,-100,4,2,1,80,0,0
55215,-100,4,2,1,90,0,0
55644,-100,4,2,1,40,0,0
55787,-100,4,2,1,90,0,0
55858,-100,4,2,1,40,0,0
55930,-100,4,2,1,100,0,1
61858,-100,4,2,1,5,0,1
61930,-100,4,2,1,100,0,1
63573,-100,4,2,1,40,0,1
63644,-100,4,2,1,100,0,1
63715,-100,4,2,1,40,0,1
63787,-100,4,2,1,100,0,1
63858,-100,4,2,1,40,0,1
63930,-100,4,2,1,100,0,1
69287,-100,4,2,1,40,0,1
69358,-100,4,2,1,100,0,1
72715,-100,4,2,1,40,0,1
72787,-100,4,2,1,100,0,1
72858,-100,4,2,1,40,0,1
72930,-100,4,2,1,100,0,1
74144,-100,4,2,1,100,0,0
74215,-100,4,2,1,100,0,1
74287,-100,4,2,1,90,0,0
87001,-100,4,2,1,5,0,0
87073,-100,4,2,1,100,0,0
87287,-100,4,2,1,40,0,0
87358,-100,4,2,1,100,0,0
87430,-100,4,2,1,40,0,0
87501,-100,4,2,1,100,0,0
87573,-100,4,2,1,40,0,0
87644,-100,4,2,1,100,0,0
91573,-100,4,2,1,5,0,0
91644,-100,4,2,1,100,0,0
91715,-100,4,2,1,40,0,0
91787,-100,4,2,1,100,0,0
91858,-100,4,2,1,40,0,0
91930,-100,4,2,1,100,0,0
92001,-100,4,2,1,40,0,0
92073,-100,4,2,1,100,0,0
92501,-100,4,2,1,60,0,0
93073,-100,4,2,1,5,0,0
93215,-100,4,2,1,60,0,0
93358,-100,4,2,1,5,0,0
93501,-100,4,2,1,60,0,0
93644,-100,4,2,1,5,0,0
93787,-100,4,2,1,60,0,0
93930,-100,4,2,1,5,0,0
94073,-100,4,2,1,60,0,0
94215,-100,4,2,1,5,0,0
94358,-100,4,2,1,60,0,0
94501,-100,4,2,1,5,0,0
94644,-100,4,2,1,60,0,0
94787,-100,4,2,1,5,0,0
94930,-100,4,2,1,60,0,0
95073,-100,4,2,1,5,0,0
95215,-100,4,2,1,60,0,0
95358,-100,4,2,1,5,0,0
95501,-100,4,2,1,60,0,0
95644,-100,4,2,1,5,0,0
95787,-100,4,2,1,60,0,0
95930,-100,4,2,1,5,0,0
96073,-100,4,2,1,60,0,0
96215,-100,4,2,1,5,0,0
96358,-100,4,2,1,60,0,0
96501,-100,4,2,1,5,0,0
96644,-100,4,2,1,60,0,0
96787,-100,4,2,1,5,0,0
96930,-100,4,2,1,60,0,0
97073,-100,4,2,1,5,0,0
97215,-100,4,2,1,60,0,0
100358,-100,4,2,6,100,0,0
100644,-100,4,2,1,40,0,0
100715,-100,4,2,1,70,0,0
100858,-100,4,2,1,40,0,0
100930,-100,4,2,1,70,0,0
101644,-100,4,2,1,80,0,0
105073,-100,4,2,1,80,0,0
108430,-100,4,2,1,40,0,0
108501,-100,4,2,1,60,0,0
110358,-100,4,2,1,80,0,0
111073,-100,4,2,1,60,0,0
115001,-100,4,2,1,20,0,0
115073,-100,4,2,1,60,0,0
115358,-100,4,2,1,70,0,0
120001,-100,4,2,1,60,0,0
122215,-100,4,2,1,70,0,0
124073,-100,4,2,1,70,0,0
124215,-100,4,2,1,70,0,0
124501,-100,4,2,1,80,0,0
125644,-100,4,2,1,90,0,0
126787,-133.333333333333,4,2,1,50,0,0
127930,-100,4,2,1,80,0,0
129073,-100,4,2,1,100,0,1
136715,-100,4,2,1,40,0,1
136787,-100,4,2,1,100,0,1
136858,-100,4,2,1,40,0,1
136930,-100,4,2,1,100,0,1
145001,-100,4,2,1,40,0,1
145073,-100,4,2,1,100,0,1
145573,-100,4,2,1,40,0,1
145644,-100,4,2,1,100,0,1
145715,-100,4,2,1,40,0,1
145787,-100,4,2,1,100,0,1
147358,-100,4,2,1,90,0,0
149287,-100,4,2,1,40,0,0
149358,-100,4,2,1,90,0,0
150430,-100,4,2,1,40,0,0
150501,-100,4,2,1,90,0,0
151287,-100,4,2,1,40,0,0
151358,-100,4,2,1,90,0,0
151430,-100,4,2,1,40,0,0
151501,-100,4,2,1,90,0,0
151573,-100,4,2,1,40,0,0
151644,-100,4,2,1,90,0,0
152573,-100,4,2,1,40,0,0
152644,-100,4,2,1,90,0,0
152715,-100,4,2,1,40,0,0
152787,-100,4,2,1,90,0,0
156073,-100,4,2,1,100,0,0
161215,-100,4,2,1,90,0,0
163573,-100,4,2,1,5,0,0
163644,-100,4,2,1,90,0,0
164144,-100,4,2,1,5,0,0
164215,-100,4,2,1,90,0,0
164430,-100,4,2,1,40,0,0
164501,-100,4,2,1,90,0,0
164573,-100,4,2,1,40,0,0
164644,-100,4,2,1,90,0,0
165644,-100,4,2,6,100,0,0
165930,-100,4,2,1,60,0,0
169858,-100,4,2,1,20,0,0
169930,-100,4,2,1,60,0,0
170215,-100,4,2,1,80,0,0
175073,-100,4,2,1,60,0,0
177073,-100,4,2,1,70,0,0
178930,-100,4,2,1,40,0,0
179073,-100,4,2,1,70,0,0
179358,-100,4,2,1,80,0,0
180501,-100,4,2,1,90,0,0
181644,-100,4,2,1,100,0,0
181715,-100,4,2,1,50,0,0
182073,-100,4,2,1,60,0,0
182358,-100,4,2,1,70,0,0
182644,-100,4,2,1,80,0,0
182930,-100,4,2,1,90,0,0
183573,-100,4,2,1,5,0,0
184930,-100,4,2,1,60,0,0
185073,-100,4,2,1,100,0,1
187001,-100,4,2,1,40,0,1
187073,-100,4,2,1,100,0,1
187144,-100,4,2,1,40,0,1
187215,-100,4,2,1,100,0,1
189001,-100,4,2,1,40,0,1
189073,-100,4,2,1,100,0,1
189144,-100,4,2,1,40,0,1
189215,-100,4,2,1,100,0,1
189287,-100,4,2,1,40,0,1
189358,-100,4,2,1,100,0,1
191858,-100,4,2,1,40,0,1
191930,-100,4,2,1,100,0,1
193001,-100,4,2,1,40,0,1
193073,-100,4,2,1,100,0,1
193287,-100,4,2,1,5,0,1
193358,-100,4,2,1,100,0,1
203358,-100,4,2,1,100,0,0
203644,-100,4,2,1,40,0,0
203787,-100,4,2,1,60,0,0
203930,-100,4,2,1,50,0,0
204073,-100,4,2,1,70,0,0
204215,-100,4,2,1,60,0,0
204358,-100,4,2,1,80,0,0
204644,-100,4,2,1,85,0,0
204930,-100,4,2,1,90,0,0
205215,-100,4,2,1,66,0,0
205644,-100,4,2,1,100,0,1
205715,-100,4,2,1,90,0,0
208144,-100,4,2,1,5,0,0
208215,-100,4,2,1,90,0,0
209573,-100,4,2,1,40,0,0
209644,-100,4,2,1,90,0,0
209715,-100,4,2,1,40,0,0
209787,-100,4,2,1,90,0,0
209858,-100,4,2,1,40,0,0
209930,-100,4,2,1,90,0,0
212144,-100,4,2,1,40,0,0
212215,-100,4,2,1,90,0,0
212287,-100,4,2,1,40,0,0
212358,-100,4,2,1,90,0,0
212430,-100,4,2,1,40,0,0
212501,-100,4,2,1,90,0,0
218430,-100,4,2,1,40,0,0
218501,-100,4,2,1,90,0,0
218715,-100,4,2,1,40,0,0
218787,-100,4,2,1,90,0,0
221930,-100,4,2,1,50,0,0
222073,-100,4,2,1,60,0,0
222358,-100,4,2,1,70,0,0
222644,-100,4,2,1,80,0,0
222930,-100,4,2,1,85,0,0
223215,-100,4,2,1,90,0,0

[Colours]
Combo1 : 192,192,192
Combo2 : 125,85,149
Combo3 : 69,69,69
Combo4 : 184,180,92
SliderBorder : 89,121,134
SliderTrackOverride : 20,20,20

[HitObjects]
428,56,501,5,0,0:0:0:0:
428,56,644,1,0,0:0:0:0:
377,141,930,1,0,3:0:0:0:
377,141,1073,6,0,P|322:164|256:142,1,110,4|2,1:0|0:0,0:0:0:0:
233,126,1501,2,0,P|175:112|122:128,1,110,8|10,0:0|3:2,0:0:0:0:
69,205,2073,1,8,0:0:0:0:
69,205,2215,2,0,L|85:333,1,110,2|0,3:2|3:0,0:0:0:0:
107,357,2644,1,8,0:0:0:0:
207,339,2930,2,0,P|248:326|322:349,1,110,10|8,3:2|0:0,0:0:0:0:
354,365,3358,6,0,B|371:320|371:320|354:246,1,110,2|2,3:2|0:0,0:0:0:0:
319,226,3787,1,10,0:0:0:0:
356,134,4073,2,0,P|389:92|452:89,1,110,10|8,3:2|0:0,0:0:0:0:
491,75,4501,2,0,B|431:68|406:10|406:10|335:5,1,165,2|10,3:2|0:0,0:0:0:0:
270,59,5215,1,2,0:0:0:0:
176,24,5501,1,8,0:0:0:0:
176,24,5644,6,0,L|50:32,1,110,4|2,0:0|3:2,0:0:0:0:
23,56,6073,1,8,0:0:0:0:
51,151,6358,2,0,P|73:207|61:260,1,110,10|8,3:2|0:0,0:0:0:0:
29,290,6787,2,0,B|136:282|136:282|202:332,1,165,2|10,3:2|0:2,0:0:0:0:
266,368,7501,1,10,3:2:0:0:
266,368,7644,2,0,P|284:329|284:300,1,55,10|8,0:0|0:0,0:0:0:0:
272,269,7930,6,0,P|326:237|393:246,1,110,0|2,3:2|3:0,0:0:0:0:
413,263,8358,1,10,0:0:0:0:
488,199,8644,1,10,3:2:0:0:
488,199,8787,2,0,L|485:135,1,55,2|8,3:2|0:0,0:0:0:0:
480,94,9073,2,0,P|415:119|354:109,1,110,0|10,3:1|3:2,0:0:0:0:
330,96,9501,2,0,L|305:34,1,55,10|8,0:0|3:2,0:0:0:0:
267,18,9787,2,0,P|221:15|150:49,1,110,10|8,0:0|0:0,0:0:0:0:
142,83,10215,5,4,0:0:0:0:
211,153,10501,1,2,3:0:0:0:
211,153,10644,1,10,0:0:0:0:
143,225,10930,2,0,L|85:220,1,55,10|0,3:2|3:2,0:0:0:0:
39,212,11215,1,10,0:2:0:0:
39,212,11358,2,0,P|22:250|39:337,1,110,0|0,3:0|3:0,0:0:0:0:
64,351,11787,2,0,P|87:364|120:371,2,55,10|0|10,0:0|0:0|3:2,0:0:0:0:
128,275,12358,1,10,0:0:0:0:
128,275,12501,6,0,B|184:275|204:297|204:297|213:354|263:368,1,165,0|10,3:0|0:0,0:0:0:0:
299,277,13215,2,0,L|305:210,1,55,10|2,3:2|3:2,0:0:0:0:
304,172,13501,1,8,0:0:0:0:
304,172,13644,2,0,P|358:153|474:179,1,165,2|10,3:2|3:2,0:0:0:0:
482,74,14358,1,2,3:2:0:0:
399,28,14644,1,8,0:0:0:0:
399,28,14787,6,0,P|355:53|284:52,1,110,4|2,0:0|3:2,0:0:0:0:
255,28,15215,1,8,0:0:0:0:
161,62,15501,1,10,3:2:0:0:
161,62,15644,2,0,L|168:123,1,55,2|8,3:2|0:0,0:0:0:0:
175,165,15930,2,0,P|248:147|322:197,1,165,2|10,3:2|0:0,0:0:0:0:
371,277,16644,1,10,3:2:0:0:
371,277,16787,2,0,L|364:338,1,55,8|8,3:2|0:0,0:0:0:0:
359,381,17073,6,0,L|226:353,1,110,2|2,3:2|3:2,0:0:0:0:
202,350,17501,1,10,0:2:0:0:
144,269,17787,2,0,P|113:272|85:286,1,55,10|2,0:0|0:0,0:0:0:0:
57,317,18073,1,8,0:0:0:0:
57,317,18215,2,0,B|45:260|45:260|65:212|65:212|55:142,1,165,0|8,3:0|0:0,0:0:0:0:
38,60,18930,2,0,P|112:23|211:52,1,165,8|0,0:0|3:0,0:0:0:0:
300,137,19787,5,0,3:0:0:0:
300,137,20073,1,0,3:0:0:0:
300,137,20358,1,0,3:0:0:0:
389,93,20644,5,0,3:0:0:0:
389,93,20930,1,0,3:0:0:0:
389,93,21215,1,0,3:0:0:0:
389,93,21501,1,0,3:0:0:0:
464,156,21787,6,0,L|462:283,1,110,0|0,3:0|3:0,0:0:0:0:
370,302,22358,2,0,L|372:175,1,110,0|0,3:0|3:0,0:0:0:0:
345,96,22930,2,0,P|301:47|236:42,1,110,0|0,3:0|3:0,0:0:0:0:
207,122,23501,2,0,P|168:142|96:134,1,110,0|0,3:0|3:0,0:0:0:0:
31,206,24073,5,2,3:0:0:0:
31,206,24358,1,2,3:0:0:0:
75,294,24644,1,2,3:3:0:0:
75,294,24930,1,2,3:0:0:0:
170,276,25215,2,0,L|285:254,1,110,2|2,3:0|3:0,0:0:0:0:
324,343,25787,2,0,L|438:356,1,110,2|2,3:0|3:0,0:0:0:0:
487,272,26358,6,0,P|498:232|477:160,2,110,2|2|2,0:3|0:3|3:0,0:0:0:0:
388,259,27215,1,2,0:1:0:0:
344,169,27501,2,0,B|368:115|368:115|429:107,1,110,8|8,0:0|3:2,0:0:0:0:
382,15,28073,2,0,L|274:30,1,110,8|8,0:2|0:0,0:0:0:0:
229,53,28501,6,0,P|262:147|224:209,1,165,4|10,0:0|0:0,0:0:0:0:
165,128,29215,1,2,3:2:0:0:
84,185,29501,1,8,0:0:0:0:
84,185,29644,2,0,B|128:214|128:214|144:266|144:266|201:301,1,165,2|10,3:2|0:0,0:0:0:0:
284,335,30358,1,2,3:2:0:0:
338,252,30644,1,8,0:0:0:0:
338,252,30787,6,0,P|386:222|449:237,1,110,2|2,3:2|3:0,0:0:0:0:
477,256,31215,2,0,L|461:133,1,110,10|2,0:0|3:2,0:0:0:0:
446,48,31787,1,8,0:0:0:0:
446,48,31930,2,0,B|394:55|394:55|338:36|338:36|269:55,1,165,2|10,3:2|0:0,0:0:0:0:
201,101,32644,1,2,3:2:0:0:
285,152,32930,1,8,0:0:0:0:
285,152,33073,6,0,L|302:270,1,110,4|0,0:0|3:0,0:0:0:0:
309,309,33501,1,8,0:0:0:0:
222,356,33787,2,0,P|176:367|113:333,1,110,0|8,3:2|0:0,0:0:0:0:
95,299,34215,2,0,B|110:253|110:253|86:179,1,110,0|0,3:2|0:0,0:0:0:0:
74,147,34644,1,8,0:0:0:0:
42,52,34930,2,0,P|104:60|152:37,1,110,0|8,3:0|0:0,0:0:0:0:
178,3,35358,6,0,B|175:88|175:88|213:176,1,165,0|10,3:0|0:0,0:0:0:0:
306,156,36073,1,10,0:0:0:0:
363,73,36358,1,10,0:0:0:0:
363,73,36501,2,0,P|435:71|452:154,1,165,2|10,3:0|0:0,0:0:0:0:
382,217,37215,2,0,B|373:269|373:269|390:323,1,110,8|8,0:0|0:0,0:0:0:0:
390,323,37644,5,4,0:0:0:0:
251,378,38073,1,10,0:0:0:0:
181,308,38358,2,0,L|118:320,1,55,2|2,3:2|3:2,0:0:0:0:
79,303,38644,1,8,0:0:0:0:
79,303,38787,2,0,P|55:261|72:187,1,110,2|0,3:2|3:0,0:0:0:0:
85,158,39215,1,10,0:0:0:0:
175,197,39501,2,0,L|244:192,1,55,2|2,3:2|3:2,0:0:0:0:
275,172,39787,1,10,0:2:0:0:
275,172,39930,6,0,P|285:122|265:57,1,110,2|2,3:2|3:2,0:0:0:0:
233,32,40358,1,10,0:2:0:0:
134,19,40644,1,2,3:2:0:0:
134,19,40787,1,2,3:2:0:0:
52,75,41073,2,0,L|67:204,1,110,2|0,3:2|3:0,0:0:0:0:
73,232,41501,2,0,P|111:231|142:236,1,55,10|0,0:2|3:0,0:0:0:0:
164,266,41787,2,0,P|185:290|268:306,1,110,2|10,3:2|0:0,0:0:0:0:
304,290,42215,5,4,0:0:0:0:
352,203,42501,1,2,3:2:0:0:
352,203,42644,2,0,L|413:204,1,55,10|0,0:0|3:0,0:0:0:0:
451,181,42930,2,0,L|452:126,1,55,2|2,3:2|3:2,0:0:0:0:
396,44,43358,6,0,P|355:31|280:48,1,110,2|2,3:2|3:2,0:0:0:0:
245,64,43787,2,0,L|277:136,1,55,10|10,0:0|0:0,0:0:0:0:
238,154,44073,2,0,L|232:220,1,55,2|0,3:2|3:0,0:0:0:0:
226,257,44358,1,10,0:0:0:0:
226,257,44501,6,0,P|164:234|63:263,1,165,2|10,3:2|0:0,0:0:0:0:
114,346,45215,2,0,L|186:333,1,55,2|2,3:2|3:2,0:0:0:0:
209,363,45501,2,0,L|281:376,1,55,8|10,0:0|0:0,0:0:0:0:
299,338,45787,2,0,P|340:277|345:238,1,110,0|10,0:0|0:0,0:0:0:0:
300,153,46358,1,10,0:0:0:0:
300,153,46501,2,0,P|340:144|366:150,1,55,10|8,0:0|0:0,0:0:0:0:
398,166,46787,6,0,P|431:129|437:65,1,110,4|0,0:0|3:0,0:0:0:0:
419,24,47215,2,0,B|362:13|362:13|303:30,1,110,10|2,0:0|3:2,0:0:0:0:
271,55,47644,1,2,3:2:0:0:
176,24,47930,2,0,L|165:143,1,110,2|0,3:2|3:2,0:0:0:0:
160,182,48358,2,0,P|108:195|45:178,1,110,10|2,0:0|3:2,0:0:0:0:
25,223,48787,2,0,L|37:283,1,55,2|8,3:2|0:0,0:0:0:0:
49,324,49073,5,2,3:2:0:0:
130,379,49358,1,0,3:0:0:0:
130,379,49501,1,10,0:0:0:0:
221,339,49787,2,2,L|208:271,1,55,2|2,3:2|3:2,3:2:0:0:
244,191,50215,2,0,P|284:213|399:193,1,165,2|10,3:2|0:0,0:0:0:0:
397,94,50930,1,2,3:2:0:0:
397,94,51073,1,4,0:0:0:0:
490,124,51358,6,0,B|516:188|516:188|475:300,1,165,4|10,0:0|0:2,0:0:0:0:
418,354,52073,2,0,L|352:351,1,55,10|0,3:2|3:2,0:0:0:0:
282,287,52501,2,0,P|277:199|246:108,1,165,2|10,3:2|0:2,0:0:0:0:
167,107,53215,2,0,P|124:113|95:111,1,55,10|2,3:2|3:2,0:0:0:0:
26,71,53644,5,4,3:2:0:0:
26,71,54073,1,8,3:2:0:0:
110,19,54358,1,8,0:0:0:0:
208,28,54644,1,8,0:0:0:0:
280,95,54930,2,0,L|272:173,1,55,8|8,0:0|0:0,0:0:0:0:
299,192,55215,2,0,L|291:270,1,55,8|8,0:0|0:0,0:0:0:0:
312,292,55501,2,0,B|359:325|359:325|429:317,1,110,8|0,0:0|0:0,0:0:0:0:
453,292,55930,6,0,P|480:240|452:182,1,110,6|0,0:0|3:0,0:0:0:0:
431,157,56358,2,0,P|411:121|419:48,1,110,8|0,0:0|3:2,0:0:0:0:
326,10,56930,1,8,3:2:0:0:
326,10,57073,2,0,P|269:23|203:31,1,110,0|0,0:0|3:0,0:0:0:0:
190,70,57501,2,0,P|141:54|81:51,1,110,8|0,0:0|3:2,0:0:0:0:
28,134,58073,1,8,3:2:0:0:
28,134,58215,6,0,L|41:262,1,110,0|0,3:0|3:3,0:0:0:0:
83,265,58644,2,0,L|79:327,1,55,8|0,0:0|0:0,0:0:0:0:
74,369,58930,1,0,3:0:0:0:
172,363,59215,1,8,0:0:0:0:
172,363,59358,2,0,P|218:335|293:341,1,110,0|0,3:0|3:0,0:0:0:0:
317,355,59787,2,0,B|334:309|334:309|321:241,1,110,8|0,0:0|3:0,0:0:0:0:
225,229,60358,1,8,0:0:0:0:
225,229,60501,6,0,P|192:193|201:66,1,165,4|8,0:0|0:0,0:0:0:0:
289,75,61215,1,0,3:0:0:0:
371,20,61501,1,8,0:0:0:0:
371,20,61644,2,0,B|411:57|411:57|410:169,1,165,0|8,3:0|0:0,0:0:0:0:
489,226,62358,1,0,3:0:0:0:
489,226,62501,2,0,L|488:290,1,55,0|8,3:0|0:0,0:0:0:0:
486,330,62787,6,0,P|444:344|366:329,1,110,0|0,3:0|3:0,0:0:0:0:
339,307,63215,1,8,0:0:0:0:
245,272,63501,2,0,P|176:277|139:313,1,110,0|8,3:0|0:0,0:0:0:0:
117,342,63930,2,0,L|103:166,1,165,0|8,3:0|0:0,0:0:0:0:
95,78,64644,1,8,0:3:0:0:
194,74,64930,1,0,3:3:0:0:
194,74,65073,6,0,P|239:114|305:126,1,110,4|0,0:0|3:0,0:0:0:0:
327,98,65501,2,0,P|379:90|446:124,1,110,8|0,0:0|3:0,0:0:0:0:
475,199,66073,1,8,3:2:0:0:
475,199,66215,2,0,L|363:231,1,110,0|0,3:0|3:0,0:0:0:0:
323,249,66644,2,0,P|317:297|325:361,1,110,8|0,0:0|3:0,0:0:0:0:
231,323,67215,1,8,3:2:0:0:
231,323,67358,6,0,P|235:273|219:208,1,110,0|0,3:0|3:0,0:0:0:0:
192,174,67787,1,8,0:0:0:0:
92,175,68073,2,0,P|64:144|58:126,1,55,8|8,0:0|3:2,0:0:0:0:
58,82,68358,1,8,3:2:0:0:
81,38,68501,2,0,B|130:34|130:34|179:58|179:58|249:49,1,165,0|8,3:0|0:0,0:0:0:0:
333,18,69215,1,0,3:0:0:0:
422,61,69501,1,8,0:0:0:0:
422,61,69644,6,0,L|404:184,1,110,4|0,0:0|3:0,0:0:0:0:
440,206,70073,1,8,0:0:0:0:
393,293,70358,1,0,3:0:0:0:
393,293,70501,1,0,3:0:0:0:
393,293,70644,1,8,0:0:0:0:
298,261,70930,2,0,P|259:251|183:274,1,110,0|8,0:0|0:0,0:0:0:0:
123,338,71501,2,0,P|101:304|105:226,1,110,0|8,3:0|0:0,0:0:0:0:
129,195,71930,6,0,B|151:149|151:149|122:77,1,110,0|0,3:0|3:0,0:0:0:0:
105,50,72358,1,8,0:0:0:0:
201,29,72644,2,0,L|277:18,1,55,0|0,3:0|3:0,0:0:0:0:
305,23,72930,1,8,0:0:0:0:
305,23,73073,2,0,P|364:58|335:156,1,165,0|8,3:0|0:0,0:0:0:0:
262,187,73787,2,0,L|258:266,2,55,8|8|8,0:0|0:0|0:0,0:0:0:0:
262,187,74215,1,6,0:0:0:0:
262,187,82930,6,0,P|190:195|143:177,1,110,8|8,0:0|0:0,0:0:0:0:
109,165,83358,2,0,B|87:235|87:235|112:324,1,165,4|8,3:2|0:0,0:0:0:0:
205,356,84073,1,10,3:2:0:0:
205,356,84215,2,0,P|245:350|262:339,1,55,0|10,3:0|0:0,0:0:0:0:
289,305,84501,2,0,P|340:308|393:344,1,110,0|0,3:0|3:0,0:0:0:0:
426,371,84930,2,0,B|413:323|413:323|431:280|431:280|413:245|413:245|430:207|430:207|423:158,1,220,10|10,0:0|0:0,0:0:0:0:
420,114,85644,6,0,P|376:109|289:21,1,165,0|10,3:0|0:0,0:0:0:0:
192,24,86358,1,10,3:2:0:0:
111,82,86644,1,8,0:0:0:0:
111,82,86787,2,0,B|135:129|135:129|113:203,1,110,2|8,3:2|0:0,0:0:0:0:
84,219,87215,2,0,L|18:213,2,55,10|8|2,0:0|0:0|3:0,0:0:0:0:
155,349,87930,6,0,P|238:335|342:335,1,165,4|8,3:2|0:0,0:0:0:0:
407,289,88644,2,0,L|472:301,2,55,10|2|8,3:2|3:2|0:0,0:0:0:0:
375,250,89073,2,0,P|323:224|218:242,1,165,2|10,3:2|0:0,0:0:0:0:
123,219,89787,1,10,3:2:0:0:
123,219,89930,2,0,L|117:142,1,55,8|10,3:2|0:0,0:0:0:0:
120,114,90215,6,0,P|173:117|302:83,1,165,0|10,3:0|0:0,0:0:0:0:
365,39,90930,2,0,L|429:53,1,55,10|2,3:2|3:2,0:0:0:0:
467,59,91215,1,8,0:0:0:0:
467,59,91358,2,0,B|454:101|454:101|474:131|474:131|443:173|479:231,1,165,2|10,3:2|0:0,0:0:0:0:
504,304,92073,2,0,P|460:306|377:228,1,165,10|0,0:0|3:0,0:0:0:0:
295,103,92930,5,0,3:0:0:0:
196,107,93215,1,0,3:0:0:0:
246,192,93501,1,0,3:0:0:0:
183,268,93787,5,0,3:0:0:0:
183,268,94072,1,0,3:0:0:0:
87,243,94358,1,0,3:0:0:0:
87,243,94644,5,0,3:0:0:0:
44,153,94930,6,0,P|35:111|53:43,1,110,0|0,3:0|3:0,0:0:0:0:
125,112,95501,2,0,P|134:154|116:222,1,110,0|0,3:0|3:0,0:0:0:0:
51,291,96073,2,0,B|75:340|75:340|138:372,2,110,0|0|0,3:0|3:0|3:0,0:0:0:0:
122,222,96930,1,0,3:0:0:0:
198,283,97215,6,0,P|248:309|315:311,1,110,2|2,3:3|3:3,0:0:0:0:
319,215,97787,2,0,P|370:214|441:194,1,110,2|2,3:3|3:3,0:0:0:0:
380,112,98358,2,0,P|430:82|457:38,2,110,2|0|2,3:3|3:0|3:3,0:0:0:0:
304,47,99215,1,2,3:0:0:0:
249,130,99501,6,0,P|199:117|147:79,1,110,2|2,3:0|3:0,0:0:0:0:
93,3,100073,1,2,3:0:0:0:
4,47,100358,1,2,0:1:0:0:
5,146,100644,2,0,P|46:147|122:172,1,110,8|8,0:0|0:0,0:0:0:0:
201,208,101215,2,0,L|250:173,2,55,8|8|0,3:2|0:0|0:0,0:0:0:0:
181,253,101644,6,0,P|185:324|269:357,1,165,4|10,0:0|0:0,0:0:0:0:
338,293,102358,1,2,3:0:0:0:
422,344,102644,1,10,0:0:0:0:
422,344,102787,2,0,B|440:307|440:307|425:215,1,110,2|0,3:0|3:0,0:0:0:0:
400,198,103215,2,0,L|333:197,1,55,10|0,0:0|0:0,0:0:0:0:
302,171,103501,2,0,P|294:114|334:54,1,110,2|8,3:0|0:0,0:0:0:0:
358,40,103930,6,0,P|397:37|487:137,1,165,2|10,3:0|0:0,0:0:0:0:
404,174,104644,1,2,3:0:0:0:
317,126,104930,1,10,0:0:0:0:
317,126,105073,2,0,P|255:128|200:119,1,110,2|2,3:0|3:0,0:0:0:0:
164,97,105501,2,0,P|173:145|163:218,1,110,8|0,0:0|3:0,0:0:0:0:
86,264,106073,1,8,0:0:0:0:
86,264,106215,6,0,B|74:211|74:211|88:159|88:159|72:91,1,165,4|8,0:0|0:0,0:0:0:0:
147,35,106930,2,0,P|190:44|263:35,1,110,0|8,3:0|0:0,0:0:0:0:
298,62,107358,2,0,P|383:44|461:73,1,165,0|8,3:0|0:0,0:0:0:0:
487,162,108073,1,0,3:0:0:0:
487,162,108215,2,0,L|480:229,1,55,0|8,3:0|0:0,0:0:0:0:
474,266,108501,6,0,B|421:257|421:257|385:220|385:220|303:204,1,165,0|10,3:0|0:0,0:0:0:0:
241,260,109215,2,0,L|179:247,2,55,10|2|8,3:2|3:0|0:0,0:0:0:0:
260,305,109644,2,0,P|227:348|118:362,1,165,2|10,3:2|0:0,0:0:0:0:
48,298,110358,1,8,0:0:0:0:
108,219,110644,1,8,0:0:0:0:
108,219,110787,6,0,L|88:86,1,110,4|0,0:0|3:0,0:0:0:0:
84,61,111215,1,10,0:2:0:0:
181,42,111501,2,0,L|254:50,1,55,2|2,3:2|3:2,0:0:0:0:
264,88,111787,1,8,0:0:0:0:
264,88,111930,2,0,P|308:115|376:108,1,110,2|0,3:2|3:0,0:0:0:0:
400,78,112358,1,10,0:2:0:0:
484,129,112644,2,0,L|474:205,1,55,2|2,3:2|3:2,0:0:0:0:
467,232,112930,1,10,0:0:0:0:
467,232,113073,6,0,B|419:235|419:235|386:267|386:267|315:273,1,165,2|10,3:2|0:0,0:0:0:0:
216,280,113787,1,2,3:2:0:0:
216,280,113930,2,0,L|227:344,1,55,2|8,3:2|0:0,0:0:0:0:
196,374,114215,2,0,P|147:363|100:302,1,110,2|2,3:2|3:2,0:0:0:0:
84,276,114644,2,0,L|99:214,1,55,10|0,0:2|3:0,0:0:0:0:
78,176,114930,1,2,3:2:0:0:
53,80,115215,1,8,0:0:0:0:
53,80,115358,6,0,P|100:90|165:75,1,110,4|0,3:2|3:0,0:0:0:0:
194,41,115787,1,10,0:0:0:0:
284,80,116073,2,0,L|281:152,1,55,2|2,3:2|3:2,0:0:0:0:
272,183,116358,1,8,0:0:0:0:
272,183,116501,2,0,P|231:191|164:245,1,110,2|2,3:2|3:2,0:0:0:0:
154,274,116930,1,10,0:0:0:0:
185,367,117215,2,0,L|242:377,1,55,2|0,3:2|3:0,0:0:0:0:
313,315,117644,6,0,B|395:323|395:323|469:271,1,165,0|10,3:0|0:0,0:0:0:0:
490,180,118358,2,0,P|453:175|425:183,1,55,2|2,3:2|3:2,0:0:0:0:
393,204,118644,2,0,P|355:208|327:194,1,55,8|2,0:0|3:2,0:0:0:0:
293,183,118930,2,0,P|277:130|293:64,1,110,0|10,0:0|0:0,0:0:0:0:
375,28,119501,2,0,L|430:23,2,55,8|8|8,0:0|0:0|0:0,0:0:0:0:
375,28,119930,5,4,3:2:0:0:
257,108,120358,1,10,0:0:0:0:
182,42,120644,2,0,L|115:55,1,55,2|2,3:2|3:2,0:0:0:0:
80,67,120930,1,8,0:0:0:0:
80,67,121073,2,0,B|64:112|90:174|90:174|56:238,1,165,2|10,3:2|0:2,0:0:0:0:
49,320,121787,2,0,L|121:353,1,55,2|2,3:2|3:2,0:0:0:0:
145,360,122073,1,8,0:0:0:0:
145,360,122215,6,0,P|183:331|204:210,1,165,2|10,3:2|0:0,0:0:0:0:
167,130,122930,2,0,L|240:107,1,55,2|2,3:2|3:2,0:0:0:0:
265,95,123215,1,8,0:0:0:0:
265,95,123358,2,0,P|303:129|416:122,1,165,2|10,3:2|0:2,0:0:0:0:
483,193,124073,1,2,3:2:0:0:
483,193,124215,1,4,0:0:0:0:
451,287,124501,6,0,P|392:302|284:295,1,165,4|8,0:0|0:0,0:0:0:0:
191,316,125215,2,0,L|129:336,2,55,8|0|8,3:2|3:0|0:0,0:0:0:0:
178,267,125644,2,0,L|146:103,1,165,0|8,3:0|0:0,0:0:0:0:
236,64,126358,2,0,L|246:7,2,55,8|8|8,3:2|0:0|0:0,0:0:0:0:
281,85,126787,6,0,B|328:130|384:119|384:119|374:187|319:210|319:210|345:233|344:274,1,288.750011014939
328,308,127930,5,4,0:0:0:0:
229,300,128215,1,8,0:0:0:0:
229,300,128358,2,0,L|212:186,1,110,8|0,0:0|0:0,0:0:0:0:
142,120,128930,1,8,0:0:0:0:
142,120,129073,6,0,P|191:82|253:80,1,110,6|0,0:0|3:0,0:0:0:0:
283,94,129501,2,0,P|350:123|398:108,1,110,8|0,0:0|3:0,0:0:0:0:
472,160,130073,1,8,0:0:0:0:
472,160,130216,2,0,B|488:207|488:207|461:289,1,110,0|0,3:0|3:0,0:0:0:0:
440,304,130645,2,0,P|399:282|315:290,1,110,8|0,0:0|3:0,0:0:0:0:
262,347,131215,1,8,0:0:0:0:
262,347,131358,5,0,3:0:0:0:
166,322,131644,1,0,3:0:0:0:
166,322,131787,2,0,L|163:258,1,55,8|0,0:0|0:0,0:0:0:0:
167,217,132073,2,0,P|111:232|55:218,1,110,0|8,3:0|0:0,0:0:0:0:
20,193,132501,2,0,B|41:143|41:143|17:30,1,165,0|8,3:0|0:0,0:0:0:0:
110,70,133215,1,0,3:0:0:0:
196,22,133501,1,8,0:0:0:0:
196,22,133644,6,0,L|324:19,1,110,4|0,3:2|3:0,0:0:0:0:
353,33,134073,2,0,P|336:70|350:140,1,110,8|0,0:0|3:0,0:0:0:0:
433,185,134644,1,8,0:0:0:0:
433,185,134787,2,0,P|458:217|455:297,1,110,0|0,3:0|3:0,0:0:0:0:
429,322,135215,2,0,L|297:308,1,110,8|0,0:0|3:0,0:0:0:0:
231,356,135787,1,8,0:0:0:0:
231,356,135930,6,0,L|211:229,1,110,0|0,3:0|3:0,0:0:0:0:
207,198,136358,1,8,0:0:0:0:
109,178,136644,2,0,P|103:140|102:110,1,55,0|0,3:0|3:0,0:0:0:0:
113,77,136930,1,8,0:0:0:0:
113,77,137073,2,0,L|228:68,1,110,0|0,3:0|3:0,0:0:0:0:
267,90,137501,1,8,0:0:0:0:
362,64,137787,2,0,L|376:6,2,55,8|8|0,0:3|0:3|3:0,0:0:0:0:
398,97,138215,6,0,P|423:149|408:223,1,110,4|0,0:0|3:0,0:0:0:0:
377,227,138644,2,0,L|321:223,2,55,8|0|0,0:0|0:0|3:0,0:0:0:0:
370,325,139215,1,8,0:0:0:0:
370,325,139358,2,0,P|335:348|245:373,1,110,0|0,3:0|3:0,0:0:0:0:
224,352,139787,2,0,L|167:365,2,55,8|0|0,0:0|0:0|3:0,0:0:0:0:
248,255,140358,1,8,0:0:0:0:
248,255,140501,6,0,P|248:213|228:130,1,110,0|0,3:0|3:0,0:0:0:0:
212,101,140930,1,8,0:0:0:0:
121,62,141215,2,0,P|89:75|57:77,1,55,0|0,3:0|3:0,0:0:0:0:
29,108,141501,1,8,0:0:0:0:
23,156,141644,2,0,P|56:200|114:219,1,110,0|0,3:0|3:0,0:0:0:0:
144,187,142073,2,0,L|155:300,1,110,8|0,0:0|3:0,0:0:0:0:
241,346,142644,1,8,0:0:0:0:
241,346,142787,5,4,3:2:0:0:
386,316,143215,1,8,0:0:0:0:
469,262,143501,1,0,3:0:0:0:
390,201,143787,1,8,0:0:0:0:
303,250,144073,2,0,L|307:124,1,110,0|8,0:0|0:0,0:0:0:0:
387,84,144644,2,0,L|449:95,2,55,0|0|8,3:0|3:0|0:0,0:0:0:0:
356,44,145073,6,0,P|316:30|234:54,1,110,0|0,3:0|3:0,0:0:0:0:
215,76,145501,2,0,P|169:89|94:70,1,110,8|0,0:0|3:0,0:0:0:0:
32,142,146073,1,8,0:0:0:0:
32,142,146215,2,0,B|15:194|15:194|46:319,1,165,0|8,3:0|3:2,0:0:0:0:
140,310,146930,2,0,L|153:368,2,55,8|8|8,0:0|0:0|0:0,0:0:0:0:
136,260,147358,6,0,B|173:236|193:231|193:231|226:279|292:283,1,165,6|8,0:0|0:0,0:0:0:0:
362,231,148073,2,0,P|420:219|437:228,1,55,0|0,3:0|3:0,0:0:0:0:
459,234,148358,1,8,0:0:0:0:
459,234,148501,2,0,B|443:175|443:175|463:133|463:133|448:53,1,165,4|8,3:2|0:0,0:0:0:0:
368,23,149215,2,0,L|303:28,1,55,0|0,3:0|3:0,0:0:0:0:
284,67,149501,1,8,0:0:0:0:
284,67,149644,6,0,P|224:57|112:71,1,165,4|8,3:2|0:0,0:0:0:0:
51,139,150358,2,0,L|28:81,2,55,0|0|8,3:0|3:0|0:0,0:0:0:0:
68,185,150787,2,0,B|132:204|132:204|195:189,1,110,4|8,3:2|3:0,0:0:0:0:
221,178,151215,2,0,P|253:195|281:276,1,110,8|4,0:0|3:2,0:0:0:0:
253,354,151787,1,8,0:0:0:0:
253,354,151930,6,0,L|383:344,1,110,4|0,0:0|3:0,0:0:0:0:
399,312,152358,1,8,0:0:0:0:
437,220,152644,2,0,L|492:188,2,55,0|0|8,3:0|3:0|0:0,0:0:0:0:
389,204,153073,2,0,P|365:158|368:82,1,110,4|0,3:2|3:0,0:0:0:0:
390,59,153501,1,8,0:0:0:0:
296,25,153787,2,0,L|227:33,1,55,0|0,3:0|3:0,0:0:0:0:
192,41,154073,1,8,0:0:0:0:
192,41,154215,6,0,P|205:95|214:170,1,110,4|0,3:2|3:0,0:0:0:0:
204,198,154644,1,8,0:0:0:0:
297,164,154930,1,0,3:0:0:0:
362,238,155215,1,8,0:0:0:0:
362,238,155358,2,0,P|342:272|328:346,1,110,4|0,3:2|3:0,0:0:0:0:
286,368,155787,2,0,L|222:356,1,55,12|0,0:2|0:0,0:0:0:0:
190,330,156073,2,0,L|128:350,2,55,12|8|8,0:0|0:0|0:0,0:0:0:0:
209,284,156501,5,4,3:2:0:0:
186,137,156930,1,8,0:0:0:0:
93,172,157215,2,0,L|90:236,2,55,0|0|8,3:0|3:0|0:0,0:0:0:0:
45,84,157787,2,0,L|-8:49,2,55,0|0|8,3:0|3:0|0:0,0:0:0:0:
143,91,158358,2,0,L|194:65,1,55,0|0,3:0|3:0,0:0:0:0:
236,43,158644,1,8,0:0:0:0:
236,43,158787,6,0,P|270:59|362:67,1,110,0|0,3:0|3:0,0:0:0:0:
383,42,159215,1,8,0:0:0:0:
383,42,159358,2,0,L|396:154,1,110,0|0,3:0|3:0,0:0:0:0:
399,200,159787,1,8,0:0:0:0:
399,200,159930,2,0,B|357:215|357:215|318:202|318:202|284:217|284:217|236:205,1,165,0|8,3:0|3:2,0:0:0:0:
152,167,160644,2,0,L|147:111,2,55,8|8|8,0:0|0:0|0:0,0:0:0:0:
111,196,161073,5,4,0:0:0:0:
56,278,161358,1,0,3:0:0:0:
56,278,161501,1,8,0:0:0:0:
133,339,161787,2,0,L|191:331,1,55,8|0,3:2|3:0,0:0:0:0:
236,324,162073,1,8,0:0:0:0:
236,324,162215,2,0,P|270:351|354:355,1,110,4|0,3:2|3:0,0:0:0:0:
375,332,162644,2,0,B|381:271|381:271|423:230,1,110,8|8,0:0|3:2,0:0:0:0:
485,166,163215,1,8,0:0:0:0:
485,166,163358,6,0,P|435:151|398:87,1,110,4|8,3:2|0:0,0:0:0:0:
409,56,163787,1,8,0:0:0:0:
409,56,163930,2,0,P|359:33|289:38,1,110,0|8,0:2|0:0,0:0:0:0:
258,51,164358,1,8,0:0:0:0:
232,146,164644,6,0,L|219:218,1,55,8|8,0:0|3:0,0:0:0:0:
260,231,164930,2,0,L|275:299,1,55,8|8,0:0|3:0,0:0:0:0:
253,330,165215,2,8,L|185:354,1,55,8|8,0:0|0:0,0:0:0:0:
151,339,165501,1,8,0:0:0:0:
102,327,165644,5,6,0:1:0:0:
46,189,166073,1,10,0:0:0:0:
109,114,166358,2,0,L|92:50,2,55,2|2|8,3:2|3:2|0:0,0:0:0:0:
149,143,166787,2,0,P|192:150|292:81,1,165,2|10,3:2|0:0,0:0:0:0:
372,34,167501,2,0,L|443:2,2,55,2|2|10,3:2|3:2|0:0,0:0:0:0:
377,83,167930,6,0,B|386:146|386:146|444:237,1,165,2|10,3:2|3:2,0:0:0:0:
397,311,168644,2,0,P|369:326|341:332,1,55,2|2,3:2|3:2,0:0:0:0:
296,331,168930,1,8,0:0:0:0:
296,331,169073,2,0,P|264:282|160:260,1,165,2|10,3:2|0:0,0:0:0:0:
66,265,169787,1,2,3:2:0:0:
49,168,170073,1,8,0:0:0:0:
49,168,170215,6,0,P|104:160|176:144,1,110,4|2,0:0|3:2,0:0:0:0:
188,110,170644,1,10,0:2:0:0:
262,175,170930,2,0,L|281:241,1,55,2|2,3:2|3:2,0:0:0:0:
313,261,171215,1,8,0:0:0:0:
313,261,171358,2,0,P|355:258|428:215,1,110,2|2,3:2|3:2,0:0:0:0:
445,188,171787,2,0,L|448:59,1,110,10|2,0:2|3:2,0:0:0:0:
370,15,172358,1,10,0:0:0:0:
370,15,172501,6,0,P|335:35|256:43,1,110,0|0,3:0|3:0,0:0:0:0:
219,29,172930,1,10,0:0:0:0:
130,71,173215,2,0,L|153:138,1,55,2|0,3:2|3:0,0:0:0:0:
117,162,173501,2,0,L|110:226,1,55,10|2,0:0|3:2,0:0:0:0:
69,244,173787,2,0,P|48:270|64:360,1,110,0|10,0:0|0:0,0:0:0:0:
145,372,174358,2,0,B|187:374|187:374|219:354|219:354|275:356,1,110,8|8,0:0|0:0,0:0:0:0:
298,360,174787,6,0,L|321:182,1,165,4|10,0:0|0:0,0:0:0:0:
408,239,175501,2,0,L|398:308,1,55,2|2,3:2|3:2,0:0:0:0:
314,343,175930,6,0,L|337:165,1,165,2|10,3:2|0:0,0:0:0:0:
424,222,176644,2,0,L|414:291,1,55,2|2,3:2|3:2,0:0:0:0:
329,324,177073,6,0,L|352:146,1,165,2|10,3:2|0:0,0:0:0:0:
439,203,177787,2,0,L|429:272,1,55,2|2,3:2|3:2,0:0:0:0:
345,306,178215,6,0,L|368:128,1,165,2|10,0:0|0:0,0:0:0:0:
442,78,178930,1,2,3:0:0:0:
442,78,179073,1,4,0:0:0:0:
354,32,179358,6,0,P|297:28|231:59,1,110,4|2,0:0|0:0,0:0:0:0:
206,73,179787,1,10,0:0:0:0:
110,46,180073,1,2,3:0:0:0:
110,46,180215,1,4,0:0:0:0:
37,114,180501,2,0,B|78:160|78:160|181:156,1,165,4|10,0:0|0:0,0:0:0:0:
273,119,181215,1,0,3:0:0:0:
273,119,181358,2,0,P|292:152|292:188,1,55,4|0,3:2|0:0,0:0:0:0:
270,211,181644,5,4,3:2:0:0:
343,340,182073,1,8,0:0:0:0:
440,356,182358,1,8,0:0:0:0:
487,269,182644,1,8,0:0:0:0:
416,199,182930,1,8,0:0:0:0:
326,241,183215,1,8,0:0:0:0:
405,285,183501,5,8,0:0:0:0:
405,285,185073,6,0,L|393:168,1,110,6|0,3:2|3:0,0:0:0:0:
385,126,185501,2,0,P|344:119|315:105,1,55,8|0,0:0|0:0,0:0:0:0:
294,80,185787,1,0,3:0:0:0:
206,33,186073,1,8,0:0:0:0:
206,33,186215,2,0,L|72:42,1,110,0|0,3:0|3:0,0:0:0:0:
53,66,186644,2,0,P|67:109|62:131,1,55,8|0,0:0|0:0,0:0:0:0:
50,165,186930,1,0,3:0:0:0:
24,260,187215,1,8,0:0:0:0:
24,260,187358,6,0,P|74:280|146:270,1,110,0|0,3:0|3:0,0:0:0:0:
176,259,187787,2,0,P|216:249|295:275,1,110,8|0,0:0|3:0,0:0:0:0:
348,338,188358,1,8,0:0:0:0:
348,338,188501,2,0,B|400:291|400:291|408:190,1,165,0|8,0:0|0:0,0:0:0:0:
321,147,189215,1,0,3:0:0:0:
345,50,189501,1,8,0:0:0:0:
345,50,189644,6,0,P|400:31|469:52,1,110,4|0,3:2|3:0,0:0:0:0:
490,68,190073,2,0,L|482:187,1,110,8|0,0:0|3:0,0:0:0:0:
402,236,190644,1,8,0:0:0:0:
402,236,190787,2,0,P|365:244|288:220,1,110,0|0,3:0|0:0,0:0:0:0:
261,190,191215,2,0,B|203:189|203:189|149:207,1,110,8|0,0:0|3:0,0:0:0:0:
63,163,191787,1,8,0:0:0:0:
63,163,191930,6,0,P|57:111|88:53,1,110,0|0,3:0|3:0,0:0:0:0:
124,36,192358,1,8,0:0:0:0:
208,88,192644,2,0,L|272:94,1,55,0|0,3:0|3:0,0:0:0:0:
295,55,192930,1,8,0:0:0:0:
295,55,193073,2,0,P|330:75|351:210,1,165,0|8,3:3|0:0,0:0:0:0:
296,263,193787,1,8,0:3:0:0:
213,208,194073,1,0,3:0:0:0:
213,208,194215,6,0,L|92:218,1,110,4|0,3:2|3:0,0:0:0:0:
53,221,194644,2,0,P|63:263|60:289,1,55,8|0,0:0|0:0,0:0:0:0:
54,323,194930,1,0,3:0:0:0:
144,362,195215,1,8,0:0:0:0:
144,362,195358,2,0,L|274:349,1,110,0|0,3:0|3:0,0:0:0:0:
293,321,195787,2,0,P|327:316|358:324,1,55,8|0,0:0|0:0,0:0:0:0:
386,349,196073,1,0,3:0:0:0:
464,289,196358,1,8,0:0:0:0:
464,289,196501,6,0,P|467:233|469:164,1,110,0|0,3:0|3:0,0:0:0:0:
419,176,196930,2,0,P|415:124|424:51,1,110,8|0,0:0|3:0,0:0:0:0:
401,20,197358,2,0,P|365:36|341:39,1,55,8|8,0:0|0:0,0:0:0:0:
300,31,197644,2,0,P|228:23|124:36,1,165,0|8,3:0|0:0,0:0:0:0:
83,116,198358,1,0,3:0:0:0:
164,172,198644,1,8,0:0:0:0:
164,172,198787,6,0,P|216:189|288:165,1,110,4|0,3:2|3:0,0:0:0:0:
308,148,199215,1,8,0:0:0:0:
394,196,199501,1,0,3:0:0:0:
384,294,199787,1,8,0:0:0:0:
301,348,200073,2,0,P|253:325|178:321,1,110,0|8,0:0|0:0,0:0:0:0:
99,333,200644,2,0,L|39:348,2,55,0|0|8,3:0|3:0|0:0,0:0:0:0:
118,287,201073,6,0,P|112:219|79:107,1,165,0|8,3:0|0:0,0:0:0:0:
52,32,201787,2,0,L|117:21,1,55,0|0,3:0|3:0,0:0:0:0:
152,41,202073,1,8,0:0:0:0:
193,67,202215,2,0,P|236:63|355:119,1,165,0|8,3:0|0:0,0:0:0:0:
405,189,202930,2,0,P|351:218|299:234,1,110,8|8,0:0|0:0,0:0:0:0:
261,209,203358,5,4,3:2:0:0:
129,138,203787,1,8,0:0:0:0:
129,138,204073,1,8,0:0:0:0:
129,138,204358,1,8,0:0:0:0:
129,138,204644,6,0,L|140:210,1,55,8|8,0:0|3:2,0:0:0:0:
95,219,204930,2,0,L|99:282,1,55,8|0,3:2|0:0,0:0:0:0:
142,297,205215,2,0,L|155:358,1,55,0|0,3:0|3:0,0:0:0:0:
199,371,205501,1,0,3:0:0:0:
248,374,205644,6,0,P|282:361|314:285,1,110,6|2,0:0|3:2,0:0:0:0:
315,248,206073,1,10,0:0:0:0:
327,150,206358,2,0,P|367:134|390:135,1,55,2|0,3:2|3:2,0:0:0:0:
427,144,206644,1,10,0:0:0:0:
427,144,206787,2,0,B|456:209|456:209|429:316,1,165,0|10,3:2|0:0,0:0:0:0:
353,359,207501,1,2,3:2:0:0:
353,359,207644,2,0,L|279:344,1,55,0|10,3:0|0:0,0:0:0:0:
250,336,207930,6,0,P|250:290|226:216,1,110,0|2,3:0|3:2,0:0:0:0:
213,183,208358,1,10,0:0:0:0:
135,121,208644,2,0,L|65:114,2,55,2|0|10,3:2|3:2|0:0,0:0:0:0:
167,83,209073,2,0,P|221:56|278:58,1,110,0|2,3:0|3:2,0:0:0:0:
310,83,209501,2,0,P|371:106|418:105,1,110,10|2,0:0|3:2,0:0:0:0:
495,164,210073,1,8,0:0:0:0:
495,164,210215,6,0,P|476:205|419:233,1,110,4|2,3:2|3:2,0:0:0:0:
374,212,210644,2,0,L|357:323,1,110,10|2,0:0|3:2,0:0:0:0:
280,258,211215,1,10,0:0:0:0:
280,258,211358,2,0,L|248:132,1,110,0|0,3:0|3:0,0:0:0:0:
243,102,211787,2,0,P|195:95|127:118,1,110,10|2,0:0|3:2,0:0:0:0:
51,162,212358,1,8,0:0:0:0:
51,162,212501,6,0,P|59:232|58:294,1,110,2|2,3:2|3:2,0:0:0:0:
86,313,212930,2,0,L|156:308,1,55,10|0,0:0|0:0,0:0:0:0:
180,339,213215,1,2,3:2:0:0:
262,284,213501,1,10,0:0:0:0:
262,284,213644,2,0,B|268:249|268:249|250:210|250:210|270:164|256:104,1,165,2|10,3:2|0:2,0:0:0:0:
188,56,214358,2,0,P|230:33|309:44,1,110,8|8,0:0|0:0,0:0:0:0:
335,57,214787,6,0,L|455:60,1,110,4|0,3:2|3:0,0:0:0:0:
479,95,215215,1,10,0:0:0:0:
489,193,215501,2,0,L|420:187,1,55,2|2,3:2|3:2,0:0:0:0:
384,183,215787,1,8,0:0:0:0:
384,183,215930,2,0,P|339:216|265:220,1,110,2|0,3:2|3:0,0:0:0:0:
248,192,216358,2,0,B|206:168|206:168|176:177|176:177|140:168|140:168|109:194|109:194|109:233|109:233|90:265,1,220,10|10,0:0|0:0,0:0:0:0:
58,285,217073,6,0,P|93:333|205:342,1,165,0|10,3:0|0:0,0:0:0:0:
268,284,217787,2,0,L|330:286,1,55,2|2,3:2|3:2,0:0:0:0:
365,312,218073,1,8,0:0:0:0:
365,312,218215,2,0,B|406:261|406:261|384:154,1,165,2|10,3:2|0:0,0:0:0:0:
313,95,218930,2,0,P|256:106|189:106,1,110,2|8,3:2|0:0,0:0:0:0:
169,142,219358,5,4,3:2:0:0:
105,65,219644,1,2,3:2:0:0:
105,65,219787,1,10,0:0:0:0:
192,19,220073,2,0,L|264:16,1,55,2|2,3:2|3:2,0:0:0:0:
296,19,220358,1,8,0:0:0:0:
296,19,220501,2,0,P|294:58|315:198,1,165,2|10,3:2|0:0,0:0:0:0:
257,266,221215,1,2,3:2:0:0:
257,266,221358,1,2,3:2:0:0:
165,227,221644,5,4,0:0:0:0:
165,227,222073,2,0,L|95:217,1,55,0|0,3:0|3:0,0:0:0:0:
75,183,222358,2,0,L|84:107,1,55,0|0,3:0|3:0,0:0:0:0:
121,98,222644,2,0,L|191:108,1,55,8|8,0:0|0:0,0:0:0:0:
216,134,222930,2,0,L|291:126,1,55,8|8,0:0|0:0,0:0:0:0:
315,149,223215,2,0,L|381:115,1,55,8|8,0:0|0:0,0:0:0:0:
390,81,223501,2,0,L|366:25,2,55,8|8|8,0:0|0:0|0:0,0:0:0:0:
