osu file format v14

[General]
AudioFilename: audio.mp3
AudioLeadIn: 0
PreviewTime: 54850
Countdown: 0
SampleSet: Soft
StackLeniency: 0.4
Mode: 0
LetterboxInBreaks: 0
WidescreenStoryboard: 1

[Editor]
DistanceSpacing: 1
BeatDivisor: 8
GridSize: 32
TimelineZoom: 2.050003

[Metadata]
Title:Six trillion years and overnight story
TitleUnicode:六兆年と一夜物語
Artist:ayaponzu*
ArtistUnicode:あやぽんず*
Creator:Gottagof4st
Version:Rolniczy's Insane
Source:
Tags:ayanokorin shanipika hailie Serizawa Haruki Jack J_a_c_k rolniczy Yugu Rokuchounen to Ichiya Monogatari
BeatmapID:1791802
BeatmapSetID:795001

[Difficulty]
HPDrainRate:5
CircleSize:3.8
OverallDifficulty:8
ApproachRate:9
SliderMultiplier:1.7
SliderTickRate:1

[Events]
//Background and Video events
0,0,"sixtrillion.jpg",0,0
//Break Periods
2,86744,94285
2,162873,165621
//Storyboard Layer 0 (Background)
//Storyboard Layer 1 (Fail)
//Storyboard Layer 2 (Pass)
//Storyboard Layer 3 (Foreground)
//Storyboard Sound Samples

[TimingPoints]
1666,769.230769230769,4,2,0,20,1,0
2435,750,4,2,0,20,1,0
3185,714.285714285714,4,2,0,20,1,0
3542,750,4,2,0,20,1,0
4667,714.285714285714,4,2,0,20,1,0
5024,722.89156626506,4,2,0,20,1,0
6108,769.230769230769,4,2,0,20,1,0
6492,869.565217391304,4,2,0,20,1,0
6926,839.160839160839,4,2,0,20,1,0
7765,800,4,2,0,20,1,0
8565,800,4,2,0,20,1,0
8965,714.285714285714,4,2,0,20,1,0
9322,759.493670886076,4,2,0,20,1,0
9701,789.473684210526,4,2,0,20,1,0
10096,869.565217391304,4,2,0,20,1,0
10748,821.917808219178,4,2,0,20,1,0
10953,909.090909090909,4,2,0,20,1,0
13566,-100,4,2,0,10,0,0
13965,322.58064516129,4,2,0,50,1,0
14286,322.58064516129,4,2,0,50,1,0
24608,-142.857142857143,4,2,0,40,0,0
34931,-111.111111111111,4,2,0,50,0,0
50415,-111.111111111111,4,2,0,30,0,0
52350,-111.111111111111,4,2,0,60,0,0
52995,-100,4,2,0,60,0,0
55576,-90.9090909090909,4,2,0,70,0,1
65253,-100,4,2,0,70,0,0
65576,-100,4,2,0,70,0,0
65898,-133.333333333333,4,2,0,70,0,1
65939,-133.333333333333,4,2,0,70,0,0
65979,-133.333333333333,4,2,0,70,0,1
66019,-133.333333333333,4,2,0,70,0,0
66060,-133.333333333333,4,2,0,70,0,1
66100,-133.333333333333,4,2,0,70,0,0
66140,-133.333333333333,4,2,0,70,0,1
66181,-133.333333333333,4,2,0,70,0,0
66221,-90.9090909090909,4,2,0,70,0,1
76221,-100,4,2,0,60,0,0
85898,-100,4,2,0,40,0,0
86544,-100,4,2,0,40,0,0
95415,-166.666666666667,4,2,0,40,0,0
96866,-111.111111111111,4,2,0,50,0,0
112350,-111.111111111111,4,2,0,30,0,0
114285,-111.111111111111,4,2,0,60,0,0
114931,-100,4,2,0,60,0,0
117511,-90.9090909090909,4,2,0,70,0,1
127189,-100,4,2,0,70,0,0
128156,-90.9090909090909,4,2,0,70,0,1
137511,-90.9090909090909,4,2,0,70,0,0
138156,-90.9090909090909,4,2,0,60,0,0
148479,-90.9090909090909,4,2,0,50,0,0
153640,-90.9090909090909,4,2,0,40,0,0
156221,-100,4,2,0,50,0,0
162673,-100,4,2,0,30,0,0
166221,-100,4,2,0,50,0,0
166544,-100,4,2,0,70,0,0
167834,-90.9090909090909,4,2,0,80,0,1
172995,-100,4,2,0,80,0,0
173318,-90.9090909090909,4,2,0,80,0,1
176866,-90.9090909090909,4,2,0,80,0,0
178156,-90.9090909090909,4,2,0,80,0,1
183318,329.67032967033,4,2,0,80,1,0
184636,400,4,2,0,70,1,0
185236,428.571428571429,4,2,0,60,1,0
185450,461.538461538462,4,2,0,50,1,0
185680,500,4,2,0,50,1,0
185930,555.555555555556,4,2,0,50,1,0
186824,322.58064516129,4,2,0,50,1,0
188114,-100,4,2,0,80,0,0
190694,-100,4,2,0,70,0,0

[Colours]
Combo1 : 223,153,221
Combo2 : 43,89,213
Combo3 : 226,50,134
Combo4 : 146,151,222

[HitObjects]
247,349,1666,5,2,0:0:0:0:
374,313,2050,1,2,0:0:0:0:
440,205,2435,1,2,0:0:0:0:
247,349,3185,5,0,0:0:0:0:
374,313,3542,1,0,0:0:0:0:
440,205,3917,1,0,0:0:0:0:
440,205,4667,5,0,0:0:0:0:
454,65,5024,1,0,0:0:0:0:
326,168,5385,5,0,0:0:0:0:
297,67,5746,1,0,0:0:0:0:
184,191,6108,1,0,0:0:0:0:
201,83,6492,1,0,0:0:0:0:
82,212,6926,5,0,0:0:0:0:
82,212,7765,6,0,P|110:253|141:316,1,85,0|0,0:0|0:0,0:0:0:0:
273,297,8565,1,0,0:0:0:0:
176,366,8965,1,0,0:0:0:0:
273,297,9322,1,0,0:0:0:0:
402,270,9701,1,0,0:0:0:0:
512,309,10095,1,2,0:0:0:0:
338,146,10748,5,0,0:0:0:0:
334,164,10850,1,0,0:0:0:0:
330,182,10953,1,0,0:0:0:0:
169,286,11407,2,0,B|114:293|88:261|88:261|126:232|172:221|235:329|302:262|302:262|273:224|222:240,1,403.75,2|0,0:0|0:0,0:0:0:0:
228,239,13965,5,2,3:2:0:0:
225,221,14045,1,2,3:2:0:0:
234,212,14126,1,2,3:2:0:0:
221,197,14206,1,2,3:2:0:0:
236,178,14286,5,4,1:0:0:0:
231,343,14447,1,12,0:3:0:0:
219,351,15576,5,4,1:0:0:0:
382,299,15737,1,12,0:3:0:0:
396,311,16866,5,4,1:0:0:0:
374,158,17027,1,12,3:0:0:0:
361,150,17995,5,6,3:3:0:0:
374,158,18076,1,6,3:3:0:0:
383,151,18156,2,0,L|261:172,1,85,4|0,1:0|1:0,0:0:0:0:
221,153,18398,1,12,0:3:0:0:
221,153,18479,2,0,L|213:211,1,42.5,0|4,1:0|3:3,0:0:0:0:
265,260,18640,2,0,L|273:318,1,42.5,12|4,3:3|3:3,0:0:0:0:
203,362,18802,1,4,1:0:0:0:
88,268,18963,1,0,1:0:0:0:
106,258,19044,1,0,1:0:0:0:
114,273,19124,1,0,1:0:0:0:
127,259,19205,1,0,1:0:0:0:
132,272,19285,1,0,1:0:0:0:
139,268,19366,1,0,1:0:0:0:
148,278,19447,6,0,L|137:129,1,127.5,4|0,1:0|0:0,0:0:0:0:
135,115,19769,1,0,1:0:0:0:
135,115,20092,1,4,0:3:0:0:
164,102,20173,1,2,0:0:0:0:
193,116,20253,1,2,0:0:0:0:
228,110,20334,1,2,0:0:0:0:
252,124,20415,2,0,P|302:135|363:126,1,85,0|2,1:0|0:0,0:0:0:0:
458,103,20737,6,0,P|434:183|451:257,1,127.5,4|0,1:0|0:0,0:0:0:0:
450,267,21060,1,0,1:0:0:0:
286,298,21221,1,2,0:0:0:0:
306,291,21302,1,0,1:0:0:0:
326,284,21382,1,4,1:2:0:0:
228,232,21544,1,2,1:2:0:0:
212,239,21624,1,2,1:2:0:0:
195,227,21705,1,0,1:0:0:0:
182,245,21785,1,0,1:0:0:0:
167,232,21866,1,2,1:2:0:0:
160,251,21947,1,0,1:0:0:0:
145,240,22027,6,0,L|86:229,3,42.5,4|2|0|0,1:0|1:2|1:0|1:2,0:0:0:0:
80,196,22350,1,0,1:0:0:0:
6,81,22511,6,0,L|65:70,3,42.5,4|2|0|0,1:0|1:2|1:0|1:2,0:0:0:0:
91,91,22834,1,0,1:0:0:0:
209,147,22995,6,0,L|268:136,3,42.5,4|2|0|0,1:0|1:2|1:0|1:2,0:0:0:0:
274,120,23318,1,2,1:0:0:0:
360,170,23479,5,4,1:0:0:0:
375,178,23560,1,2,1:2:0:0:
391,167,23640,1,0,1:0:0:0:
418,177,23721,1,0,1:2:0:0:
443,164,23802,1,2,1:0:0:0:
85,200,24608,5,4,0:0:0:0:
85,200,24931,1,4,0:3:0:0:
160,148,25092,1,2,0:0:0:0:
239,190,25253,1,4,0:3:0:0:
239,190,25576,1,4,0:3:0:0:
323,233,25737,1,0,3:0:0:0:
388,172,25898,2,0,P|391:115|378:38,2,118.999996368408,4|4|4,0:3|0:3|0:3,0:0:0:0:
388,172,26866,1,4,0:3:0:0:
348,253,27027,1,2,0:0:0:0:
386,340,27189,5,4,0:3:0:0:
386,340,27511,1,4,0:3:0:0:
297,321,27673,1,2,0:0:0:0:
218,355,27834,1,4,0:3:0:0:
218,355,28156,1,4,0:3:0:0:
135,340,28318,1,2,0:0:0:0:
81,272,28479,2,0,P|80:206|87:139,2,118.999996368408,4|4|4,0:3|0:3|0:3,0:0:0:0:
1,168,29447,1,4,0:3:0:0:
120,65,29769,6,0,P|196:58|252:69,1,118.999996368408,4|4,0:3|0:3,0:0:0:0:
311,109,30253,1,2,0:0:0:0:
234,149,30415,1,4,0:3:0:0:
234,149,30737,2,0,L|171:169,1,59.4999981842042,4|0,0:3|3:0,0:0:0:0:
104,185,31060,2,0,P|156:212|196:271,1,118.999996368408,4|4,0:3|0:3,0:0:0:0:
214,346,31544,1,0,3:0:0:0:
277,286,31705,1,4,0:3:0:0:
476,354,32027,1,4,0:3:0:0:
292,367,32350,6,0,P|232:364|177:384,1,118.999996368408,4|4,0:3|0:3,0:0:0:0:
96,360,32834,1,2,0:0:0:0:
75,279,32995,2,0,P|72:219|92:164,1,118.999996368408,4|4,0:3|0:3,0:0:0:0:
137,98,33479,1,2,0:0:0:0:
204,147,33640,2,0,L|270:126,1,59.4999981842042,4|0,0:3|0:0,0:0:0:0:
295,52,33963,2,0,L|361:73,1,59.4999981842042,4|2,0:3|0:0,0:0:0:0:
382,155,34285,2,0,L|448:134,1,59.4999981842042,4|2,0:3|0:0,0:0:0:0:
504,35,34608,1,12,0:3:0:0:
504,35,34931,6,0,P|480:97|481:202,1,152.999995330811,4|0,1:0|1:0,0:0:0:0:
482,286,35415,1,2,0:0:0:0:
377,245,35576,2,0,B|303:229|315:288|212:271,1,152.999995330811,4|0,0:3|1:0,0:0:0:0:
114,257,36060,1,2,0:0:0:0:
147,138,36221,1,4,0:3:0:0:
194,377,36544,1,0,1:0:0:0:
147,138,36866,1,4,0:3:0:0:
147,138,37189,2,0,L|43:118,1,76.4999976654053,0|0,1:0|3:0,0:0:0:0:
4,39,37511,6,0,P|29:122|25:210,1,152.999995330811,4|0,1:0|1:0,0:0:0:0:
4,298,37995,1,2,0:0:0:0:
110,257,38156,2,0,P|187:255|262:297,1,152.999995330811,4|0,0:3|1:0,0:0:0:0:
342,335,38640,1,2,0:0:0:0:
383,230,38802,2,0,P|389:170|371:121,1,76.4999976654053,4|0,0:3|0:0,0:0:0:0:
277,81,39124,2,0,P|271:141|289:190,1,76.4999976654053,0|0,1:0|3:0,0:0:0:0:
280,180,39366,1,0,0:0:0:0:
285,196,39447,1,4,0:3:0:0:
285,212,39527,1,0,1:0:0:0:
282,229,39608,1,0,3:0:0:0:
127,195,39769,2,0,P|124:149|138:100,1,76.4999976654053,0|0,1:0|3:0,0:0:0:0:
139,95,40011,1,0,1:0:0:0:
155,74,40092,6,0,L|326:49,1,152.999995330811,4|0,1:0|1:0,0:0:0:0:
433,37,40576,1,2,0:0:0:0:
363,130,40737,2,0,P|346:187|379:294,1,152.999995330811,4|0,0:3|1:0,0:0:0:0:
473,344,41221,1,2,0:0:0:0:
496,195,41382,2,0,P|431:154|356:145,1,152.999995330811,4|0,0:3|1:0,0:0:0:0:
246,254,41866,1,0,3:0:0:0:
242,270,41947,1,0,0:0:0:0:
239,288,42027,1,4,0:3:0:0:
239,288,42350,2,0,P|279:275|322:281,1,76.4999976654053,0|0,1:0|3:0,0:0:0:0:
271,361,42673,6,0,P|204:361|119:346,1,152.999995330811,4|0,1:0|1:0,0:0:0:0:
29,242,43156,2,0,P|25:203|30:166,2,76.4999976654053,2|4|0,0:0|0:3|0:0,0:0:0:0:
100,55,43640,1,0,1:0:0:0:
146,176,43802,1,2,0:0:0:0:
146,189,43963,5,4,0:3:0:0:
242,53,44124,1,0,1:0:0:0:
357,128,44285,1,0,1:0:0:0:
302,245,44447,1,4,3:0:0:0:
227,154,44608,1,4,0:3:0:0:
357,146,44769,1,0,1:0:0:0:
307,266,44931,1,2,0:0:0:0:
311,288,45011,1,0,1:0:0:0:
304,310,45092,1,0,1:0:0:0:
313,334,45173,1,0,1:0:0:0:
301,350,45253,5,4,1:0:0:0:
98,281,45737,1,8,0:3:0:0:
316,238,46221,1,4,0:0:0:0:
56,35,47834,5,4,1:0:0:0:
282,84,48156,1,0,1:0:0:0:
192,137,48318,1,8,0:3:0:0:
406,278,48640,1,2,0:0:0:0:
306,205,48802,1,4,0:0:0:0:
306,205,49769,6,0,L|356:206,2,50.9999984436036,0|0|0,3:0|3:0|3:0,0:0:0:0:
244,268,50092,6,0,L|193:266,2,50.9999984436036,4|12|12,3:3|3:3|3:3,0:0:0:0:
311,337,50415,5,2,0:0:0:0:
215,99,51060,1,2,0:0:0:0:
163,173,51382,1,2,0:0:0:0:
121,93,51705,1,2,0:0:0:0:
312,354,52189,5,4,0:3:0:0:
312,354,52269,1,4,0:3:0:0:
312,354,52350,2,0,L|325:251,1,76.4999976654053,4|0,1:0|0:0,0:0:0:0:
330,240,52592,1,4,0:3:0:0:
328,214,52673,1,0,1:0:0:0:
342,203,52753,1,0,1:0:0:0:
330,189,52834,1,0,1:0:0:0:
342,178,52915,1,0,1:0:0:0:
331,169,52995,1,4,1:0:0:0:
26,222,53318,5,4,3:0:0:0:
58,313,53479,1,4,3:0:0:0:
173,258,53640,5,4,3:0:0:0:
189,161,53802,1,4,3:0:0:0:
31,123,53963,5,12,3:0:0:0:
57,226,54124,1,4,3:0:0:0:
178,77,54285,5,12,3:0:0:0:
178,77,55576,6,0,L|169:209,1,93.5000028533936,4|2,1:0|0:0,0:0:0:0:
168,217,55818,1,0,1:0:0:0:
168,217,55898,2,0,L|159:349,1,93.5000028533936,4|0,3:0|1:0,0:0:0:0:
262,204,56221,2,0,P|303:182|349:178,1,93.5000028533936,4|0,0:3|1:0,0:0:0:0:
395,189,56463,1,4,0:3:0:0:
395,189,56544,1,4,0:3:0:0:
374,306,56705,1,0,1:0:0:0:
495,236,56866,6,0,P|506:193|501:109,1,93.5000028533936,4|0,1:3|3:0,0:0:0:0:
495,103,57108,1,4,0:3:0:0:
495,103,57189,2,0,P|452:91|368:97,1,93.5000028533936,4|0,3:0|1:0,0:0:0:0:
228,95,57511,1,6,3:3:0:0:
309,174,57673,1,0,1:0:0:0:
309,174,57753,1,0,1:0:0:0:
309,174,57834,1,4,0:3:0:0:
333,73,57995,1,0,1:0:0:0:
195,94,58156,6,0,P|188:150|204:223,1,93.5000028533936,4|0,1:3|3:0,0:0:0:0:
202,232,58398,1,4,1:3:0:0:
202,232,58479,2,0,P|206:278|199:324,1,93.5000028533936,4|0,3:0|1:0,0:0:0:0:
22,304,58802,2,0,P|22:249|44:187,1,93.5000028533936,4|0,0:3|0:0,0:0:0:0:
40,166,59044,1,4,0:3:0:0:
40,166,59124,2,0,P|77:138|120:120,1,93.5000028533936,4|0,0:3|1:0,0:0:0:0:
283,74,59447,5,4,1:3:0:0:
220,184,59608,1,0,3:0:0:0:
220,184,59689,1,4,0:3:0:0:
220,184,59769,2,0,P|202:120|207:75,1,93.5000028533936,4|0,3:0|1:0,0:0:0:0:
345,129,60092,2,0,P|391:129|436:141,1,93.5000028533936,6|0,3:3|1:0,0:0:0:0:
476,160,60334,1,4,3:0:0:0:
476,161,60415,1,4,0:3:0:0:
506,51,60576,5,0,1:0:0:0:
506,51,60656,1,0,0:0:0:0:
506,51,60737,2,0,L|385:32,1,93.5000028533936,4|0,1:0|3:0,0:0:0:0:
379,48,60979,1,4,0:3:0:0:
379,48,61060,2,0,L|258:67,1,93.5000028533936,4|0,3:0|1:0,0:0:0:0:
119,31,61382,2,0,P|154:95|155:134,1,93.5000028533936,6|0,3:3|1:0,0:0:0:0:
152,151,61624,1,4,3:0:0:0:
152,151,61705,1,4,0:3:0:0:
71,270,61866,1,0,1:0:0:0:
16,141,62027,5,4,1:3:0:0:
151,171,62189,1,0,3:0:0:0:
248,266,62350,1,4,3:0:0:0:
374,256,62511,1,0,1:0:0:0:
241,252,62673,2,0,P|187:269|147:329,1,93.5000028533936,6|0,0:3|0:0,0:0:0:0:
142,328,62915,1,4,3:0:0:0:
142,328,62995,1,4,0:3:0:0:
286,369,63156,1,0,1:0:0:0:
395,271,63318,6,0,L|408:155,1,93.5000028533936,4|2,1:3|3:0,0:0:0:0:
410,140,63560,1,4,1:3:0:0:
403,103,63640,2,0,L|287:90,1,93.5000028533936,4|2,3:0|1:3,0:0:0:0:
282,117,63882,1,2,0:0:0:0:
265,150,63962,2,0,L|149:163,1,93.5000028533936,4|2,0:3|1:3,0:0:0:0:
139,156,64205,1,4,3:0:0:0:
125,168,64285,1,4,1:3:0:0:
119,153,64366,1,0,1:0:0:0:
110,171,64447,1,0,1:0:0:0:
101,152,64527,1,0,1:0:0:0:
97,173,64608,5,12,1:3:0:0:
72,271,64769,1,12,1:3:0:0:
121,357,64931,1,12,1:3:0:0:
59,257,65092,1,12,1:3:0:0:
101,152,65253,1,12,1:3:0:0:
101,152,65576,6,0,L|212:172,1,85,4|2,3:0|0:0,0:0:0:0:
317,231,65898,6,0,L|270:257,3,31.8750012159348,2|2|2|2,0:0|0:0|0:0|0:0,0:0:0:0:
270,255,66221,6,0,P|273:186|265:134,1,93.5000028533936,4|2,1:0|0:0,0:0:0:0:
118,77,66544,2,0,P|109:122|111:169,1,93.5000028533936,4|0,3:0|1:0,0:0:0:0:
118,215,66785,1,0,0:0:0:0:
118,215,66866,2,0,P|119:261|111:307,1,93.5000028533936,4|0,0:3|1:0,0:0:0:0:
4,215,67189,6,0,L|6:93,1,93.5000028533936,4|0,0:3|1:0,0:0:0:0:
7,84,67431,1,0,0:0:0:0:
7,84,67511,1,4,1:3:0:0:
111,169,67673,1,0,3:0:0:0:
204,69,67834,2,0,P|263:52|332:63,1,93.5000028533936,4|0,3:0|1:0,0:0:0:0:
333,68,68076,1,0,0:0:0:0:
333,68,68156,2,0,P|376:84|423:85,1,93.5000028533936,4|0,0:3|1:0,0:0:0:0:
475,198,68479,6,0,P|398:200|359:214,1,93.5000028533936,4|0,0:3|1:0,0:0:0:0:
343,220,68721,1,0,0:0:0:0:
343,220,68802,2,0,P|284:227|220:216,1,93.5000028533936,4|0,1:3|3:0,0:0:0:0:
112,202,69124,1,4,3:0:0:0:
231,148,69285,1,0,1:0:0:0:
231,148,69366,1,0,0:0:0:0:
231,148,69447,1,4,0:3:0:0:
173,270,69608,2,0,L|148:329,1,46.7500014266968,0|4,1:0|0:3,0:0:0:0:
140,344,69769,5,4,1:0:0:0:
89,178,70092,5,4,1:0:0:0:
180,37,70415,6,0,P|242:23|273:28,1,93.5000028533936,4|4,1:0|1:3,0:0:0:0:
298,42,70656,1,0,1:0:0:0:
311,51,70737,1,4,1:3:0:0:
331,63,70818,1,0,1:0:0:0:
354,66,70898,1,4,1:3:0:0:
371,65,70979,1,0,1:0:0:0:
390,58,71060,6,0,P|382:108|389:177,1,93.5000028533936,4|2,1:0|0:0,0:0:0:0:
389,178,71302,1,0,1:0:0:0:
389,178,71382,2,0,L|392:292,1,93.5000028533936,4|0,3:0|1:0,0:0:0:0:
258,355,71705,2,0,P|314:339|376:360,1,93.5000028533936,4|0,0:3|1:0,0:0:0:0:
374,358,71947,1,4,0:3:0:0:
374,358,72027,2,0,P|420:363|463:347,1,93.5000028533936,4|0,0:3|1:0,0:0:0:0:
465,202,72350,5,4,1:3:0:0:
290,182,72511,1,0,3:0:0:0:
173,293,72673,1,4,3:0:0:0:
34,267,72834,1,0,1:0:0:0:
181,255,72995,2,0,P|230:308|251:366,1,93.5000028533936,4|0,0:3|1:0,0:0:0:0:
256,359,73237,1,0,1:0:0:0:
256,359,73318,2,0,L|278:258,1,93.5000028533936,4|0,0:3|1:0,0:0:0:0:
313,122,73640,6,0,P|247:131|189:119,1,93.5000028533936,4|2,1:3|3:0,0:0:0:0:
178,115,73882,1,4,1:3:0:0:
140,109,73963,2,0,P|131:154|133:201,1,93.5000028533936,4|2,3:0|1:3,0:0:0:0:
141,238,74205,1,2,0:0:0:0:
165,266,74286,2,0,P|210:257|257:260,1,93.5000028533936,4|2,0:3|1:3,0:0:0:0:
305,262,74527,1,4,3:0:0:0:
310,272,74608,1,4,1:3:0:0:
323,264,74689,1,0,1:0:0:0:
326,279,74769,1,0,1:0:0:0:
335,268,74850,1,0,1:0:0:0:
337,285,74931,5,12,1:3:0:0:
240,346,75092,1,12,1:3:0:0:
131,330,75253,1,12,1:3:0:0:
243,361,75415,1,12,1:3:0:0:
344,298,75576,1,12,1:3:0:0:
344,298,75898,5,4,3:0:0:0:
363,291,75979,1,2,3:2:0:0:
380,300,76060,1,2,3:0:0:0:
410,293,76140,1,2,3:2:0:0:
429,302,76221,6,0,L|421:111,1,170,4|0,1:0|1:0,0:0:0:0:
421,132,76866,1,4,0:3:0:0:
392,125,76947,1,2,0:0:0:0:
370,135,77027,1,2,0:0:0:0:
351,124,77108,1,2,0:0:0:0:
334,137,77189,2,0,P|277:144|223:122,1,85,0|2,1:0|0:0,0:0:0:0:
135,104,77511,6,0,P|136:188|104:255,1,127.5,4|0,1:0|0:0,0:0:0:0:
94,264,77834,1,0,1:0:0:0:
94,264,78156,1,4,0:3:0:0:
119,263,78237,1,2,0:0:0:0:
133,280,78318,1,2,0:0:0:0:
157,272,78398,1,2,0:0:0:0:
166,292,78479,2,0,P|211:304|272:288,1,85,0|2,1:0|0:0,0:0:0:0:
390,303,78802,6,0,P|315:313|262:353,1,127.5,4|0,1:0|0:0,0:0:0:0:
254,370,79124,1,0,1:0:0:0:
254,370,79447,1,4,0:3:0:0:
249,346,79527,1,2,0:0:0:0:
262,324,79608,1,2,0:0:0:0:
253,306,79689,1,2,0:0:0:0:
264,278,79769,2,0,P|274:227|267:178,1,85,0|2,1:0|0:0,0:0:0:0:
105,110,80092,6,0,P|170:123|213:110,1,85,4|2,1:0|0:0,0:0:0:0:
372,33,80415,1,0,1:0:0:0:
373,58,80495,1,2,0:0:0:0:
364,70,80576,1,2,0:0:0:0:
371,82,80656,1,2,0:0:0:0:
364,94,80737,2,0,P|362:148|373:200,1,85,4|2,0:3|0:0,0:0:0:0:
396,339,81060,1,0,1:0:0:0:
315,234,81221,5,2,0:0:0:0:
303,225,81302,1,0,1:0:0:0:
292,238,81382,2,0,P|342:256|462:212,1,170,4|0,1:0|1:0,0:0:0:0:
451,224,82027,1,4,0:3:0:0:
446,206,82108,1,2,0:0:0:0:
457,191,82189,1,2,0:0:0:0:
449,171,82269,1,2,0:0:0:0:
457,153,82350,2,0,L|449:33,1,85,0|0,1:0|0:0,0:0:0:0:
308,4,82673,6,0,P|293:91|315:156,1,127.5,4|0,1:0|0:0,0:0:0:0:
318,160,82995,1,0,1:0:0:0:
204,51,83156,1,2,0:0:0:0:
189,54,83237,1,0,1:0:0:0:
175,52,83318,1,4,1:2:0:0:
152,149,83479,1,2,1:2:0:0:
157,166,83560,1,2,1:2:0:0:
148,179,83640,1,0,1:0:0:0:
157,189,83721,1,0,1:0:0:0:
147,197,83802,1,2,1:2:0:0:
154,202,83882,1,0,1:0:0:0:
146,218,83963,6,0,L|133:273,3,42.5,4|2|0|0,1:0|1:2|1:0|1:2,0:0:0:0:
145,299,84285,1,0,1:0:0:0:
278,348,84447,6,0,L|297:295,3,42.5,4|2|0|0,1:0|1:2|1:0|1:2,0:0:0:0:
287,266,84769,1,0,1:0:0:0:
253,150,84931,6,0,L|266:95,3,42.5,4|2|0|0,1:0|1:2|1:0|1:2,0:0:0:0:
291,77,85253,1,2,1:0:0:0:
459,75,85415,5,4,1:0:0:0:
470,94,85495,1,2,1:2:0:0:
455,115,85576,1,0,1:0:0:0:
471,135,85656,1,0,1:2:0:0:
454,156,85737,1,2,1:0:0:0:
257,288,86544,5,4,0:0:0:0:
13,320,95415,6,0,P|77:288|373:280,1,356.999989105225,2|8,0:0|3:3,0:0:0:0:
356,274,96866,6,0,P|340:214|347:104,1,152.999995330811,4|0,1:0|1:0,0:0:0:0:
400,28,97350,1,2,0:0:0:0:
468,118,97511,2,0,P|484:178|477:288,1,152.999995330811,4|0,0:3|1:0,0:0:0:0:
416,361,97995,1,2,0:0:0:0:
344,278,98156,5,4,0:3:0:0:
471,269,98318,1,2,0:0:0:0:
400,376,98479,1,0,1:0:0:0:
262,337,98640,1,0,3:0:0:0:
306,194,98802,1,4,0:3:0:0:
306,194,99124,1,0,1:0:0:0:
190,218,99285,1,0,3:0:0:0:
62,175,99447,6,0,P|93:244|101:354,1,152.999995330811,4|0,1:0|1:0,0:0:0:0:
1,278,99931,1,2,0:0:0:0:
61,154,100092,2,0,P|130:122|206:112,1,152.999995330811,4|0,0:3|1:0,0:0:0:0:
342,124,100576,1,2,0:0:0:0:
255,196,100737,5,4,0:3:0:0:
399,224,100898,1,0,0:0:0:0:
234,288,101060,1,0,1:0:0:0:
371,312,101221,1,0,3:0:0:0:
361,325,101302,1,0,0:0:0:0:
350,316,101382,1,4,0:3:0:0:
341,328,101463,1,0,1:0:0:0:
327,317,101544,1,0,3:0:0:0:
415,218,101705,1,0,1:0:0:0:
489,352,101866,5,0,3:0:0:0:
489,352,101947,1,0,1:0:0:0:
489,352,102027,2,0,P|479:278|486:248,1,76.4999976654053,4|0,1:0|0:0,0:0:0:0:
403,118,102350,2,0,P|413:192|406:222,1,76.4999976654053,0|2,1:0|0:0,0:0:0:0:
320,318,102673,2,0,P|307:273|319:133,1,152.999995330811,4|0,0:3|0:0,0:0:0:0:
321,56,103156,1,2,0:0:0:0:
195,134,103318,6,0,P|137:134|27:74,1,152.999995330811,4|0,0:3|1:0,0:0:0:0:
42,246,103802,1,0,3:0:0:0:
42,246,103882,1,0,0:0:0:0:
42,246,103963,2,0,P|99:231|131:235,1,76.4999976654053,4|0,0:3|0:0,0:0:0:0:
136,358,104285,2,0,P|79:373|47:369,1,76.4999976654053,0|0,1:0|3:0,0:0:0:0:
195,288,104608,6,0,P|270:275|344:291,1,152.999995330811,4|0,1:0|1:0,0:0:0:0:
466,343,105092,1,2,0:0:0:0:
497,220,105253,2,0,P|499:181|496:143,1,76.4999976654053,4|0,0:3|0:0,0:0:0:0:
435,34,105576,1,0,1:0:0:0:
369,159,105737,2,0,P|354:209|364:332,1,152.999995330811,2|0,0:0|1:0,0:0:0:0:
242,231,106221,1,0,1:0:0:0:
236,214,106302,1,0,0:0:0:0:
249,208,106382,1,4,3:0:0:0:
237,198,106463,1,0,0:0:0:0:
247,188,106544,2,0,P|253:139|248:97,1,76.4999976654053,4|0,0:3|0:0,0:0:0:0:
243,77,106785,1,0,0:0:0:0:
243,77,106866,2,0,P|187:46|140:55,1,114.749996498108,2|0,0:0|1:0,0:0:0:0:
102,78,107189,5,4,1:0:0:0:
102,78,107511,1,0,1:0:0:0:
87,199,107673,1,8,0:3:0:0:
87,199,107995,1,8,0:3:0:0:
118,318,108157,1,4,0:0:0:0:
118,318,108640,5,8,0:3:0:0:
202,212,108802,1,0,1:0:0:0:
350,241,108963,1,0,0:0:0:0:
350,241,109044,1,0,3:0:0:0:
350,241,109124,2,0,P|358:297|349:348,1,76.4999976654053,8|0,0:3|3:0,0:0:0:0:
243,227,109447,2,0,P|249:189|264:154,1,76.4999976654053,0|0,1:0|3:0,0:0:0:0:
298,118,109689,1,0,3:0:0:0:
298,118,109769,5,4,1:0:0:0:
185,119,109931,1,4,0:3:0:0:
91,69,110092,1,0,1:0:0:0:
55,184,110253,1,4,0:3:0:0:
55,184,110576,1,8,0:3:0:0:
63,303,110737,1,4,0:0:0:0:
63,303,111221,5,8,0:3:0:0:
174,311,111382,1,0,1:0:0:0:
267,240,111544,1,0,0:0:0:0:
267,240,111624,1,0,0:0:0:0:
266,240,111705,2,0,P|280:219|287:194,2,50.9999984436036,8|0|8,3:0|3:0|3:0,0:0:0:0:
281,290,112027,2,0,P|284:315|296:337,2,50.9999984436036,4|12|12,3:3|3:3|3:3,0:0:0:0:
319,254,112350,5,2,0:0:0:0:
166,64,112995,1,2,0:0:0:0:
239,96,113317,1,2,0:0:0:0:
312,63,113640,1,2,0:0:0:0:
0,192,114124,5,4,0:3:0:0:
0,192,114205,1,4,0:3:0:0:
0,192,114285,2,0,L|111:199,1,76.4999976654053,4|0,1:0|0:0,0:0:0:0:
114,201,114527,1,4,0:3:0:0:
141,196,114608,1,0,1:0:0:0:
159,207,114689,1,0,1:0:0:0:
175,195,114769,1,0,1:0:0:0:
184,206,114850,1,0,1:0:0:0:
197,197,114931,1,4,1:0:0:0:
438,305,115253,5,4,3:0:0:0:
351,327,115415,1,4,3:0:0:0:
226,233,115576,5,4,3:0:0:0:
326,241,115737,1,4,3:0:0:0:
442,123,115898,5,12,3:0:0:0:
330,146,116060,1,4,3:0:0:0:
229,46,116221,5,12,3:0:0:0:
229,46,116866,5,2,1:2:0:0:
238,52,116947,1,0,1:0:0:0:
253,45,117027,1,0,1:0:0:0:
264,50,117108,1,0,1:0:0:0:
273,47,117189,1,2,1:2:0:0:
284,53,117269,1,0,1:0:0:0:
297,45,117350,1,0,1:0:0:0:
315,52,117431,1,0,1:0:0:0:
336,49,117511,6,0,L|345:181,1,93.5000028533936,4|2,1:0|0:0,0:0:0:0:
346,189,117753,1,0,1:0:0:0:
346,189,117833,2,0,L|355:321,1,93.5000028533936,4|0,3:0|1:0,0:0:0:0:
252,176,118156,2,0,P|211:154|165:150,1,93.5000028533936,4|0,0:3|1:0,0:0:0:0:
119,161,118398,1,4,0:3:0:0:
119,161,118479,1,4,0:3:0:0:
117,280,118640,1,0,1:0:0:0:
19,208,118801,6,0,P|8:165|13:81,1,93.5000028533936,4|0,1:3|3:0,0:0:0:0:
19,75,119043,1,4,0:3:0:0:
19,75,119124,2,0,P|62:63|146:69,1,93.5000028533936,4|0,3:0|1:0,0:0:0:0:
286,67,119446,1,6,3:3:0:0:
205,146,119608,1,0,1:0:0:0:
205,146,119688,1,0,1:0:0:0:
205,146,119769,1,4,0:3:0:0:
181,45,119930,1,0,1:0:0:0:
319,66,120091,6,0,P|326:122|310:195,1,93.5000028533936,4|0,1:3|3:0,0:0:0:0:
312,204,120333,1,4,1:3:0:0:
312,204,120414,2,0,P|308:250|315:296,1,93.5000028533936,4|0,3:0|1:0,0:0:0:0:
492,276,120737,2,0,P|492:221|470:159,1,93.5000028533936,4|0,3:3|0:0,0:0:0:0:
474,138,120979,1,4,0:3:0:0:
474,138,121059,2,0,P|437:110|394:92,1,93.5000028533936,4|0,0:3|1:0,0:0:0:0:
231,46,121382,5,4,1:3:0:0:
294,156,121543,1,0,3:0:0:0:
294,156,121624,1,4,0:3:0:0:
294,156,121704,2,0,P|312:92|307:47,1,93.5000028533936,4|0,3:0|1:0,0:0:0:0:
169,101,122027,2,0,P|123:101|78:113,1,93.5000028533936,6|0,3:3|1:0,0:0:0:0:
38,132,122269,1,4,3:0:0:0:
38,133,122350,1,4,0:3:0:0:
8,23,122511,5,0,1:0:0:0:
8,23,122591,1,0,1:0:0:0:
8,23,122672,2,0,L|129:4,1,93.5000028533936,4|0,1:0|3:0,0:0:0:0:
135,20,122914,1,4,0:3:0:0:
135,20,122995,2,0,L|256:39,1,93.5000028533936,4|0,3:0|1:0,0:0:0:0:
395,3,123317,2,0,P|360:67|359:106,1,93.5000028533936,6|0,3:3|1:0,0:0:0:0:
362,123,123559,1,4,3:0:0:0:
362,123,123640,1,4,0:3:0:0:
443,242,123801,1,0,1:0:0:0:
498,113,123962,5,4,1:3:0:0:
363,143,124124,1,0,3:0:0:0:
266,238,124285,1,4,3:0:0:0:
140,228,124446,1,0,1:0:0:0:
273,224,124608,2,0,P|327:241|367:301,1,93.5000028533936,6|0,0:3|0:0,0:0:0:0:
372,300,124850,1,4,3:0:0:0:
372,300,124930,1,4,0:3:0:0:
228,341,125091,1,0,1:0:0:0:
116,247,125253,6,0,L|103:131,1,93.5000028533936,4|2,1:3|3:0,0:0:0:0:
96,117,125495,1,4,1:3:0:0:
105,81,125575,2,0,L|221:68,1,93.5000028533936,4|2,3:0|1:3,0:0:0:0:
232,85,125817,1,2,0:0:0:0:
242,121,125898,2,0,L|358:134,1,93.5000028533936,4|2,0:3|1:3,0:0:0:0:
375,128,126140,1,4,3:0:0:0:
389,140,126220,1,4,1:3:0:0:
395,125,126301,1,0,1:0:0:0:
404,143,126382,1,0,1:0:0:0:
413,124,126462,1,0,1:0:0:0:
417,145,126543,5,12,1:3:0:0:
435,241,126704,1,12,1:3:0:0:
386,333,126866,1,12,1:3:0:0:
447,256,127027,1,12,1:3:0:0:
427,158,127188,1,12,1:3:0:0:
427,158,127511,6,0,L|316:178,1,85,4|2,3:0|0:0,0:0:0:0:
180,221,127834,6,0,L|227:247,3,42.5,2|2|2|2,0:0|0:0|0:0|0:0,0:0:0:0:
244,227,128156,6,0,P|241:158|249:106,1,93.5000028533936,4|2,1:0|0:0,0:0:0:0:
396,49,128479,2,0,P|405:94|403:141,1,93.5000028533936,4|0,3:0|1:0,0:0:0:0:
396,187,128720,1,0,0:0:0:0:
396,187,128801,2,0,P|395:233|403:279,1,93.5000028533936,4|0,0:3|1:0,0:0:0:0:
510,187,129124,6,0,L|508:65,1,93.5000028533936,4|0,0:3|1:0,0:0:0:0:
507,56,129366,1,0,0:0:0:0:
507,56,129446,1,4,1:3:0:0:
403,141,129608,1,0,3:0:0:0:
310,41,129769,2,0,P|251:24|182:35,1,93.5000028533936,4|0,3:0|1:0,0:0:0:0:
181,40,130011,1,0,0:0:0:0:
181,40,130091,2,0,P|138:56|91:57,1,93.5000028533936,4|0,0:3|1:0,0:0:0:0:
39,170,130414,6,0,P|116:172|155:186,1,93.5000028533936,4|0,0:3|1:0,0:0:0:0:
171,192,130656,1,0,0:0:0:0:
171,192,130737,2,0,P|230:199|294:188,1,93.5000028533936,4|0,1:3|3:0,0:0:0:0:
402,174,131059,1,4,3:0:0:0:
283,120,131220,1,0,1:0:0:0:
283,120,131301,1,0,0:0:0:0:
283,120,131382,1,4,0:3:0:0:
341,242,131543,2,0,L|366:301,1,46.7500014266968,0|4,1:0|0:3,0:0:0:0:
374,316,131704,5,4,1:0:0:0:
425,150,132027,5,4,1:0:0:0:
334,9,132350,6,0,P|272:-5|241:0,1,93.5000028533936,4|4,1:0|1:3,0:0:0:0:
216,14,132591,1,0,1:0:0:0:
203,23,132672,1,4,1:3:0:0:
183,35,132753,1,0,1:0:0:0:
160,38,132833,1,4,1:3:0:0:
143,37,132914,1,0,1:0:0:0:
124,30,132995,6,0,P|132:80|125:149,1,93.5000028533936,4|2,1:0|0:0,0:0:0:0:
125,150,133237,1,0,1:0:0:0:
125,150,133317,2,0,L|122:264,1,93.5000028533936,4|0,3:0|1:0,0:0:0:0:
256,327,133640,2,0,P|200:311|138:332,1,93.5000028533936,4|0,0:3|1:0,0:0:0:0:
140,330,133882,1,4,0:3:0:0:
140,330,133962,2,0,P|94:335|51:319,1,93.5000028533936,4|0,0:3|1:0,0:0:0:0:
49,174,134285,5,4,1:3:0:0:
224,154,134446,1,0,3:0:0:0:
341,265,134608,1,4,3:0:0:0:
480,239,134769,1,0,1:0:0:0:
333,227,134930,2,0,P|284:280|263:338,1,93.5000028533936,4|0,0:3|1:0,0:0:0:0:
258,331,135172,1,0,1:0:0:0:
258,331,135253,2,0,L|236:230,1,93.5000028533936,4|0,0:3|1:0,0:0:0:0:
201,94,135575,6,0,P|267:103|325:91,1,93.5000028533936,4|2,1:3|3:0,0:0:0:0:
330,94,135817,1,4,1:3:0:0:
366,83,135898,2,0,P|348:126|340:172,1,93.5000028533936,4|2,3:0|1:3,0:0:0:0:
344,209,136140,1,2,0:0:0:0:
344,246,136221,2,0,P|298:237|251:240,1,93.5000028533936,4|2,0:3|1:3,0:0:0:0:
208,234,136462,1,4,3:0:0:0:
199,244,136543,1,4,1:3:0:0:
177,236,136624,1,0,1:0:0:0:
172,251,136704,1,0,1:0:0:0:
157,240,136785,1,0,1:0:0:0:
154,257,136866,5,12,1:3:0:0:
274,318,137027,1,12,1:3:0:0:
383,302,137188,1,12,1:3:0:0:
271,333,137350,1,12,1:3:0:0:
139,277,137511,2,0,P|106:238|108:183,1,93.5000028533936,12|2,1:3|1:2,0:0:0:0:
104,161,137753,1,0,1:0:0:0:
104,161,137834,2,0,L|117:108,3,46.7500014266968,4|2|2|2,1:0|1:2|1:2|1:2,0:0:0:0:
140,87,138156,5,4,1:0:0:0:
248,60,138318,1,2,0:0:0:0:
334,163,138479,1,6,3:3:0:0:
443,126,138640,1,0,1:0:0:0:
304,164,138802,2,0,P|262:222|262:264,1,93.5000028533936,6|0,0:3|0:0,0:0:0:0:
261,291,139044,1,4,0:3:0:0:
261,291,139124,1,4,0:3:0:0:
390,251,139285,1,0,1:0:0:0:
222,192,139447,5,6,1:3:0:0:
114,254,139608,1,2,1:2:0:0:
18,136,139769,1,4,3:0:0:0:
128,176,139931,1,0,1:0:0:0:
214,76,140092,1,6,3:3:0:0:
116,34,140253,1,0,1:0:0:0:
105,29,140334,1,0,1:0:0:0:
92,31,140415,1,4,0:3:0:0:
74,26,140495,1,0,1:0:0:0:
58,36,140576,1,0,1:0:0:0:
42,29,140656,1,0,1:0:0:0:
27,39,140737,1,4,1:0:0:0:
417,226,142027,5,4,1:3:0:0:
415,239,142108,1,4,0:3:0:0:
420,259,142189,1,0,1:0:0:0:
415,284,142269,1,4,0:3:0:0:
420,304,142350,1,4,1:0:0:0:
272,296,142673,5,6,3:3:0:0:
265,276,142754,1,0,1:0:0:0:
270,251,142834,1,12,1:3:0:0:
265,231,142915,1,4,3:0:0:0:
267,218,142996,1,4,0:3:0:0:
263,198,143076,1,0,1:0:0:0:
274,180,143156,1,0,1:0:0:0:
269,162,143237,1,4,0:3:0:0:
275,152,143318,6,0,P|281:104|275:38,1,93.5000028533936,4|0,1:0|0:0,0:0:0:0:
95,147,143640,2,0,P|143:153|209:147,1,93.5000028533936,4|2,3:0|1:2,0:0:0:0:
149,41,143963,2,0,P|101:35|35:41,1,93.5000028533936,6|0,3:3|0:0,0:0:0:0:
0,220,144285,1,4,0:3:0:0:
212,283,144447,1,2,3:2:0:0:
212,283,144527,1,0,1:0:0:0:
212,283,144608,2,0,L|163:283,1,46.7500014266968,4|0,1:3|1:0,0:0:0:0:
89,284,144769,1,2,3:0:0:0:
265,352,144931,6,0,P|300:358|336:357,1,46.7500014266968,6|2,3:0|0:0,0:0:0:0:
385,330,145092,2,0,P|413:308|439:282,1,46.7500014266968,0|2,1:0|1:2,0:0:0:0:
395,226,145253,2,0,P|359:219|323:220,1,46.7500014266968,6|2,0:3|1:2,0:0:0:0:
274,247,145414,2,0,P|244:268|218:294,1,46.7500014266968,4|12,1:3|3:0,0:0:0:0:
272,366,145576,2,0,P|307:372|343:371,1,46.7500014266968,4|0,0:3|1:0,0:0:0:0:
392,345,145737,2,0,P|421:324|447:298,1,46.7500014266968,0|0,1:0|1:0,0:0:0:0:
479,256,145898,6,0,P|487:206|463:148,1,93.5000028533936,4|2,1:0|3:0,0:0:0:0:
431,148,146140,1,4,1:3:0:0:
418,156,146221,1,4,3:0:0:0:
405,143,146302,1,0,1:0:0:0:
397,160,146382,1,2,1:3:0:0:
384,143,146463,1,2,0:0:0:0:
377,154,146544,1,4,0:3:0:0:
364,147,146624,1,2,0:0:0:0:
357,158,146705,1,2,1:3:0:0:
346,145,146785,1,4,3:0:0:0:
331,153,146866,2,0,L|253:177,1,46.7500014266968,4|2,1:3|1:2,0:0:0:0:
230,221,147027,2,0,L|152:197,1,46.7500014266968,2|2,1:2|1:2,0:0:0:0:
188,125,147189,6,0,P|193:96|190:67,1,46.7500014266968,14|0,1:3|1:0,0:0:0:0:
117,24,147350,2,0,P|93:23|70:28,1,46.7500014266968,12|0,1:3|1:0,0:0:0:0:
23,113,147511,2,0,L|9:168,1,46.7500014266968,12|0,1:3|1:0,0:0:0:0:
17,254,147673,2,0,L|31:309,1,46.7500014266968,12|8,1:3|0:3,0:0:0:0:
127,280,147834,2,0,P|194:292|232:319,1,93.5000028533936,4|2,1:0|1:2,0:0:0:0:
247,336,148076,1,0,1:0:0:0:
268,363,148156,2,0,L|328:375,1,46.7500014266968,6|2,1:0|1:2,0:0:0:0:
367,297,148318,2,0,L|427:285,1,46.7500014266968,2|0,1:2|1:0,0:0:0:0:
512,335,148479,5,4,1:0:0:0:
488,212,148640,1,8,0:3:0:0:
286,82,149124,5,12,0:3:0:0:
271,182,149285,1,8,0:3:0:0:
90,210,149769,5,12,0:3:0:0:
196,129,150092,5,8,0:3:0:0:
198,269,150415,5,12,0:3:0:0:
198,269,150737,2,0,L|271:258,1,46.7500014266968,12|8,0:3|0:3,0:0:0:0:
217,359,150898,2,0,L|170:365,1,46.7500014266968,4|4,0:3|0:3,0:0:0:0:
104,295,151060,5,4,1:0:0:0:
167,174,151221,1,8,0:3:0:0:
0,257,151544,5,2,0:0:0:0:
0,257,151624,1,0,0:0:0:0:
0,257,151705,1,12,0:3:0:0:
69,131,151866,1,8,0:3:0:0:
389,351,152350,5,12,0:3:0:0:
413,261,152511,1,2,0:0:0:0:
284,184,152673,1,8,0:3:0:0:
308,278,152834,1,2,0:0:0:0:
392,157,152995,2,0,P|389:108|350:58,1,93.5000028533936,12|8,0:3|0:3,0:0:0:0:
335,53,153237,1,4,0:3:0:0:
322,49,153318,1,12,0:3:0:0:
315,58,153398,1,8,0:3:0:0:
305,44,153479,1,4,1:3:0:0:
297,53,153560,1,4,1:3:0:0:
286,42,153640,5,4,3:0:0:0:
286,42,153963,1,0,3:0:0:0:
267,133,154124,1,2,0:0:0:0:
285,220,154285,1,0,3:0:0:0:
285,220,154608,1,4,0:3:0:0:
191,172,154769,1,2,0:0:0:0:
368,173,154931,1,4,3:0:0:0:
205,258,155092,1,2,0:0:0:0:
358,340,155253,1,4,3:0:0:0:
300,231,155415,1,2,0:0:0:0:
425,285,155576,6,0,P|457:285|499:270,2,62.3333352355958,4|0|0,3:0|0:0|0:0,0:0:0:0:
338,344,155898,2,0,P|306:344|264:359,2,62.3333352355958,12|0|0,0:3|0:0|0:0,0:0:0:0:
434,369,156221,6,0,P|460:309|460:171,1,170,4|2,0:0|0:0,0:0:0:0:
446,109,156705,1,4,0:3:0:0:
345,65,156866,2,0,P|295:61|246:73,1,85,0|2,1:0|0:0,0:0:0:0:
225,174,157189,2,0,B|256:179|256:179|270:177|270:177|285:180|285:180|304:177|304:177|326:171,1,85,2|4,0:0|0:3,0:0:0:0:
155,79,157511,5,2,0:0:0:0:
99,165,157673,2,0,P|88:228|102:263,1,85,0|0,1:0|3:0,0:0:0:0:
153,336,157995,1,4,0:3:0:0:
238,276,158156,2,0,P|278:263|319:270,1,85,0|4,1:0|0:3,0:0:0:0:
420,342,158479,1,0,1:0:0:0:
458,227,158640,5,4,0:3:0:0:
458,227,158721,1,4,0:3:0:0:
458,227,158802,1,0,1:0:0:0:
359,145,158963,5,4,0:3:0:0:
360,162,159044,1,0,0:0:0:0:
361,178,159124,1,0,1:0:0:0:
258,108,159285,5,4,0:3:0:0:
256,129,159366,1,0,0:0:0:0:
254,150,159447,1,0,1:0:0:0:
132,79,159608,5,4,0:3:0:0:
134,108,159689,1,4,0:3:0:0:
136,137,159769,2,0,L|143:234,1,85,0|4,1:0|3:0,0:0:0:0:
166,364,160092,6,0,P|127:330|84:320,1,85,4|4,1:0|0:3,0:0:0:0:
52,316,160334,1,0,0:0:0:0:
52,316,160415,1,4,1:3:0:0:
169,249,160576,1,4,0:3:0:0:
320,332,160737,6,0,P|369:309|380:299,2,56.6666666666667,4|2|2,1:3|1:3|1:3,0:0:0:0:
275,296,161060,5,2,1:3:0:0:
277,239,161167,5,2,1:3:0:0:
325,208,161275,5,2,1:3:0:0:
379,230,162673,5,4,0:0:0:0:
375,65,166221,5,12,0:3:0:0:
237,132,166544,5,4,0:0:0:0:
237,132,166866,5,4,1:0:0:0:
356,187,167027,1,0,1:0:0:0:
230,236,167189,2,0,L|204:243,2,21.25,0|2|2,1:0|3:2|3:2,0:0:0:0:
230,236,167511,6,0,L|290:222,1,42.5,4|0,1:0|0:0,0:0:0:0:
344,294,167673,2,0,L|404:308,1,42.5,12|0,0:3|0:0,0:0:0:0:
456,226,167834,6,0,P|467:152|459:107,1,93.5000028533936,4|0,1:0|3:0,0:0:0:0:
451,88,168076,1,4,0:3:0:0:
451,88,168156,1,4,3:0:0:0:
354,164,168318,1,0,1:0:0:0:
238,77,168479,2,0,P|191:77|147:92,1,93.5000028533936,6|0,3:3|1:0,0:0:0:0:
108,118,168721,1,4,3:0:0:0:
108,118,168802,2,0,P|63:132|17:133,1,93.5000028533936,4|0,0:3|1:0,0:0:0:0:
55,4,169124,5,4,1:3:0:0:
196,49,169285,1,0,3:0:0:0:
219,194,169447,1,4,3:0:0:0:
368,232,169608,1,0,1:0:0:0:
200,213,169769,2,0,B|154:219|115:251,1,93.5000028533936,6|0,0:3|1:0,0:0:0:0:
79,280,170011,1,4,3:0:0:0:
79,280,170092,2,0,P|90:218|86:161,1,93.5000028533936,4|0,0:3|1:0,0:0:0:0:
22,57,170415,6,0,P|64:78|111:79,1,93.5000028533936,4|2,1:3|3:0,0:0:0:0:
145,69,170656,1,4,1:3:0:0:
174,52,170737,2,0,P|215:31|262:30,1,93.5000028533936,4|2,3:0|1:3,0:0:0:0:
307,41,170978,1,2,0:0:0:0:
337,56,171060,2,0,P|378:76|425:77,1,93.5000028533936,4|2,0:3|1:3,0:0:0:0:
470,67,171301,1,4,3:0:0:0:
492,69,171382,1,4,1:3:0:0:
503,90,171463,1,0,1:0:0:0:
502,106,171544,1,0,1:0:0:0:
499,128,171624,1,0,1:0:0:0:
499,144,171705,5,12,1:3:0:0:
392,197,171866,1,12,1:3:0:0:
297,140,172027,1,12,1:3:0:0:
401,212,172189,1,12,1:3:0:0:
499,144,172350,1,12,1:3:0:0:
499,128,172431,1,0,0:0:0:0:
502,106,172511,1,2,0:0:0:0:
503,90,172592,1,0,0:0:0:0:
492,69,172673,2,0,P|438:46|370:50,1,93.5000028533936,4|2,1:0|0:0,0:0:0:0:
268,67,172995,6,0,L|224:76,3,42.5,8|8|8|8,0:3|0:3|0:3|0:3,0:0:0:0:
194,53,173318,6,0,P|169:105|123:145,1,93.5000028533936,4|2,1:0|0:0,0:0:0:0:
27,249,173640,2,0,P|71:234|117:233,1,93.5000028533936,4|0,3:0|1:0,0:0:0:0:
159,254,173882,1,0,0:0:0:0:
159,254,173963,2,0,P|220:259|274:247,1,93.5000028533936,4|0,0:3|1:0,0:0:0:0:
388,227,174285,5,4,0:3:0:0:
340,346,174447,1,0,1:0:0:0:
340,346,174527,1,0,0:0:0:0:
340,346,174608,1,4,1:3:0:0:
263,243,174769,1,0,3:0:0:0:
313,124,174931,2,0,P|368:111|431:116,1,93.5000028533936,4|0,3:0|1:0,0:0:0:0:
452,114,175173,1,0,0:0:0:0:
452,114,175253,2,0,L|450:19,1,93.5000028533936,4|0,0:3|1:0,0:0:0:0:
317,5,175576,5,4,0:3:0:0:
289,130,175737,1,0,1:0:0:0:
289,130,175818,1,4,0:3:0:0:
289,130,175898,2,0,B|255:87|193:75,1,93.5000028533936,4|0,1:0|1:0,0:0:0:0:
29,106,176221,2,0,L|35:178,1,46.7500014266968,12|0,3:0|0:0,0:0:0:0:
106,175,176382,2,0,L|102:221,1,46.7500014266968,0|0,1:0|1:0,0:0:0:0:
24,244,176544,2,0,L|30:316,1,46.7500014266968,4|0,1:0|0:0,0:0:0:0:
89,359,176705,1,0,1:0:0:0:
89,359,176785,1,4,0:3:0:0:
89,359,176866,1,4,1:0:0:0:
358,307,177189,6,0,L|260:296,2,93.5000028533936,4|2|4,1:0|0:0|1:0,0:0:0:0:
474,277,177673,1,4,1:3:0:0:
467,258,177753,1,0,1:0:0:0:
476,240,177834,1,4,1:3:0:0:
466,231,177915,1,0,1:0:0:0:
475,212,177995,1,4,1:3:0:0:
469,196,178076,1,0,1:0:0:0:
477,180,178156,6,0,P|477:124|448:76,1,93.5000028533936,4|2,1:0|0:0,0:0:0:0:
427,58,178398,1,0,1:0:0:0:
427,58,178479,1,4,3:0:0:0:
305,108,178640,1,0,1:0:0:0:
305,108,178721,1,0,0:0:0:0:
305,108,178802,2,0,L|285:208,1,93.5000028533936,4|0,0:3|1:0,0:0:0:0:
286,246,179044,1,4,0:3:0:0:
286,246,179124,2,0,L|295:363,1,93.5000028533936,4|0,0:3|1:0,0:0:0:0:
440,275,179447,5,4,1:3:0:0:
309,218,179608,1,0,3:0:0:0:
160,265,179769,1,4,3:0:0:0:
33,229,179931,1,0,1:0:0:0:
186,263,180092,2,0,P|227:317|236:370,1,93.5000028533936,4|0,0:3|1:0,0:0:0:0:
239,364,180334,1,0,1:0:0:0:
239,364,180415,2,0,P|263:325|302:298,1,93.5000028533936,4|0,0:3|1:0,0:0:0:0:
444,256,180737,6,0,P|460:197|453:145,1,93.5000028533936,4|2,1:3|3:0,0:0:0:0:
450,128,180979,1,4,1:3:0:0:
437,92,181060,2,0,P|392:77|346:77,1,93.5000028533936,4|2,3:0|1:3,0:0:0:0:
309,87,181302,1,2,0:0:0:0:
299,122,181382,2,0,P|313:166|313:212,1,93.5000028533936,4|2,0:3|1:3,0:0:0:0:
302,261,181624,1,4,3:0:0:0:
292,285,181705,1,4,1:3:0:0:
294,315,181785,1,0,1:0:0:0:
302,338,181866,1,0,1:0:0:0:
302,367,181947,1,0,1:0:0:0:
294,384,182027,5,12,1:3:0:0:
399,333,182189,1,12,1:3:0:0:
400,230,182350,1,12,1:3:0:0:
406,340,182511,1,12,1:3:0:0:
302,367,182673,1,12,1:3:0:0:
226,273,182834,1,0,1:0:0:0:
226,273,182915,1,0,1:0:0:0:
226,273,182995,2,0,L|276:307,3,46.7500014266968,2|2|2|2,1:2|1:2|1:2|1:2,0:0:0:0:
289,348,183318,6,0,P|232:371|117:311,1,170,4|4,1:0|3:0,0:0:0:0:
21,281,183812,2,0,L|16:179,1,85,0|4,1:0|0:3,0:0:0:0:
107,104,184142,1,0,1:0:0:0:
123,99,184224,1,4,0:3:0:0:
131,104,184307,1,4,0:3:0:0:
139,99,184389,1,0,1:0:0:0:
157,108,184471,1,0,1:0:0:0:
163,98,184554,1,0,1:0:0:0:
179,104,184636,6,0,P|223:96|293:104,1,85,4|12,1:0|0:3,0:0:0:0:
390,224,185036,6,0,P|345:216|276:224,1,85,12|12,0:3|0:3,0:0:0:0:
137,324,185450,6,0,P|181:316|251:324,1,85,12|0,3:0|1:0,0:0:0:0:
358,353,185930,5,4,1:3:0:0:
465,279,186207,6,0,L|470:243,4,21.25,12|2|2|2|2,3:0|2:0|2:0|2:0|2:0,0:0:0:0:
144,39,187469,5,0,1:0:0:0:
168,143,187630,2,0,L|179:198,2,42.5,8|8|0,3:0|3:0|1:0,0:0:0:0:
266,37,187953,5,4,0:3:0:0:
266,37,188033,1,4,0:3:0:0:
266,37,188114,2,0,P|286:90|288:142,1,85,4|2,1:0|3:0,0:0:0:0:
284,155,188356,1,4,1:3:0:0:
281,172,188436,1,4,1:3:0:0:
288,186,188517,1,0,1:0:0:0:
278,204,188598,1,10,1:3:0:0:
286,217,188678,1,0,1:0:0:0:
281,231,188759,2,0,L|279:298,3,42.5,4|12|2|4,1:3|1:3|1:3|3:0,0:0:0:0:
352,308,189082,2,0,L|354:375,3,42.5,12|12|12|12,1:3|1:3|1:3|1:3,0:0:0:0:
267,367,189404,5,12,1:3:0:0:
354,280,189565,1,12,1:3:0:0:
281,172,189727,1,12,1:3:0:0:
362,107,189888,1,12,1:3:0:0:
296,13,190049,1,12,1:3:0:0:
296,13,190372,1,2,1:2:0:0:
279,23,190453,1,2,1:2:0:0:
258,13,190533,1,2,1:2:0:0:
234,22,190614,1,2,1:2:0:0:
217,15,190694,6,0,P|154:11|85:28,1,127.5,4|0,1:0|0:0,0:0:0:0:
59,35,191017,1,0,1:0:0:0:
59,35,191340,1,4,0:3:0:0:
57,53,191420,1,2,0:0:0:0:
61,67,191501,1,2,0:0:0:0:
55,89,191582,1,2,0:0:0:0:
58,109,191662,2,0,L|65:215,1,85,0|2,1:0|0:0,0:0:0:0:
46,318,191985,6,0,P|104:286|181:300,1,127.5,4|0,1:0|0:0,0:0:0:0:
203,312,192307,1,0,1:0:0:0:
203,312,192630,1,4,0:3:0:0:
221,328,192711,1,2,0:0:0:0:
251,328,192791,1,2,0:0:0:0:
272,340,192872,1,2,0:0:0:0:
295,338,192953,2,0,P|369:325|393:315,1,85,0|0,1:0|0:0,0:0:0:0:
460,220,193275,6,0,P|406:201|322:222,1,127.5,4|0,1:0|0:0,0:0:0:0:
299,233,193598,1,0,1:0:0:0:
299,233,193920,1,4,0:3:0:0:
275,241,194001,1,2,0:0:0:0:
250,229,194082,1,2,0:0:0:0:
223,237,194162,1,2,0:0:0:0:
192,226,194243,1,0,1:0:0:0:
142,113,194404,1,2,0:0:0:0:
273,78,194565,5,4,1:0:0:0:
154,129,194727,1,2,0:0:0:0:
28,115,194888,1,0,1:0:0:0:
20,93,194969,1,2,0:0:0:0:
27,74,195049,1,2,0:0:0:0:
14,62,195130,1,2,0:0:0:0:
23,36,195211,1,4,0:3:0:0:
23,36,195533,1,0,1:0:0:0:
162,121,195694,5,2,0:0:0:0:
173,127,195775,1,0,1:0:0:0:
192,115,195856,2,0,P|137:99|11:123,1,170,4|0,1:0|0:0,0:0:0:0:
27,114,196501,1,4,0:3:0:0:
27,142,196582,1,2,0:0:0:0:
30,159,196662,1,2,0:0:0:0:
23,180,196743,1,2,0:0:0:0:
26,195,196824,1,0,1:0:0:0:
166,204,196985,1,0,0:0:0:0:
181,320,197146,6,0,P|111:312|34:355,1,127.5,4|0,1:0|0:0,0:0:0:0:
28,361,197469,1,0,1:0:0:0:
28,361,197791,1,4,0:3:0:0:
25,346,197872,1,2,0:0:0:0:
32,325,197953,1,2,0:0:0:0:
29,308,198033,1,2,0:0:0:0:
35,294,198114,2,0,L|34:184,1,85,0|2,1:0|0:0,0:0:0:0:
276,174,198436,6,0,P|200:191|133:182,1,127.5,4|0,1:0|0:0,0:0:0:0:
113,175,198759,1,0,1:0:0:0:
39,59,198920,2,0,L|104:43,1,42.5,2|2,1:0|1:2,0:0:0:0:
141,97,199082,2,0,L|206:113,1,42.5,6|2,1:3|1:2,0:0:0:0:
249,62,199243,1,2,1:2:0:0:
356,131,199404,1,0,1:0:0:0:
356,103,199485,1,0,1:0:0:0:
355,80,199565,1,2,0:0:0:0:
359,62,199646,1,0,1:0:0:0:
354,37,199727,6,0,L|349:-9,3,42.5,4|0|0|0,1:0|1:0|0:0|1:0,0:0:0:0:
443,17,200049,2,0,L|438:63,3,42.5,8|4|2|8,1:3|1:3|1:2|1:3,0:0:0:0:
457,137,200372,2,0,L|462:183,3,42.5,14|8|8|8,1:3|1:3|1:3|1:3,0:0:0:0:
403,238,200694,2,0,L|398:284,3,42.5,2|0|2|2,1:2|1:0|1:2|1:2,0:0:0:0:
333,338,201017,6,0,P|276:346|212:329,1,85,4|2,1:0|0:0,0:0:0:0:
201,194,201340,2,0,P|258:186|322:203,1,85,0|2,1:0|0:0,0:0:0:0:
171,346,201662,1,4,0:3:0:0:
146,351,201743,1,2,0:0:0:0:
132,351,201824,1,2,0:0:0:0:
115,345,201904,1,2,0:0:0:0:
96,352,201985,2,0,P|36:351|-18:338,1,85,0|0,1:0|0:0,0:0:0:0:
16,129,202307,6,0,P|32:189|30:251,1,85,4|2,1:0|0:0,0:0:0:0:
131,99,202630,2,0,P|144:58|165:21,1,85,0|2,1:0|0:0,0:0:0:0:
314,46,202953,1,4,0:3:0:0:
317,67,203033,1,2,0:0:0:0:
315,89,203114,1,2,0:0:0:0:
317,101,203194,1,2,0:0:0:0:
317,115,203275,2,0,P|303:155|282:192,1,85,0|0,1:0|0:0,0:0:0:0:
411,127,203598,6,0,L|526:104,1,85,4|0,1:0|0:0,0:0:0:0:
354,232,203920,2,0,L|239:209,1,85,0|2,1:0|0:0,0:0:0:0:
445,219,204243,1,4,0:3:0:0:
456,242,204323,1,2,0:0:0:0:
452,265,204404,1,2,0:0:0:0:
457,291,204484,1,2,0:0:0:0:
453,321,204565,2,0,L|338:344,1,85,0|2,1:0|0:0,0:0:0:0:
196,324,204888,5,4,1:0:0:0:
327,332,205049,1,2,0:0:0:0:
232,226,205211,1,0,1:0:0:0:
206,218,205291,1,2,0:0:0:0:
176,225,205372,1,2,0:0:0:0:
157,215,205453,1,2,0:0:0:0:
135,226,205533,2,0,L|27:262,1,85,4|0,0:3|0:0,0:0:0:0:
9,145,205856,1,0,1:0:0:0:
111,88,206017,5,2,0:0:0:0:
117,113,206098,1,0,1:0:0:0:
107,131,206178,2,0,P|114:88|224:25,1,170,4|0,1:0|1:0,0:0:0:0:
340,144,206662,1,8,0:3:0:0:
340,144,206743,1,8,0:3:0:0:
340,144,206823,2,0,L|276:155,3,42.5,4|2|2|4,0:3|0:0|1:2|0:3,0:0:0:0:
255,155,207146,1,4,1:0:0:0:
263,291,207307,5,0,1:0:0:0:
263,291,207388,1,0,1:0:0:0:
263,291,207469,2,0,L|360:287,1,85,4|2,1:0|1:2,0:0:0:0:
390,287,207711,1,0,1:0:0:0:
410,280,207791,1,0,1:0:0:0:
423,292,207872,1,0,1:0:0:0:
434,280,207953,1,2,1:2:0:0:
443,287,208033,1,2,1:2:0:0:
450,277,208114,1,2,1:0:0:0:
455,287,208194,1,2,1:2:0:0:
461,284,208275,1,2,1:2:0:0:
465,287,208356,1,2,1:2:0:0:
472,283,208436,1,0,1:0:0:0:
473,288,208517,1,0,1:0:0:0:
475,282,208598,1,2,0:0:0:0:
479,287,208678,1,0,1:0:0:0:
481,278,208759,6,0,L|488:327,3,42.5,4|2|0|0,1:0|1:2|1:0|1:2,0:0:0:0:
476,357,209082,1,0,1:0:0:0:
335,330,209243,6,0,L|328:281,3,42.5,4|2|0|0,1:0|1:2|1:0|1:2,0:0:0:0:
340,251,209566,1,0,1:0:0:0:
426,198,209727,6,0,L|433:149,3,42.5,4|2|0|0,1:0|1:2|1:0|1:2,0:0:0:0:
421,119,210050,1,2,1:0:0:0:
279,40,210211,5,4,1:0:0:0:
273,57,210291,1,2,1:2:0:0:
280,73,210372,1,0,1:0:0:0:
276,91,210453,1,0,1:2:0:0:
277,106,210533,1,2,1:0:0:0:
200,191,210694,6,0,L|150:202,3,42.5,12|12|12|12,0:3|0:3|0:3|0:3,0:0:0:0:
128,167,211017,2,0,L|78:156,3,42.5,0|0|0|0,1:0|1:0|1:0|1:0,0:0:0:0:
46,187,211340,6,0,L|35:237,3,42.5,4|2|0|0,1:0|1:2|1:0|1:2,0:0:0:0:
65,265,211662,1,0,1:0:0:0:
145,338,211823,6,0,L|195:349,3,42.5,4|2|0|0,1:0|1:2|1:0|1:2,0:0:0:0:
223,319,212145,1,0,0:0:0:0:
305,238,212307,6,0,L|316:188,3,42.5,4|2|0|0,1:0|1:2|1:0|1:2,0:0:0:0:
286,160,212629,1,0,0:0:0:0:
204,87,212791,5,4,1:0:0:0:
182,75,212872,1,2,1:2:0:0:
161,94,212952,1,0,0:0:0:0:
143,68,213033,1,0,1:2:0:0:
122,99,213114,1,6,1:1:0:0:
