osu file format v14

[General]
AudioFilename: ayaponzu.mp3
AudioLeadIn: 0
PreviewTime: 212803
Countdown: 0
SampleSet: Soft
StackLeniency: 0.4
Mode: 0
LetterboxInBreaks: 0
WidescreenStoryboard: 0

[Editor]
Bookmarks: 8000,18608,23912,31868,45127,57061,75625,78277,88884,100155,108110,110762,121370,129326,133304,151867,154519,157834,163137,168441,179049,184353,189657,197638,205568,213524,218828,221480,224132,232088,233415,236066,246673,257281
DistanceSpacing: 0.4
BeatDivisor: 4
GridSize: 32
TimelineZoom: 2

[Metadata]
Title:Haikei Doppelganger
TitleUnicode:拝啓ドッペルゲンガー
Artist:ayaponzu*
ArtistUnicode:あやぽんず*
Creator:Stack
Version:Who Are You?
Source:
Tags:impurePug kemu voxx utaite female vocalist mustacho yukiya Elayue bashe Aunn japanese rock vocaloid GUMI
BeatmapID:2124108
BeatmapSetID:1014945

[Difficulty]
HPDrainRate:5
CircleSize:4
OverallDifficulty:9.3
ApproachRate:9.6
SliderMultiplier:2
SliderTickRate:1

[Events]
//Background and Video events
0,0,"Konachan.com - 283619 2girls aliasing barefoot dress green_eyes long_hair neon_(pixiv31150749) original pointed_ears red_eyes twins white_hair wings.jpg",0,0
//Break Periods
//Storyboard Layer 0 (Background)
//Storyboard Layer 1 (Fail)
//Storyboard Layer 2 (Pass)
//Storyboard Layer 3 (Foreground)
//Storyboard Layer 4 (Overlay)
//Storyboard Sound Samples

[TimingPoints]
58,331.491712707182,4,2,1,70,1,0
7682,-333.333333333333,4,2,1,90,0,0
8013,-83.3333333333333,4,2,1,90,0,0
18621,-83.3333333333333,4,2,1,60,0,0
21107,-100,4,2,1,70,0,0
23925,-90.9090909090909,4,2,1,70,0,0
31881,-83.3333333333333,4,2,1,90,0,0
34533,-83.3333333333333,4,2,1,70,0,0
42488,-83.3333333333333,4,2,1,90,0,0
45140,-100,4,2,1,70,0,0
50113,-100,4,2,1,70,0,0
50444,-100,4,2,1,70,0,0
54422,-76.9230769230769,4,2,1,80,0,0
55748,-55.5555555555556,4,2,1,80,0,0
57074,-62.5,4,2,2,90,0,1
57240,-62.5,4,2,1,90,0,1
59063,-52.6315789473684,4,2,1,90,0,1
59395,-62.5,4,2,1,90,0,1
61715,-52.6315789473684,4,2,1,90,0,1
62046,-62.5,4,2,1,90,0,1
64408,-62.5,4,2,1,5,0,1
64450,-62.5,4,2,1,90,0,1
64574,-62.5,4,2,1,5,0,1
64616,-62.5,4,2,1,90,0,1
64740,-62.5,4,2,1,5,0,1
64781,-62.5,4,2,1,90,0,1
67682,-62.5,4,2,2,90,0,1
67848,-62.5,4,2,1,90,0,1
69671,-52.6315789473684,4,2,1,90,0,1
70002,-62.5,4,2,1,90,0,1
77958,-333.333333333333,4,2,1,70,0,0
78290,-83.3333333333333,4,2,1,90,0,0
88897,-166.666666666667,4,2,1,80,0,0
97516,-125,4,2,1,80,0,0
100168,331.491712707182,4,2,1,70,1,0
100168,-125,4,2,1,70,0,0
102322,-90.9090909090909,4,2,1,70,0,0
102819,-125,4,2,1,70,0,0
102902,-125,4,2,1,5,0,0
102985,-125,4,2,1,70,0,0
104974,-90.9090909090909,4,2,1,70,0,0
105471,-125,4,2,1,70,0,0
105554,-125,4,2,1,5,0,0
105637,-125,4,2,1,70,0,0
106466,-83.3333333333333,4,2,1,70,0,0
107377,-333.333333333333,4,2,1,70,0,0
108123,-83.3333333333333,4,2,1,90,0,0
110444,-71.4285714285714,4,2,1,90,0,0
110775,-83.3333333333333,4,2,1,70,0,0
118731,-83.3333333333333,4,2,1,90,0,0
121383,-100,4,2,1,70,0,0
130665,-76.9230769230769,4,2,1,80,0,0
131991,-55.5555555555556,4,2,1,90,0,0
133317,-62.5,4,2,2,90,0,1
133482,-62.5,4,2,1,90,0,1
135306,-52.6315789473684,4,2,1,90,0,1
135637,-62.5,4,2,1,90,0,1
137958,-52.6315789473684,4,2,1,90,0,1
138289,-62.5,4,2,1,90,0,1
140651,-62.5,4,2,1,5,0,1
140775,-62.5,4,2,1,90,0,1
140817,-62.5,4,2,1,5,0,1
140941,-62.5,4,2,1,90,0,1
140983,-62.5,4,2,1,5,0,1
141107,-62.5,4,2,1,90,0,1
143924,-62.5,4,2,2,90,0,1
144090,-62.5,4,2,1,90,0,1
145913,-52.6315789473684,4,2,1,90,0,1
146245,-62.5,4,2,1,90,0,1
154201,-333.333333333333,4,2,1,70,0,0
154532,-83.3333333333333,4,2,1,85,0,0
157847,331.491712707182,4,2,3,70,1,0
157847,-250,4,2,3,70,0,0
159172,324.324324324324,4,2,3,70,1,0
159172,-250,4,2,3,70,0,0
160469,331.491712707182,4,2,3,70,1,0
160469,-250,4,2,3,70,0,0
162457,-500,4,2,1,70,0,0
163150,331.491712707182,4,1,1,70,1,0
163150,-100,4,1,1,70,0,0
167128,-83.3333333333333,4,2,1,70,0,0
168454,-83.3333333333333,4,2,2,90,0,0
168786,-83.3333333333333,4,2,1,70,0,0
170775,-200,4,2,1,70,0,0
171106,-83.3333333333333,4,2,2,90,0,0
171327,-83.3333333333333,4,2,1,70,0,0
173427,-166.666666666667,4,2,1,70,0,0
173758,-83.3333333333333,4,2,2,90,0,0
174090,-83.3333333333333,4,2,1,70,0,0
176079,-166.666666666667,4,2,1,70,0,0
176410,-83.3333333333333,4,2,2,90,0,0
176742,-83.3333333333333,4,2,1,70,0,0
179062,-76.9230769230769,4,2,2,90,0,0
179393,-76.9230769230769,4,2,1,70,0,0
181382,-166.666666666667,4,2,1,70,0,0
181714,-71.4285714285714,4,2,2,90,0,0
182045,-71.4285714285714,4,2,1,70,0,0
184034,-166.666666666667,4,2,1,70,0,0
184366,-66.6666666666667,4,2,2,90,0,0
184697,-66.6666666666667,4,2,1,70,0,0
186686,-166.666666666667,4,2,1,70,0,0
187018,-62.5,4,2,2,90,0,0
187349,-62.5,4,2,1,70,0,0
189007,-125,4,2,1,70,0,0
189338,-90.9090909090909,4,2,1,90,0,0
189670,-71.4285714285714,4,2,2,80,0,0
189918,-71.4285714285714,4,2,1,90,0,0
194974,-100,4,2,1,90,0,0
196300,-62.5,4,2,1,90,0,0
196631,-71.4285714285714,4,2,1,90,0,0
200277,-62.5,4,2,2,90,0,0
200443,-62.5,4,2,1,90,0,0
202764,-55.5555555555556,4,2,1,90,0,0
202929,-62.5,4,2,1,90,0,0
207902,-100,4,2,1,90,0,0
208233,-62.5,4,2,1,90,0,0
209559,-62.5,4,2,2,90,0,0
209642,-62.5,4,2,1,90,0,0
212211,-45.4545454545455,4,2,1,90,0,0
213206,-45.4545454545455,4,2,2,90,0,0
213537,-33.3333333333333,4,2,3,80,0,0
213620,-33.3333333333333,4,2,1,5,0,0
213703,-33.3333333333333,4,2,2,85,0,0
214780,-33.3333333333333,4,2,1,5,0,0
214863,-33.3333333333333,4,2,1,70,0,0
215195,-66.6666666666667,4,2,1,80,0,0
215692,-50,4,2,1,80,0,0
216189,-33.3333333333333,4,2,3,80,0,0
216272,-33.3333333333333,4,2,1,5,0,0
216355,-33.3333333333333,4,2,1,80,0,0
217349,-50,4,2,1,90,0,0
217598,-50,4,2,1,5,0,0
217681,-50,4,2,1,90,0,0
221493,-500,4,2,1,90,0,0
222322,-50,4,2,1,90,0,0
222819,-66.6666666666667,4,2,1,90,0,0
224144,-58.8235294117647,4,2,2,95,0,1
224311,-58.8235294117647,4,2,1,95,0,1
226134,-50,4,2,1,95,0,1
226465,-58.8235294117647,4,2,1,95,0,1
227957,-50,4,2,1,95,0,1
228288,-58.8235294117647,4,2,1,95,0,1
232101,-50,4,2,1,95,0,1
233426,-50,4,2,1,95,0,0
234753,-55.5555555555556,4,2,1,70,0,0
234794,-55.5555555555556,4,2,1,5,0,0
235084,-55.5555555555556,4,2,1,75,0,0
235126,-55.5555555555556,4,2,1,5,0,0
235416,-55.5555555555556,4,2,1,80,0,0
235457,-55.5555555555556,4,2,1,5,0,0
235747,-333.333333333333,4,2,1,85,0,0
236079,-66.6666666666667,4,2,1,90,0,0
241382,-62.5,4,2,1,90,0,0
246685,-58.8235294117647,4,2,1,90,0,1
251990,-55.5555555555556,4,2,1,90,0,1
257293,-66.6666666666667,4,2,1,90,0,0
259449,-15,4,2,1,90,0,0

[Colours]
Combo1 : 192,192,192
Combo2 : 199,142,230
Combo3 : 216,197,237
Combo4 : 72,130,193
Combo5 : 106,177,249

[HitObjects]
256,192,2709,12,0,6522,0:0:0:0:
75,85,6687,5,8,0:0:0:0:
103,75,6770,1,0,1:0:0:0:
133,75,6853,1,0,1:0:0:0:
161,85,6936,1,0,1:0:0:0:
194,107,7019,5,8,0:0:0:0:
222,117,7102,1,0,1:0:0:0:
252,117,7185,1,0,1:0:0:0:
280,107,7268,1,0,1:0:0:0:
311,83,7350,5,4,0:3:0:0:
339,73,7433,1,0,1:0:0:0:
369,73,7516,1,0,1:0:0:0:
397,83,7599,1,0,1:0:0:0:
436,112,7682,6,0,L|446:57,1,44.999998626709,12|0,0:0|0:0,0:0:0:0:
436,29,8013,6,0,L|458:167,1,119.999996337891,4|2,1:1|0:3,0:0:0:0:
336,274,8345,1,8,3:2:0:0:
343,238,8428,1,0,3:2:0:0:
350,202,8511,1,2,3:3:0:0:
461,360,8676,1,0,1:0:0:0:
251,266,8842,1,2,0:3:0:0:
251,266,8925,1,0,0:0:0:0:
251,266,9008,2,0,P|191:270|152:376,1,179.999994506836,8|0,0:0|0:0,0:0:0:0:
167,380,9339,6,0,L|154:246,1,119.999996337891,0|2,1:0|0:3,0:0:0:0:
23,158,9671,1,8,0:0:0:0:
20,175,9754,1,0,0:0:0:0:
17,192,9837,1,2,0:3:0:0:
71,321,10002,2,0,L|82:262,1,59.9999981689454,0|0,1:0|0:0,0:0:0:0:
139,106,10168,2,0,L|145:171,1,59.9999981689454,2|0,0:3|0:0,0:0:0:0:
256,269,10334,2,0,P|235:223|258:148,1,119.999996337891,8|2,0:0|0:3,0:0:0:0:
396,113,10665,5,0,1:0:0:0:
425,116,10748,1,0,0:0:0:0:
454,119,10831,1,2,0:3:0:0:
483,122,10914,1,0,0:0:0:0:
512,125,10997,1,8,0:0:0:0:
243,12,11162,5,2,0:3:0:0:
272,9,11245,1,0,0:0:0:0:
301,6,11328,1,0,1:0:0:0:
330,3,11411,1,0,0:0:0:0:
359,0,11494,1,2,0:3:0:0:
354,135,11660,6,0,L|426:145,1,59.9999981689454,8|0,0:0|0:0,0:0:0:0:
500,16,11825,2,0,L|428:26,1,59.9999981689454,2|0,0:3|0:0,0:0:0:0:
225,99,11991,2,0,P|257:144|259:208,1,119.999996337891,0|2,1:0|0:3,0:0:0:0:
360,355,12323,5,8,0:0:0:0:
343,318,12406,1,0,0:0:0:0:
343,278,12488,1,2,0:3:0:0:
358,240,12571,1,0,0:0:0:0:
389,214,12654,5,0,1:0:0:0:
395,230,12737,1,8,0:0:0:0:
512,316,12903,5,0,1:0:0:0:
507,332,12986,2,0,L|436:322,1,59.9999981689454,8|0,0:0|0:0,0:0:0:0:
343,278,13151,2,0,L|272:288,1,59.9999981689454,2|0,1:3|0:0,0:0:0:0:
160,357,13317,6,0,L|167:230,1,119.999996337891,4|2,1:2|0:3,0:0:0:0:
8,124,13649,1,8,0:0:0:0:
15,160,13732,1,0,0:0:0:0:
22,196,13815,1,2,0:3:0:0:
139,36,13980,1,0,1:0:0:0:
254,201,14146,1,2,0:3:0:0:
254,201,14229,1,0,0:0:0:0:
254,201,14312,2,0,P|315:227|377:148,1,179.999994506836,8|0,0:0|0:0,0:0:0:0:
365,123,14643,6,0,L|372:251,1,119.999996337891,0|2,1:0|0:3,0:0:0:0:
486,344,14975,1,8,0:0:0:0:
489,327,15058,1,0,0:0:0:0:
492,310,15141,1,2,0:3:0:0:
377,149,15306,2,0,L|380:215,1,59.9999981689454,0|0,1:0|0:0,0:0:0:0:
495,292,15472,2,0,L|498:226,1,59.9999981689454,2|0,0:3|0:0,0:0:0:0:
347,324,15638,2,0,P|294:346|228:356,1,119.999996337891,8|2,0:0|0:3,0:0:0:0:
132,239,15969,5,0,1:0:0:0:
135,268,16052,1,0,0:0:0:0:
138,297,16135,1,2,0:3:0:0:
141,326,16218,1,0,0:0:0:0:
144,355,16301,1,8,0:0:0:0:
12,178,16466,5,2,0:3:0:0:
9,207,16549,1,0,0:0:0:0:
6,236,16632,1,0,1:0:0:0:
3,265,16715,1,0,0:0:0:0:
0,294,16798,1,2,0:3:0:0:
173,94,16964,6,0,L|180:162,1,59.9999981689454,8|0,0:0|0:0,0:0:0:0:
13,59,17129,2,0,L|20:0,1,59.9999981689454,2|0,0:3|0:0,0:0:0:0:
198,103,17295,2,0,L|210:226,1,119.999996337891,0|8,1:0|0:0,0:0:0:0:
237,297,17544,1,8,0:0:0:0:
252,322,17627,1,8,0:0:0:0:
276,338,17709,1,8,0:0:0:0:
305,348,17792,1,8,0:0:0:0:
334,352,17875,1,8,0:0:0:0:
364,343,17958,1,8,0:3:0:0:
394,318,18041,1,8,0:3:0:0:
410,284,18124,1,8,0:3:0:0:
408,236,18207,1,8,0:3:0:0:
390,192,18290,1,4,0:3:0:0:
367,151,18372,1,4,0:3:0:0:
358,97,18455,1,4,0:3:0:0:
379,47,18538,1,4,0:3:0:0:
425,18,18621,5,4,1:1:0:0:
431,58,18953,1,2,1:2:0:0:
437,98,19284,1,0,1:0:0:0:
443,138,19616,1,2,1:2:0:0:
353,203,19947,5,0,1:0:0:0:
347,243,20279,1,2,1:2:0:0:
341,283,20610,1,0,1:0:0:0:
335,323,20941,1,8,1:3:0:0:
422,356,21107,5,8,0:0:0:0:
422,356,21190,1,8,0:0:0:0:
422,356,21273,2,0,P|436:302|420:261,1,100,4|0,1:2|0:0,0:0:0:0:
353,203,21522,1,8,0:0:0:0:
353,203,21604,1,0,1:0:0:0:
271,346,21770,2,0,L|144:352,1,100,8|0,0:3|1:0,0:0:0:0:
91,359,22019,1,8,0:0:0:0:
91,359,22102,1,8,0:0:0:0:
140,255,22267,1,8,0:3:0:0:
4,314,22433,1,4,3:3:0:0:
4,314,22516,1,0,3:0:0:0:
4,314,22599,5,4,3:2:0:0:
53,115,22765,1,8,0:0:0:0:
59,126,22848,2,0,L|59:183,1,50,8|0,0:0|1:0,0:0:0:0:
61,254,23013,1,8,0:0:0:0:
69,264,23096,1,8,0:0:0:0:
136,66,23262,5,0,1:0:0:0:
170,44,23345,1,0,1:0:0:0:
209,38,23428,1,8,0:0:0:0:
246,50,23511,1,8,0:0:0:0:
277,73,23593,1,0,1:0:0:0:
315,82,23676,1,0,1:0:0:0:
354,73,23759,1,8,0:0:0:0:
385,48,23842,1,8,0:0:0:0:
398,4,23925,5,4,1:1:0:0:
496,140,24091,1,2,0:3:0:0:
496,140,24174,2,0,B|473:170|473:170|470:255,1,110.000003356934,2|0,1:2|0:0,0:0:0:0:
426,316,24422,2,0,L|359:315,1,55.0000016784668,2|0,1:3|0:0,0:0:0:0:
289,279,24588,1,2,0:0:0:0:
193,240,24754,1,2,1:3:0:0:
113,307,24919,1,10,0:0:0:0:
19,271,25085,1,2,3:3:0:0:
19,271,25168,1,8,0:0:0:0:
19,271,25251,1,0,1:0:0:0:
289,279,25417,6,0,P|283:317|283:338,1,55.0000016784668,2|0,3:3|1:0,0:0:0:0:
193,240,25583,1,10,0:0:0:0:
113,306,25748,2,0,B|93:259|93:259|94:201,1,110.000003356934,2|0,1:3|0:0,0:0:0:0:
143,126,25997,1,8,0:0:0:0:
143,126,26080,2,0,P|89:148|20:125,2,110.000003356934,2|10|2,1:3|0:0|0:3,0:0:0:0:
304,0,26577,6,0,P|286:51|305:103,1,110.000003356934,2|2,1:2|0:3,0:0:0:0:
357,153,26825,2,0,P|408:171|460:152,1,110.000003356934,2|0,1:2|0:0,0:0:0:0:
505,85,27074,2,0,P|475:74|440:75,1,55.0000016784668,2|0,1:3|0:0,0:0:0:0:
357,153,27240,1,2,0:0:0:0:
327,240,27406,1,2,1:3:0:0:
378,312,27571,1,10,0:0:0:0:
488,313,27737,1,2,3:3:0:0:
488,313,27820,1,8,0:0:0:0:
488,313,27903,1,0,1:0:0:0:
357,153,28069,6,0,P|348:131|345:100,1,55.0000016784668,2|0,0:3|1:0,0:0:0:0:
327,240,28235,1,10,0:0:0:0:
260,309,28400,2,0,P|191:315|140:300,1,110.000003356934,2|0,1:3|0:0,0:0:0:0:
31,151,28732,1,2,1:3:0:0:
195,225,28897,1,10,0:0:0:0:
85,235,29063,1,2,0:3:0:0:
155,77,29229,5,4,1:2:0:0:
62,256,29477,1,0,1:2:0:0:
62,256,29560,2,0,L|42:384,2,110.000003356934,10|2|2,0:0|1:3|0:0,0:0:0:0:
152,100,30057,1,2,1:3:0:0:
226,219,30223,1,8,0:0:0:0:
291,51,30389,1,2,3:3:0:0:
291,51,30472,1,8,0:0:0:0:
291,51,30555,6,0,P|342:40|401:56,1,110.000003356934,2|10,1:2|0:3,0:0:0:0:
443,122,30804,2,0,B|442:173|442:173|448:184|448:184|448:245,1,110.000003356934,2|2,0:0|0:0,0:0:0:0:
411,311,31052,1,10,0:0:0:0:
411,311,31135,1,8,0:0:0:0:
411,311,31218,5,2,1:2:0:0:
378,317,31301,1,0,1:0:0:0:
345,315,31383,1,2,1:2:0:0:
314,301,31466,1,0,1:0:0:0:
265,274,31549,5,10,0:0:0:0:
212,258,31632,1,8,0:0:0:0:
155,258,31715,1,10,0:0:0:0:
110,289,31798,1,8,0:0:0:0:
93,340,31881,6,0,P|110:292|96:210,1,119.999996337891,4|2,1:1|0:0,0:0:0:0:
4,84,32212,1,10,0:0:0:0:
4,125,32295,1,2,0:0:0:0:
30,152,32378,1,2,1:2:0:0:
246,61,32543,1,2,0:0:0:0:
246,61,32627,1,10,0:0:0:0:
246,61,32709,1,2,1:2:0:0:
246,61,32792,1,2,0:0:0:0:
246,61,32875,2,0,B|213:91|213:91|227:171,1,119.999996337891,10|8,0:0|0:3,0:0:0:0:
276,232,33124,1,0,1:0:0:0:
276,232,33207,6,0,L|403:219,1,119.999996337891,4|2,1:2|0:0,0:0:0:0:
409,38,33538,1,10,0:0:0:0:
390,69,33621,1,2,0:0:0:0:
390,105,33704,1,2,1:2:0:0:
483,224,33870,2,0,P|491:257|494:283,1,59.9999981689454,2|2,1:2|0:0,0:0:0:0:
354,384,34035,2,0,P|359:349|365:324,1,59.9999981689454,10|2,0:0|0:0,0:0:0:0:
208,195,34201,2,0,P|234:255|247:310,1,119.999996337891,2|8,1:2|0:3,0:0:0:0:
204,375,34450,1,2,0:0:0:0:
204,375,34533,6,0,L|72:373,1,119.999996337891,4|2,1:1|0:3,0:0:0:0:
21,280,34864,1,10,0:0:0:0:
28,238,34947,1,2,0:0:0:0:
16,197,35030,1,2,1:3:0:0:
26,156,35113,1,2,0:0:0:0:
10,117,35196,1,2,0:0:0:0:
133,281,35361,1,2,1:3:0:0:
133,281,35527,1,10,0:0:0:0:
235,78,35693,6,0,P|219:137|206:204,1,119.999996337891,2|0,0:3|1:0,0:0:0:0:
262,311,36024,1,2,0:3:0:0:
262,311,36190,1,10,0:0:0:0:
371,162,36356,2,0,P|355:103|342:36,1,119.999996337891,2|0,1:3|0:0,0:0:0:0:
494,227,36687,1,2,1:3:0:0:
390,181,36853,1,10,0:0:0:0:
287,228,37019,1,2,0:3:0:0:
287,228,37102,1,2,0:0:0:0:
287,228,37185,6,0,B|283:281|283:281|287:301|287:301|283:352,1,119.999996337891,2|2,1:2|0:3,0:0:0:0:
259,367,37433,1,2,1:2:0:0:
259,367,37516,1,10,0:0:0:0:
217,360,37599,1,2,0:0:0:0:
176,372,37682,1,2,1:3:0:0:
135,362,37765,1,2,0:0:0:0:
96,378,37848,1,2,0:0:0:0:
258,231,38013,1,2,1:3:0:0:
258,231,38179,1,10,0:0:0:0:
101,109,38345,6,0,P|85:168|100:228,1,119.999996337891,2|0,0:3|1:0,0:0:0:0:
211,138,38676,1,2,1:3:0:0:
211,138,38842,1,10,0:0:0:0:
344,289,39008,2,0,P|356:231|341:173,1,119.999996337891,2|0,1:3|0:0,0:0:0:0:
211,138,39339,1,2,1:3:0:0:
322,164,39505,1,10,0:0:0:0:
392,74,39671,1,2,0:3:0:0:
267,11,39837,5,6,1:2:0:0:
434,192,40085,1,2,1:2:0:0:
434,192,40168,2,0,L|450:332,2,119.999996337891,8|2|2,0:0|1:3|0:0,0:0:0:0:
392,74,40665,1,2,1:3:0:0:
317,227,40831,5,10,0:0:0:0:
317,227,40997,1,2,0:3:0:0:
229,38,41162,2,0,P|198:27|105:12,1,119.999996337891,6|2,1:2|0:3,0:0:0:0:
0,166,41494,1,12,0:1:0:0:
2,178,41577,1,10,0:0:0:0:
3,190,41660,1,2,1:3:0:0:
4,202,41743,1,2,1:2:0:0:
5,213,41825,5,10,0:0:0:0:
30,228,41908,1,8,0:0:0:0:
59,229,41991,1,8,0:0:0:0:
85,214,42074,1,8,0:0:0:0:
112,182,42157,1,8,0:3:0:0:
149,164,42240,1,8,0:3:0:0:
190,166,42323,1,4,0:3:0:0:
226,186,42406,1,4,0:3:0:0:
248,226,42488,6,0,P|226:156|237:100,1,119.999996337891,4|0,1:1|0:0,0:0:0:0:
402,80,42820,1,10,0:0:0:0:
366,87,42903,1,2,0:0:0:0:
330,94,42986,1,2,1:2:0:0:
248,226,43151,1,2,0:0:0:0:
429,377,43317,1,2,1:2:0:0:
429,377,43400,1,2,0:0:0:0:
429,377,43483,2,0,P|444:315|422:260,1,119.999996337891,10|10,0:0|0:0,0:0:0:0:
367,213,43732,1,10,0:0:0:0:
367,213,43814,6,0,L|240:226,1,119.999996337891,2|2,1:2|1:2,0:0:0:0:
84,318,44146,1,10,0:0:0:0:
118,306,44229,1,2,0:0:0:0:
141,278,44312,1,10,0:0:0:0:
48,133,44477,2,0,P|56:166|59:192,1,59.9999981689454,2|10,1:2|0:0,0:0:0:0:
107,364,44643,2,0,P|112:329|118:304,1,59.9999981689454,8|4,0:3|0:3,0:0:0:0:
269,137,44809,2,0,P|206:182|158:176,1,119.999996337891,2|2,1:2|0:0,0:0:0:0:
48,133,45140,5,4,1:3:0:0:
52,151,45223,1,0,3:0:0:0:
147,57,45389,1,0,3:0:0:0:
153,38,45472,2,0,P|221:27|254:27,1,100,2|2,0:0|0:0,0:0:0:0:
283,33,45720,1,0,3:0:0:0:
283,33,45803,1,4,1:3:0:0:
476,58,45969,1,0,3:0:0:0:
466,89,46052,1,0,3:0:0:0:
441,110,46135,1,2,0:0:0:0:
408,114,46218,1,0,3:0:0:0:
376,107,46301,1,0,3:0:0:0:
404,23,46466,5,4,1:3:0:0:
404,23,46549,1,0,0:0:0:0:
404,23,46632,1,2,0:0:0:0:
479,150,46798,1,0,0:0:0:0:
479,150,46881,1,0,0:0:0:0:
479,150,46964,1,2,0:0:0:0:
388,273,47129,2,0,P|395:303|406:323,1,50,4|0,1:3|0:0,0:0:0:0:
503,270,47295,2,0,P|452:254|379:262,1,100,0|0,0:0|0:0,0:0:0:0:
267,362,47627,2,0,L|323:357,1,50,0|0,3:0|3:0,0:0:0:0:
206,289,47792,6,0,L|101:283,1,100,4|0,1:3|3:0,0:0:0:0:
79,286,48041,1,0,3:0:0:0:
79,286,48124,1,2,0:2:0:0:
231,202,48290,1,0,3:0:0:0:
231,202,48373,1,0,3:0:0:0:
231,202,48455,1,4,1:3:0:0:
82,130,48621,1,0,3:0:0:0:
71,107,48704,1,0,3:0:0:0:
71,81,48787,1,2,0:0:0:0:
78,57,48870,1,0,3:0:0:0:
92,36,48953,1,2,0:0:0:0:
299,74,49118,6,0,L|169:89,1,100,4|0,1:3|3:0,0:0:0:0:
170,94,49367,1,0,3:0:0:0:
170,94,49450,1,2,0:0:0:0:
285,153,49616,2,0,P|295:130|299:86,1,50,0|0,3:0|3:0,0:0:0:0:
321,0,49781,1,4,1:3:0:0:
429,197,49947,1,0,3:0:0:0:
429,197,50030,1,0,3:0:0:0:
429,197,50113,2,2,B|396:138|422:88|422:88|455:102|452:131,1,150,2|0,0:0|0:0,0:0:0:0:
411,212,50444,5,4,1:2:0:0:
381,216,50527,1,0,3:0:0:0:
344,220,50610,1,2,3:3:0:0:
445,309,50776,1,2,0:0:0:0:
475,313,50859,1,0,3:0:0:0:
512,317,50942,1,2,3:3:0:0:
350,362,51107,2,0,L|242:371,1,100,4|2,1:3|3:3,0:0:0:0:
231,353,51356,1,0,3:0:0:0:
220,330,51439,1,2,0:0:0:0:
218,305,51522,1,0,3:0:0:0:
223,280,51604,1,2,3:3:0:0:
375,344,51770,5,4,1:3:0:0:
375,344,51853,1,2,3:3:0:0:
375,344,51936,1,0,3:0:0:0:
278,225,52102,1,2,0:0:0:0:
278,225,52184,1,2,0:3:0:0:
278,225,52267,1,2,0:0:0:0:
139,304,52433,5,4,1:3:0:0:
250,370,52599,1,2,3:2:0:0:
180,206,52765,1,2,3:2:0:0:
43,367,52930,2,0,P|48:336|47:305,1,50,0|0,3:0|1:0,0:0:0:0:
20,175,53096,5,4,1:1:0:0:
27,151,53179,1,0,3:0:0:0:
46,128,53262,1,0,3:0:0:0:
72,113,53345,1,8,0:0:0:0:
106,110,53428,1,0,1:0:0:0:
138,121,53511,1,0,1:0:0:0:
162,152,53593,1,8,0:0:0:0:
171,191,53676,1,8,0:0:0:0:
194,229,53759,1,4,1:2:0:0:
236,243,53842,1,0,3:0:0:0:
284,230,53925,1,0,3:0:0:0:
309,187,54008,1,8,0:0:0:0:
301,132,54091,1,0,1:2:0:0:
289,78,54174,1,2,0:0:0:0:
316,25,54256,1,10,1:2:0:0:
375,15,54339,1,10,1:2:0:0:
423,48,54422,6,0,B|443:86|443:86|429:179,1,129.999994049073,4|0,1:1|0:0,0:0:0:0:
368,239,54671,2,0,B|348:277|348:277|362:370,1,129.999994049073,2|0,1:2|0:0,0:0:0:0:
458,384,54919,2,0,P|462:352|451:317,1,64.9999970245363,10|0,0:0|0:0,0:0:0:0:
347,160,55085,1,0,1:0:0:0:
244,334,55251,1,0,3:0:0:0:
207,360,55334,1,0,1:0:0:0:
163,372,55417,1,8,1:2:0:0:
119,361,55499,1,0,1:0:0:0:
90,325,55582,1,2,1:2:0:0:
164,88,55748,6,0,B|194:128|194:128|174:265,1,179.999994506836,4|0,1:2|0:0,0:0:0:0:
226,363,55997,2,0,B|233:314|233:314|210:253|210:253|220:185,1,179.999994506836,8|0,0:0|0:0,0:0:0:0:
307,113,56245,2,0,L|293:206,1,89.9999972534181,0|0,1:0|0:0,0:0:0:0:
40,317,56411,5,8,0:0:0:0:
143,301,56743,1,2,0:0:0:0:
295,279,57074,5,4,1:1:0:0:
278,17,57240,1,10,0:0:0:0:
267,58,57323,1,2,0:0:0:0:
256,99,57406,2,0,L|276:186,1,80,2|0,1:2|3:0,0:0:0:0:
309,256,57571,2,0,L|291:167,1,80,10|0,1:2|0:0,0:0:0:0:
131,89,57737,1,2,1:2:0:0:
145,143,57820,1,2,0:0:0:0:
160,198,57903,2,0,B|175:266|175:266|182:273|182:273|201:367,1,160,10|0,0:0|1:0,0:0:0:0:
284,384,58151,1,0,3:0:0:0:
284,384,58234,6,0,B|237:361|237:361|112:388,1,160,10|0,0:0|1:0,0:0:0:0:
374,226,58566,1,10,0:0:0:0:
160,198,58732,1,2,1:2:0:0:
144,200,58814,1,0,3:0:0:0:
128,202,58897,1,10,0:0:0:0:
438,299,59063,6,0,B|449:288|449:288|455:273|455:273|461:263|461:263|469:252|469:252|468:237|468:237|470:224|470:224|464:205|464:205|461:190|461:190|454:181|454:181|449:173|449:173|442:165|442:165|437:163|437:163|436:160|436:160|431:155|431:155|430:153|430:153|421:142|395:137,1,189.999994926453,2|8,1:2|0:0,0:0:0:0:
240,302,59395,1,2,1:2:0:0:
242,317,59477,1,0,3:0:0:0:
243,330,59560,2,0,P|279:343|325:342,1,80,10|0,0:0|0:0,0:0:0:0:
200,100,59726,5,2,1:2:0:0:
374,226,59892,1,10,0:0:0:0:
333,237,59975,1,2,0:0:0:0:
291,247,60057,2,0,L|206:237,1,80,2|0,1:2|3:0,0:0:0:0:
105,135,60223,2,0,L|189:125,1,80,10|0,0:0|0:0,0:0:0:0:
461,82,60389,1,2,1:2:0:0:
407,68,60472,1,2,0:0:0:0:
352,53,60555,2,0,B|323:131|323:131|349:208,1,160,10|0,0:0|1:0,0:0:0:0:
447,257,60803,1,0,3:0:0:0:
447,257,60886,6,0,B|404:248|404:248|367:257|367:257|328:244|328:244|278:248,1,160,10|0,0:0|1:0,0:0:0:0:
115,353,61218,1,10,0:0:0:0:
236,152,61384,1,2,1:2:0:0:
241,137,61466,1,0,3:0:0:0:
246,121,61549,1,10,0:0:0:0:
448,340,61715,2,0,B|435:335|435:335|431:336|431:336|421:333|421:333|416:330|416:330|400:330|400:330|392:330|392:330|383:335|383:335|378:337|378:337|371:337|371:337|360:340|360:340|350:335|350:335|343:336|343:336|334:329|334:329|328:328|328:328|317:325|317:325|309:323|309:323|299:328|299:328|281:328|281:328|275:332|275:332|263:330,1,189.999994926453,2|8,1:2|0:0,0:0:0:0:
74,166,62046,1,2,1:2:0:0:
58,164,62129,1,0,3:0:0:0:
43,161,62212,2,0,P|30:112|33:80,1,80,8|0,0:0|0:0,0:0:0:0:
306,39,62378,5,2,1:1:0:0:
358,88,62461,1,0,0:0:0:0:
381,156,62544,1,8,0:0:0:0:
364,226,62627,1,0,0:0:0:0:
320,282,62709,2,0,P|288:293|231:289,1,80,0|0,1:0|3:0,0:0:0:0:
217,13,62875,5,10,0:1:0:0:
286,29,62958,1,0,0:0:0:0:
340,76,63041,1,0,1:0:0:0:
360,145,63124,1,0,0:0:0:0:
348,214,63207,2,0,P|331:124|402:54,1,160,8|0,0:0|1:0,0:0:0:0:
447,53,63455,1,0,3:0:0:0:
468,57,63538,1,10,0:0:0:0:
479,298,63704,6,0,L|310:281,1,160,4|10,1:3|0:0,0:0:0:0:
62,269,64035,1,2,1:2:0:0:
54,305,64118,1,0,3:0:0:0:
67,337,64201,1,10,0:0:0:0:
265,214,64367,6,0,L|270:173,1,40,2|0,1:1|0:0,0:0:0:0:
42,131,64533,2,0,L|47:172,1,40,10|0,0:0|0:0,0:0:0:0:
238,95,64698,2,0,L|243:54,1,40,2|0,1:2|0:0,0:0:0:0:
158,176,64864,1,10,0:0:0:0:
341,359,65030,6,0,P|426:344|522:336,1,160,6|8,1:2|0:0,0:0:0:0:
333,182,65361,1,2,1:2:0:0:
326,167,65444,1,0,3:0:0:0:
320,151,65527,1,10,0:0:0:0:
120,252,65693,2,0,P|205:266|301:274,1,160,4|8,1:0|0:0,0:0:0:0:
466,173,66024,1,0,1:0:0:0:
467,156,66107,1,0,3:0:0:0:
467,139,66190,1,8,2:0:0:0:
359,328,66356,5,12,0:1:0:0:
317,352,66439,1,8,0:0:0:0:
270,363,66522,1,8,0:0:0:0:
225,345,66604,1,8,0:0:0:0:
190,311,66687,2,0,L|176:224,1,80,8|8,1:2|0:0,0:0:0:0:
347,103,66853,2,0,L|333:190,1,80,8|8,0:0|0:0,0:0:0:0:
109,348,67019,1,2,1:1:0:0:
84,346,67102,1,0,1:0:0:0:
63,333,67185,1,0,1:0:0:0:
46,315,67267,1,0,1:0:0:0:
36,296,67350,5,8,0:3:0:0:
106,276,67433,5,8,0:3:0:0:
180,301,67516,5,4,0:3:0:0:
249,273,67599,5,4,0:3:0:0:
321,300,67682,5,4,1:1:0:0:
197,139,67848,1,10,0:0:0:0:
186,180,67931,1,2,0:0:0:0:
196,218,68013,2,0,P|218:255|261:276,1,80,2|0,1:2|3:0,0:0:0:0:
299,373,68179,2,0,P|320:334|316:286,1,80,10|0,0:0|0:0,0:0:0:0:
205,51,68345,1,2,1:2:0:0:
155,62,68428,1,2,0:0:0:0:
124,95,68511,2,0,P|105:188|131:265,1,160,10|0,0:0|1:0,0:0:0:0:
172,335,68759,1,0,3:0:0:0:
172,335,68842,6,0,L|352:319,1,160,10|0,0:0|1:0,0:0:0:0:
378,140,69174,1,10,0:0:0:0:
474,367,69339,1,2,1:2:0:0:
458,370,69422,1,0,3:0:0:0:
442,368,69505,1,10,0:0:0:0:
196,242,69671,2,0,B|221:244|221:244|234:236|234:236|246:239|246:239|253:237|253:237|259:238|259:238|270:234|270:234|282:237|282:237|293:230|293:230|309:232|309:232|319:232|319:232|334:234|334:234|343:231|343:231|357:224|357:224|368:227|368:227|397:223,1,189.999994926453,2|8,1:2|0:0,0:0:0:0:
497,95,70003,1,2,1:2:0:0:
504,108,70085,1,0,3:0:0:0:
511,125,70168,2,0,P|515:160|515:211,1,80,10|0,0:0|0:0,0:0:0:0:
376,0,70334,5,6,1:2:0:0:
254,143,70500,1,10,0:0:0:0:
212,135,70582,1,2,0:0:0:0:
170,128,70665,2,0,P|159:89|161:41,1,80,2|0,1:2|3:0,0:0:0:0:
327,95,70831,2,0,P|338:134|335:181,1,80,10|0,0:0|0:0,0:0:0:0:
231,318,70997,1,2,1:2:0:0:
180,327,71080,1,2,0:0:0:0:
129,336,71162,2,0,B|84:320|84:320|219:298,1,160,10|0,0:0|1:0,0:0:0:0:
324,342,71411,1,0,3:0:0:0:
324,342,71494,6,0,P|265:274|278:203,1,160,14|2,0:0|1:2,0:0:0:0:
393,59,71826,1,10,0:0:0:0:
453,307,71991,1,2,1:2:0:0:
454,322,72074,1,0,3:0:0:0:
455,337,72157,1,10,0:0:0:0:
281,120,72323,2,0,B|213:111|209:168|131:164,1,160,4|10,1:1|0:0,0:0:0:0:
49,128,72571,1,10,0:0:0:0:
49,128,72654,2,0,P|40:81|49:35,1,80,10|8,1:2|0:0,0:0:0:0:
152,178,72820,2,0,P|161:225|152:271,1,80,10|8,0:0|0:0,0:0:0:0:
36,361,72986,5,2,1:1:0:0:
107,351,73069,1,0,0:0:0:0:
177,342,73151,1,8,0:0:0:0:
248,332,73234,1,0,0:0:0:0:
319,323,73317,2,0,L|413:311,1,80,0|0,1:0|3:0,0:0:0:0:
107,332,73483,5,10,0:1:0:0:
178,322,73566,1,0,0:0:0:0:
248,313,73648,1,0,1:0:0:0:
319,303,73731,1,0,0:0:0:0:
390,294,73814,2,0,B|444:303|479:338|479:338|514:275|473:231,1,160,8|0,0:0|1:0,0:0:0:0:
490,200,74063,1,0,3:0:0:0:
486,179,74146,1,10,0:0:0:0:
296,3,74312,6,0,P|254:67|285:138,1,160,4|8,1:1|0:0,0:0:0:0:
307,156,74560,1,8,0:0:0:0:
330,137,74643,1,8,0:0:0:0:
318,109,74726,1,8,0:0:0:0:
287,110,74809,1,8,0:0:0:0:
257,136,74892,1,8,0:0:0:0:
228,163,74975,1,4,1:3:0:0:
192,180,75057,1,8,0:3:0:0:
142,180,75140,1,8,0:3:0:0:
102,148,75223,1,8,0:3:0:0:
100,88,75306,1,12,0:0:0:0:
137,41,75389,1,8,0:0:0:0:
206,41,75472,1,8,0:0:0:0:
246,95,75555,1,8,0:0:0:0:
228,163,75638,6,0,P|207:242|231:314,1,160,4|0,1:1|0:0,0:0:0:0:
345,318,75886,2,0,P|366:239|342:167,1,160,0|0,1:0|0:0,0:0:0:0:
208,147,76135,2,0,P|194:193|193:232,1,80,8|0,0:0|0:0,0:0:0:0:
118,382,76301,6,0,B|136:342|136:342|112:226,1,160,4|0,1:2|0:0,0:0:0:0:
23,193,76549,2,0,B|5:153|5:153|29:37,1,160,0|0,1:0|0:0,0:0:0:0:
115,1,76798,2,0,P|156:-5|195:1,1,80,8|0,0:0|0:0,0:0:0:0:
285,79,76964,5,4,1:3:0:0:
375,67,77295,1,0,1:2:0:0:
465,55,77627,1,2,1:2:0:0:
285,79,77958,6,0,L|283:133,1,44.999998626709,2|0,1:1|0:0,0:0:0:0:
301,166,78290,6,0,L|272:27,1,119.999996337891,4|0,1:1|0:0,0:0:0:0:
466,153,78621,1,8,3:2:0:0:
459,189,78704,1,0,3:2:0:0:
452,225,78787,1,2,3:3:0:0:
376,70,78952,1,0,1:0:0:0:
236,250,79118,1,2,0:3:0:0:
236,250,79201,1,0,0:0:0:0:
236,250,79284,2,0,P|176:246|137:140,1,179.999994506836,8|0,0:0|0:0,0:0:0:0:
138,110,79615,6,0,L|125:244,1,119.999996337891,0|2,1:0|0:3,0:0:0:0:
45,344,79947,1,8,0:0:0:0:
42,327,80030,1,0,0:0:0:0:
39,310,80113,1,2,0:3:0:0:
246,191,80278,2,0,L|235:250,1,59.9999981689454,0|0,1:0|0:0,0:0:0:0:
171,379,80444,2,0,L|165:314,1,59.9999981689454,2|0,0:3|0:0,0:0:0:0:
337,225,80610,2,0,L|360:352,1,119.999996337891,8|2,0:0|0:3,0:0:0:0:
498,249,80941,5,0,1:0:0:0:
501,220,81024,1,0,0:0:0:0:
504,191,81107,1,2,0:3:0:0:
507,162,81190,1,0,0:0:0:0:
510,133,81273,1,8,0:0:0:0:
372,3,81438,5,2,0:3:0:0:
375,32,81521,1,0,0:0:0:0:
378,61,81604,1,0,1:0:0:0:
381,90,81687,1,0,0:0:0:0:
384,119,81770,1,2,0:3:0:0:
246,191,81936,6,0,L|256:119,1,59.9999981689454,8|0,0:0|0:0,0:0:0:0:
162,19,82102,2,0,L|172:91,1,59.9999981689454,2|0,0:3|0:0,0:0:0:0:
50,222,82267,2,0,P|92:169|156:166,1,119.999996337891,0|2,1:0|0:3,0:0:0:0:
258,336,82599,5,8,0:0:0:0:
221,353,82682,1,0,0:0:0:0:
181,353,82764,1,2,0:3:0:0:
143,338,82847,1,0,0:0:0:0:
117,307,82930,5,0,1:0:0:0:
133,301,83013,1,8,0:0:0:0:
231,203,83179,5,0,1:0:0:0:
246,191,83262,2,0,L|317:201,1,59.9999981689454,8|0,0:0|0:0,0:0:0:0:
346,278,83428,2,0,L|417:268,1,59.9999981689454,2|0,1:3|0:0,0:0:0:0:
497,127,83593,6,0,L|490:246,1,119.999996337891,4|2,1:2|0:3,0:0:0:0:
305,199,83925,1,8,0:0:0:0:
312,163,84008,1,0,0:0:0:0:
319,127,84091,1,2,0:3:0:0:
405,269,84256,1,0,1:0:0:0:
231,203,84422,1,2,0:3:0:0:
231,203,84505,1,0,0:0:0:0:
231,203,84588,2,0,P|170:177|108:256,1,179.999994506836,8|0,0:0|0:0,0:0:0:0:
112,303,84919,6,0,L|105:175,1,119.999996337891,0|2,1:0|0:3,0:0:0:0:
6,62,85251,1,8,0:0:0:0:
3,79,85334,1,0,0:0:0:0:
0,96,85417,1,2,0:3:0:0:
206,59,85582,2,0,L|203:-7,1,59.9999981689454,0|0,1:0|0:0,0:0:0:0:
108,123,85748,2,0,L|105:189,1,59.9999981689454,2|0,0:3|0:0,0:0:0:0:
251,292,85914,2,0,P|259:227|281:174,1,119.999996337891,8|2,0:0|0:3,0:0:0:0:
423,69,86245,5,0,1:0:0:0:
394,72,86328,1,0,0:0:0:0:
365,75,86411,1,2,0:3:0:0:
336,78,86494,1,0,0:0:0:0:
307,81,86577,1,8,0:0:0:0:
383,249,86742,5,2,0:3:0:0:
412,252,86825,1,0,0:0:0:0:
441,255,86908,1,0,1:0:0:0:
470,258,86991,1,0,0:0:0:0:
499,261,87074,1,2,0:3:0:0:
307,81,87240,6,0,L|239:88,1,59.9999981689454,8|0,0:0|0:0,0:0:0:0:
153,213,87405,2,0,L|212:220,1,59.9999981689454,2|0,0:3|0:0,0:0:0:0:
433,307,87571,2,0,P|377:274|318:281,1,119.999996337891,0|8,1:0|0:0,0:0:0:0:
236,322,87820,1,8,0:0:0:0:
221,347,87903,1,8,0:0:0:0:
197,363,87985,1,8,0:0:0:0:
168,373,88068,1,8,0:0:0:0:
139,377,88151,1,8,0:0:0:0:
109,368,88234,1,8,0:3:0:0:
79,343,88317,1,8,0:3:0:0:
63,309,88400,1,8,0:3:0:0:
65,261,88483,1,8,0:3:0:0:
83,217,88566,1,4,0:3:0:0:
106,176,88648,1,4,0:3:0:0:
115,122,88731,1,4,0:3:0:0:
94,72,88814,1,4,0:3:0:0:
69,41,88897,6,0,B|207:22|207:22|165:64,1,179.999994506836,4|0,0:3|0:0,0:0:0:0:
183,88,89477,1,0,3:0:0:0:
183,88,89560,6,0,P|190:108|212:148,1,59.9999981689454,8|0,0:0|0:0,0:0:0:0:
78,238,89809,2,0,P|98:241|144:242,1,59.9999981689454,2|0,0:0|0:0,0:0:0:0:
153,370,90057,2,0,P|159:361|171:342,1,29.9999990844727,8|0,0:0|0:0,0:0:0:0:
221,240,90223,5,4,1:3:0:0:
305,364,90389,1,2,0:0:0:0:
305,364,90555,5,2,0:0:0:0:
367,324,90665,5,2,0:0:0:0:
429,367,90776,5,2,0:0:0:0:
495,329,90886,6,0,L|486:262,1,59.9999981689454,10|0,0:0|0:0,0:0:0:0:
399,233,91135,6,0,L|408:166,1,59.9999981689454,2|0,0:0|0:0,0:0:0:0:
481,113,91383,1,8,1:2:0:0:
474,83,91466,1,0,1:0:0:0:
468,53,91549,6,0,B|407:34|352:48|352:48|371:78|355:113,1,179.999994506836,4|0,1:3|0:0,0:0:0:0:
258,146,92212,6,0,P|263:122|286:87,1,59.9999981689454,8|0,0:0|0:0,0:0:0:0:
170,155,92461,2,0,P|193:147|235:149,1,59.9999981689454,2|0,0:0|0:0,0:0:0:0:
117,109,92709,2,0,P|133:120|144:132,1,29.9999990844727,8|0,0:0|0:0,0:0:0:0:
93,300,92875,6,0,B|125:217|83:181|83:181|58:206|55:233,1,179.999994506836,4|0,0:3|0:0,0:0:0:0:
105,309,93538,6,0,L|180:304,1,59.9999981689454,8|0,0:0|0:0,0:0:0:0:
246,237,93787,2,0,L|321:242,1,59.9999981689454,2|0,0:0|0:0,0:0:0:0:
374,318,94035,2,0,L|431:312,1,29.9999990844727,8|0,0:0|0:0,0:0:0:0:
457,273,94201,5,0,3:0:0:0:
477,274,94284,1,0,3:0:0:0:
488,291,94367,1,0,3:0:0:0:
480,310,94450,1,0,3:0:0:0:
458,312,94533,1,2,0:0:0:0:
433,293,94616,1,2,0:0:0:0:
425,258,94698,1,2,0:0:0:0:
448,215,94781,1,2,0:0:0:0:
482,178,94864,6,0,P|488:157|484:110,1,59.9999981689454,8|0,0:0|0:0,0:0:0:0:
437,56,95113,1,2,0:0:0:0:
424,46,95196,2,0,L|417:24,2,14.9999995422363,2|0|0,0:0|0:0|0:0,0:0:0:0:
373,122,95361,1,8,0:0:0:0:
260,17,95527,5,4,0:3:0:0:
162,225,95693,1,2,0:0:0:0:
162,225,95859,5,2,0:0:0:0:
162,144,95969,5,2,0:0:0:0:
90,108,96080,5,2,0:0:0:0:
104,29,96190,6,0,L|43:24,1,59.9999981689454,10|0,0:0|0:0,0:0:0:0:
183,15,96439,2,0,L|122:20,1,59.9999981689454,2|0,0:0|0:0,0:0:0:0:
259,58,96687,1,8,1:2:0:0:
259,58,96770,1,0,1:0:0:0:
259,58,96853,5,4,1:3:0:0:
339,51,97185,1,0,1:0:0:0:
416,45,97516,2,0,L|413:137,1,80,8|0,0:0|0:0,0:0:0:0:
466,186,97765,2,0,L|469:278,1,80,2|0,0:0|0:0,0:0:0:0:
436,331,98013,2,0,L|442:273,1,40,8|0,0:0|0:0,0:0:0:0:
384,209,98179,5,4,0:3:0:0:
326,309,98345,1,0,3:0:0:0:
226,251,98511,1,0,1:0:0:0:
284,151,98676,1,0,3:0:0:0:
308,332,98842,5,0,1:0:0:0:
279,345,98925,1,0,1:0:0:0:
247,350,99008,1,0,1:0:0:0:
215,345,99091,1,0,1:0:0:0:
178,318,99174,1,2,3:2:0:0:
152,299,99256,1,2,3:2:0:0:
120,294,99339,1,2,3:2:0:0:
88,298,99422,1,2,3:2:0:0:
61,315,99505,6,0,P|53:338|50:364,3,40,2|0|0|0,0:0|0:0|0:0|0:0,0:0:0:0:
100,252,99837,2,0,L|134:256,5,20,2|2|2|2|2|2,0:0|0:0|0:0|0:0|0:0|0:0,0:0:0:0:
61,315,100168,6,0,L|46:192,2,120,4|0|0,1:2|0:0|0:0,0:0:0:0:
177,374,100830,1,0,0:0:0:0:
256,367,100996,1,0,0:0:0:0:
335,359,101162,1,0,0:0:0:0:
418,309,101328,2,0,P|426:270|420:224,1,80,2|0,0:0|0:0,0:0:0:0:
177,374,101659,5,0,0:0:0:0:
256,367,101825,1,0,0:0:0:0:
335,359,101991,2,0,P|343:320|337:274,1,80,2|0,0:0|0:0,0:0:0:0:
243,105,102322,6,0,P|230:158|245:222,1,110.000003356934,4|0,1:2|0:0,0:0:0:0:
265,277,102571,2,0,P|200:246|146:244,1,110.000003356934,0|0,1:0|0:0,0:0:0:0:
87,267,102819,6,0,B|79:309|79:309|99:395,2,120,4|0|0,1:2|0:0|0:0,0:0:0:0:
153,219,103400,1,0,0:0:0:0:
155,209,103482,1,0,0:0:0:0:
89,134,103648,1,0,0:0:0:0:
169,69,103814,1,0,0:0:0:0:
244,154,103980,2,0,P|293:169|332:170,1,80,2|0,0:0|0:0,0:0:0:0:
155,209,104311,5,0,0:0:0:0:
89,134,104477,1,0,0:0:0:0:
169,69,104643,2,0,P|218:54|257:53,1,80,2|0,0:0|0:0,0:0:0:0:
385,130,104974,6,0,P|371:82|386:21,1,110.000003356934,4|0,1:2|0:0,0:0:0:0:
474,25,105223,2,0,P|487:77|472:130,1,110.000003356934,0|0,1:0|0:0,0:0:0:0:
429,197,105471,1,4,1:2:0:0:
429,197,106466,6,0,B|438:260|438:260|425:301|425:301|435:376,1,179.999994506836,4|0,1:2|0:0,0:0:0:0:
457,384,106797,1,4,1:2:0:0:
457,384,107377,6,0,P|420:347|350:347,1,119.999996337891,2|0,0:0|0:0,0:0:0:0:
330,367,108123,6,0,L|319:241,1,119.999996337891,4|2,1:1|0:0,0:0:0:0:
361,168,108372,1,0,1:0:0:0:
361,168,108455,2,0,P|377:117|391:88,1,59.9999981689454,10|2,0:0|0:0,0:0:0:0:
224,253,108621,2,0,P|235:305|236:336,1,59.9999981689454,2|0,1:2|0:0,0:0:0:0:
278,122,108786,1,2,0:0:0:0:
275,98,108869,1,10,0:0:0:0:
272,74,108952,1,2,1:2:0:0:
269,50,109035,1,2,0:0:0:0:
267,26,109118,2,0,P|205:11|150:33,1,119.999996337891,10|10,0:0|0:0,0:0:0:0:
116,102,109367,1,2,1:2:0:0:
116,102,109449,6,0,B|111:153|111:153|117:168|117:168|112:222,1,119.999996337891,6|2,1:2|0:0,0:0:0:0:
235,352,109781,1,10,0:0:0:0:
247,318,109864,1,2,1:2:0:0:
235,285,109947,1,2,1:2:0:0:
73,330,110112,2,0,P|106:322|132:319,1,59.9999981689454,2|2,1:2|0:0,0:0:0:0:
282,205,110278,2,0,P|249:197|223:194,1,59.9999981689454,2|2,1:2|0:0,0:0:0:0:
0,144,110444,2,0,P|61:143|141:116,1,139.999995727539,10|8,0:0|0:0,0:0:0:0:
183,53,110692,1,8,0:0:0:0:
183,53,110775,6,0,L|338:37,1,119.999996337891,4|2,1:1|0:3,0:0:0:0:
345,37,111024,1,0,1:2:0:0:
345,37,111107,1,8,0:0:0:0:
338,79,111190,1,2,0:0:0:0:
350,120,111272,1,2,1:3:0:0:
340,161,111355,1,2,0:0:0:0:
356,200,111438,1,2,0:0:0:0:
459,71,111603,1,2,1:3:0:0:
459,71,111769,1,10,0:0:0:0:
412,274,111935,6,0,P|349:291|299:274,1,119.999996337891,2|0,1:3|1:0,0:0:0:0:
446,101,112267,1,2,0:3:0:0:
446,101,112432,1,10,0:0:0:0:
408,292,112598,2,0,P|345:309|295:292,1,119.999996337891,2|0,0:3|0:0,0:0:0:0:
170,150,112929,1,2,1:3:0:0:
228,249,113095,1,10,0:0:0:0:
180,366,113261,1,2,0:3:0:0:
180,366,113344,1,2,0:0:0:0:
180,366,113427,6,0,B|118:380|118:380|59:368,1,119.999996337891,2|2,1:2|0:3,0:0:0:0:
24,350,113676,1,0,1:0:0:0:
24,350,113758,1,8,0:0:0:0:
31,308,113841,1,2,0:0:0:0:
19,267,113924,1,2,1:3:0:0:
29,226,114007,1,2,0:0:0:0:
13,187,114090,1,2,0:0:0:0:
123,298,114255,1,2,1:3:0:0:
123,298,114421,1,10,0:0:0:0:
285,152,114587,6,0,P|226:136|166:151,1,119.999996337891,2|0,0:3|1:0,0:0:0:0:
271,333,114918,1,2,1:3:0:0:
271,333,115084,1,10,0:0:0:0:
394,171,115250,2,0,P|378:111|335:67,1,119.999996337891,2|0,0:3|0:0,0:0:0:0:
360,272,115581,1,2,1:3:0:0:
230,220,115747,1,10,0:0:0:0:
123,298,115913,1,2,0:3:0:0:
9,167,116079,5,6,1:2:0:0:
245,232,116327,1,2,1:2:0:0:
245,232,116410,2,0,L|261:372,2,119.999996337891,8|2|2,0:0|1:3|0:0,0:0:0:0:
179,145,116907,1,2,1:3:0:0:
263,19,117073,5,10,0:0:0:0:
263,19,117239,1,2,0:3:0:0:
363,182,117405,2,0,B|377:242|377:242|368:308,1,119.999996337891,6|2,1:2|0:3,0:0:0:0:
266,132,117736,1,12,0:1:0:0:
210,339,117902,1,2,1:3:0:0:
210,339,117985,1,2,1:2:0:0:
210,339,118067,5,10,0:0:0:0:
181,348,118151,1,8,0:0:0:0:
151,351,118234,1,8,0:0:0:0:
122,342,118317,1,8,0:0:0:0:
100,313,118400,1,8,0:3:0:0:
102,271,118482,1,8,0:3:0:0:
105,229,118565,1,4,0:3:0:0:
110,187,118648,1,4,0:3:0:0:
113,145,118731,6,0,B|146:130|146:130|229:146,1,119.999996337891,4|0,1:1|0:0,0:0:0:0:
320,206,118980,1,0,0:0:0:0:
320,206,119063,2,0,L|391:202,1,59.9999981689454,10|2,0:0|0:0,0:0:0:0:
159,316,119228,2,0,L|88:312,1,59.9999981689454,2|0,1:2|0:0,0:0:0:0:
228,146,119394,1,2,1:2:0:0:
363,342,119560,1,2,1:2:0:0:
363,342,119643,1,2,0:0:0:0:
363,342,119726,2,0,P|378:280|356:225,1,119.999996337891,10|10,0:0|0:0,0:0:0:0:
380,203,119975,1,10,0:0:0:0:
380,203,120057,6,0,P|360:145|373:87,1,119.999996337891,2|2,1:2|1:2,0:0:0:0:
249,27,120388,1,10,0:0:0:0:
254,63,120471,1,2,0:0:0:0:
246,99,120554,1,10,0:0:0:0:
163,212,120720,2,0,P|155:179|152:153,1,59.9999981689454,2|10,1:2|0:0,0:0:0:0:
100,16,120886,2,0,P|95:51|89:76,1,59.9999981689454,8|4,0:3|0:3,0:0:0:0:
9,203,121052,2,0,P|15:265|17:332,1,119.999996337891,2|2,1:2|0:0,0:0:0:0:
152,153,121383,5,4,1:3:0:0:
221,285,121549,1,0,0:0:0:0:
249,299,121632,1,0,3:0:0:0:
282,297,121715,1,2,0:0:0:0:
308,276,121798,1,0,0:0:0:0:
316,241,121881,1,2,0:0:0:0:
306,207,121963,1,0,3:0:0:0:
282,180,122046,2,0,P|263:124|262:71,1,100,4|0,1:3|3:0,0:0:0:0:
370,12,122377,1,2,0:0:0:0:
453,98,122543,1,0,3:0:0:0:
453,98,122626,1,0,0:0:0:0:
453,98,122709,5,4,1:3:0:0:
382,187,122875,1,2,0:0:0:0:
469,295,123041,1,0,0:0:0:0:
469,295,123124,1,0,0:0:0:0:
469,295,123207,1,2,0:0:0:0:
512,161,123372,2,0,P|503:190|502:213,1,50,4|0,1:3|0:0,0:0:0:0:
484,312,123538,2,0,P|433:296|360:304,1,100,0|0,0:0|0:0,0:0:0:0:
300,383,123870,2,0,P|293:358|290:332,1,50,0|0,3:0|3:0,0:0:0:0:
197,197,124035,6,0,P|204:253|202:302,1,100,4|0,1:3|3:0,0:0:0:0:
196,332,124284,1,0,3:0:0:0:
196,332,124367,1,2,0:2:0:0:
157,359,124449,1,0,0:0:0:0:
115,341,124532,1,0,3:0:0:0:
46,210,124698,1,4,1:3:0:0:
49,185,124781,1,0,0:0:0:0:
52,160,124864,1,0,3:0:0:0:
55,135,124947,1,0,3:0:0:0:
58,110,125029,1,2,0:0:0:0:
136,245,125195,1,2,0:0:0:0:
198,70,125361,6,0,P|253:57|328:55,1,100,4|0,1:3|3:0,0:0:0:0:
330,60,125610,1,0,3:0:0:0:
330,60,125693,1,2,0:0:0:0:
447,194,125859,2,0,L|434:125,1,50,0|0,3:0|3:0,0:0:0:0:
398,17,126024,1,4,1:3:0:0:
351,209,126190,1,0,3:0:0:0:
351,209,126273,1,0,3:0:0:0:
351,209,126356,2,0,B|292:242|242:216|242:216|256:183|285:186,1,150,2|0,0:0|0:0,0:0:0:0:
330,60,126687,5,4,1:2:0:0:
334,90,126770,1,0,3:0:0:0:
338,127,126853,1,2,3:3:0:0:
447,194,127018,1,2,0:0:0:0:
443,224,127101,1,0,3:0:0:0:
439,261,127184,1,2,3:3:0:0:
317,362,127350,2,0,P|309:308|299:264,1,100,4|2,1:3|3:3,0:0:0:0:
274,256,127599,1,0,3:0:0:0:
249,249,127682,1,2,0:0:0:0:
224,247,127765,1,0,3:0:0:0:
199,247,127847,1,2,3:3:0:0:
59,335,128013,5,4,1:3:0:0:
230,334,128179,1,2,3:3:0:0:
71,227,128344,1,2,0:0:0:0:
62,203,128427,1,0,0:0:0:0:
58,178,128510,1,2,0:3:0:0:
58,152,128593,1,2,0:0:0:0:
63,127,128676,1,4,1:3:0:0:
199,247,128842,1,2,3:2:0:0:
199,247,128924,1,0,0:0:0:0:
199,247,129008,1,2,3:2:0:0:
258,61,129173,2,0,L|268:122,1,50,0|0,3:0|1:0,0:0:0:0:
322,158,129339,5,4,1:1:0:0:
347,178,129422,1,0,3:0:0:0:
377,188,129505,1,0,3:0:0:0:
409,191,129587,1,8,0:0:0:0:
443,175,129670,1,0,1:0:0:0:
460,140,129753,1,0,1:0:0:0:
437,102,129836,1,8,0:0:0:0:
393,98,129919,1,8,0:0:0:0:
371,141,130002,1,4,1:2:0:0:
387,187,130085,1,0,3:0:0:0:
413,233,130167,1,0,3:0:0:0:
421,286,130250,1,8,0:0:0:0:
397,340,130333,1,0,1:2:0:0:
344,370,130416,1,2,0:0:0:0:
284,360,130499,1,10,1:2:0:0:
246,313,130582,1,10,1:2:0:0:
249,249,130665,6,0,P|256:186|210:109,1,129.999994049073,4|0,1:1|0:0,0:0:0:0:
140,147,130913,2,0,P|133:204|175:275,1,129.999994049073,2|0,1:2|0:0,0:0:0:0:
285,248,131162,2,0,P|290:212|288:178,1,64.9999970245363,10|0,0:0|0:0,0:0:0:0:
161,20,131328,1,0,1:0:0:0:
25,166,131493,1,0,3:0:0:0:
33,210,131576,1,0,1:0:0:0:
41,254,131659,1,8,1:2:0:0:
50,298,131742,1,0,1:0:0:0:
59,342,131825,1,2,1:2:0:0:
290,230,131991,6,0,P|233:155|159:189,1,179.999994506836,4|0,1:2|0:0,0:0:0:0:
294,310,132239,2,0,P|333:204|283:138,1,179.999994506836,8|0,0:0|0:0,0:0:0:0:
217,349,132488,2,0,P|271:350|313:331,1,89.9999972534181,0|0,1:0|0:0,0:0:0:0:
452,281,132654,5,8,0:0:0:0:
436,172,132985,1,2,0:0:0:0:
409,18,133317,5,4,1:1:0:0:
303,152,133483,1,10,0:0:0:0:
260,173,133566,1,2,0:0:0:0:
212,179,133649,2,0,L|121:175,1,80,2|0,1:2|3:0,0:0:0:0:
278,75,133814,2,0,L|369:79,1,80,10|0,1:2|0:0,0:0:0:0:
127,15,133980,1,2,1:2:0:0:
49,24,134063,1,2,0:0:0:0:
0,80,134146,2,0,B|-22:120|-22:120|4:252,1,160,10|0,0:0|1:0,0:0:0:0:
84,311,134394,1,0,3:0:0:0:
84,311,134477,6,0,B|144:307|144:307|179:317|179:317|259:312,1,160,10|0,0:0|1:0,0:0:0:0:
423,222,134809,1,10,0:0:0:0:
212,179,134975,1,2,1:2:0:0:
203,201,135057,1,0,3:0:0:0:
203,225,135140,1,10,0:0:0:0:
446,300,135306,2,0,B|462:304|462:304|481:301|481:301|489:303|489:303|508:302|508:302|519:296|519:296|537:280|537:280|535:266|535:266|535:245|535:245|525:231|525:231|513:218|513:218|500:209|468:212,1,189.999994926453,2|8,1:2|0:0,0:0:0:0:
311,335,135638,1,2,1:2:0:0:
294,352,135720,1,0,3:0:0:0:
274,365,135803,2,0,P|234:373|198:362,1,80,10|0,0:0|0:0,0:0:0:0:
132,175,135969,5,2,1:2:0:0:
342,107,136135,1,10,0:0:0:0:
366,148,136218,1,2,0:0:0:0:
376,194,136300,2,0,L|381:290,1,80,2|0,1:2|3:0,0:0:0:0:
132,175,136466,2,0,L|216:165,1,80,10|0,0:0|0:0,0:0:0:0:
404,44,136632,1,2,1:2:0:0:
333,28,136715,1,2,0:0:0:0:
266,62,136798,2,0,B|242:110|242:110|269:217,1,160,10|0,0:0|1:0,0:0:0:0:
353,278,137046,1,0,3:0:0:0:
353,278,137129,6,0,L|523:267,1,160,10|0,0:0|1:0,0:0:0:0:
342,107,137461,1,10,0:0:0:0:
279,331,137627,1,2,1:2:0:0:
278,353,137709,1,0,3:0:0:0:
276,376,137792,1,10,0:0:0:0:
191,205,137958,6,0,B|218:200|218:200|229:203|229:203|234:200|234:200|247:200|247:200|253:201|253:201|267:202|267:202|276:197|276:197|290:196|290:196|299:200|299:200|312:200|312:200|320:199|320:199|341:198|341:198|357:200|357:200|377:193,1,189.999994926453,2|8,1:2|0:0,0:0:0:0:
119,63,138289,1,2,1:2:0:0:
118,41,138371,1,0,3:0:0:0:
116,18,138455,2,0,P|156:16|201:36,1,80,8|0,0:0|0:0,0:0:0:0:
20,306,138621,5,2,1:1:0:0:
107,295,138703,1,0,0:0:0:0:
181,264,138786,1,8,0:0:0:0:
256,293,138869,1,0,0:0:0:0:
342,303,138952,2,0,P|383:284|408:248,1,80,0|0,1:0|3:0,0:0:0:0:
10,298,139118,5,10,0:1:0:0:
97,287,139200,1,0,0:0:0:0:
171,256,139283,1,0,1:0:0:0:
246,285,139366,1,0,0:0:0:0:
332,295,139449,2,0,P|373:276|362:171,1,160,8|0,0:0|1:0,0:0:0:0:
254,122,139698,1,0,3:0:0:0:
233,126,139781,1,10,0:0:0:0:
511,0,139947,6,0,B|481:43|481:43|506:170,1,160,4|10,1:3|0:0,0:0:0:0:
446,331,140278,1,2,1:2:0:0:
374,70,140444,1,10,0:0:0:0:
297,328,140609,6,0,L|256:323,1,40,2|0,1:1|0:0,0:0:0:0:
233,126,140775,2,0,L|192:131,1,40,10|0,0:0|0:0,0:0:0:0:
136,275,140941,2,0,L|95:270,1,40,2|0,1:2|0:0,0:0:0:0:
35,198,141107,1,10,0:0:0:0:
233,126,141273,6,0,P|231:41|150:30,1,160,6|8,1:2|0:0,0:0:0:0:
43,166,141604,1,2,1:2:0:0:
38,181,141687,1,0,3:0:0:0:
35,198,141770,1,10,0:0:0:0:
109,383,141936,2,0,P|174:350|259:322,1,160,4|8,1:0|0:0,0:0:0:0:
475,334,142267,1,0,1:0:0:0:
482,349,142350,1,0,3:0:0:0:
488,365,142433,1,8,2:0:0:0:
318,218,142599,5,12,0:1:0:0:
295,176,142681,1,8,0:0:0:0:
300,128,142764,1,8,0:0:0:0:
326,87,142847,1,8,0:0:0:0:
369,67,142930,2,0,P|410:68|445:85,1,80,8|8,1:2|0:0,0:0:0:0:
353,294,143096,2,0,P|312:300|275:289,1,80,8|8,0:0|0:0,0:0:0:0:
188,68,143261,1,2,1:1:0:0:
171,49,143344,1,0,1:0:0:0:
148,38,143427,1,0,1:0:0:0:
124,33,143510,1,0,1:0:0:0:
99,34,143593,5,8,0:3:0:0:
121,111,143676,5,8,0:3:0:0:
94,192,143759,5,4,0:3:0:0:
124,268,143842,5,4,0:3:0:0:
95,347,143925,5,4,1:1:0:0:
187,183,144091,1,10,0:0:0:0:
228,172,144174,1,2,0:0:0:0:
266,182,144256,2,0,P|303:204|324:247,1,80,2|0,1:2|3:0,0:0:0:0:
206,365,144422,2,0,P|206:321|233:282,1,80,10|0,0:0|0:0,0:0:0:0:
409,378,144588,1,2,1:2:0:0:
467,378,144671,1,2,0:0:0:0:
511,340,144754,2,0,B|514:279|514:279|504:242|504:242|504:170,1,160,10|0,0:0|1:0,0:0:0:0:
437,107,145002,1,0,3:0:0:0:
437,107,145085,6,0,B|384:130|384:130|275:121,1,160,10|0,0:0|1:0,0:0:0:0:
149,11,145417,1,10,0:0:0:0:
370,15,145583,1,2,1:2:0:0:
373,31,145665,1,0,3:0:0:0:
371,47,145748,1,10,0:0:0:0:
262,268,145913,6,0,B|255:262|255:262|247:257|247:257|238:253|238:253|231:245|231:245|222:239|222:239|218:234|218:234|214:232|214:232|208:228|208:228|205:217|205:217|199:211|199:211|194:201|194:201|189:185|189:185|183:175|183:175|179:164|179:164|176:155|176:155|169:142|169:142|165:137|165:137|159:125|159:125|155:115,1,189.999994926453,2|8,1:2|0:0,0:0:0:0:
380,25,146245,1,2,1:2:0:0:
383,41,146327,1,0,3:0:0:0:
381,57,146410,1,10,0:0:0:0:
262,268,146577,5,6,1:2:0:0:
91,76,146743,1,10,0:0:0:0:
49,68,146826,1,2,0:0:0:0:
9,61,146908,2,0,B|-2:100|-2:100|0:148,1,80,2|0,1:2|3:0,0:0:0:0:
166,220,147074,2,0,B|177:181|177:181|175:133,1,80,10|0,0:0|0:0,0:0:0:0:
4,330,147240,1,2,1:2:0:0:
51,359,147323,1,2,0:0:0:0:
106,360,147405,2,0,B|178:362|178:362|199:351|199:351|264:350,1,160,10|0,0:0|1:0,0:0:0:0:
349,326,147654,1,0,3:0:0:0:
349,326,147737,6,0,B|301:309|301:309|151:311,1,160,14|2,0:0|1:2,0:0:0:0:
389,235,148069,1,10,0:0:0:0:
175,141,148235,1,2,1:2:0:0:
176,126,148317,1,0,3:0:0:0:
177,111,148400,1,10,0:0:0:0:
409,5,148565,2,0,P|446:77|393:140,1,160,4|10,1:1|0:0,0:0:0:0:
331,173,148814,1,10,0:0:0:0:
331,173,148897,2,0,L|240:167,1,80,10|8,1:2|0:0,0:0:0:0:
185,0,149063,2,0,L|94:6,1,80,10|8,0:0|0:0,0:0:0:0:
91,189,149229,5,2,1:1:0:0:
171,177,149312,1,0,0:0:0:0:
251,167,149394,1,8,0:0:0:0:
332,155,149477,1,0,0:0:0:0:
413,145,149560,2,0,L|501:130,1,80,0|0,1:0|3:0,0:0:0:0:
85,207,149726,5,10,0:1:0:0:
165,195,149809,1,0,0:0:0:0:
245,185,149891,1,0,1:0:0:0:
326,173,149974,1,0,0:0:0:0:
407,163,150057,2,0,B|451:172|518:208|518:208|502:181|512:157,1,160,8|0,0:0|1:0,0:0:0:0:
482,56,150306,1,0,3:0:0:0:
490,36,150389,1,10,0:0:0:0:
182,15,150555,6,0,L|351:20,1,160,4|8,1:1|0:0,0:0:0:0:
372,28,150803,1,8,0:0:0:0:
390,54,150886,1,8,0:0:0:0:
395,85,150969,1,8,0:0:0:0:
386,115,151051,1,8,0:0:0:0:
365,149,151134,1,8,0:0:0:0:
358,188,151217,1,4,1:3:0:0:
377,232,151300,1,8,0:3:0:0:
420,252,151383,1,8,0:3:0:0:
474,240,151466,1,8,0:3:0:0:
495,188,151549,1,12,0:0:0:0:
468,129,151632,1,8,0:0:0:0:
399,109,151714,1,8,0:0:0:0:
334,140,151797,1,8,0:0:0:0:
271,179,151881,6,0,P|192:196|104:162,1,160,4|0,1:1|0:0,0:0:0:0:
61,67,152129,2,0,P|115:126|129:220,1,160,0|0,1:0|0:0,0:0:0:0:
52,266,152377,2,0,P|64:227|101:197,1,80,8|0,0:0|0:0,0:0:0:0:
227,320,152543,6,0,B|278:319|278:319|337:336|337:336|384:334,1,160,4|0,1:2|0:0,0:0:0:0:
498,267,152792,2,0,B|447:268|447:268|388:251|388:251|341:253,1,160,0|0,1:0|0:0,0:0:0:0:
270,178,153041,2,0,L|349:177,1,80,8|0,0:0|0:0,0:0:0:0:
429,175,153206,5,4,1:3:0:0:
350,177,153537,1,0,1:0:0:0:
270,178,153869,1,2,1:2:0:0:
429,175,154201,6,0,P|422:208|423:222,1,44.999998626709,2|0,1:1|0:0,0:0:0:0:
450,254,154532,6,0,P|448:202|413:127,1,119.999996337891,4|0,1:0|0:0,0:0:0:0:
341,145,154781,2,0,P|294:120|212:113,1,119.999996337891,0|0,1:0|0:0,0:0:0:0:
174,179,155029,2,0,P|151:192|128:226,1,59.9999981689454,0|0,1:0|0:0,0:0:0:0:
154,351,155195,1,8,0:0:0:0:
176,371,155278,1,8,0:0:0:0:
204,361,155361,1,8,0:0:0:0:
215,333,155444,1,8,0:0:0:0:
196,309,155527,6,0,L|59:323,1,119.999996337891,0|0,1:2|0:0,0:0:0:0:
12,207,155775,2,0,L|149:221,1,119.999996337891,0|0,1:0|0:0,0:0:0:0:
228,111,156024,2,0,L|159:118,1,59.9999981689454,0|0,1:0|0:0,0:0:0:0:
46,132,156190,5,8,0:0:0:0:
46,132,156272,1,2,0:0:0:0:
256,107,156438,1,2,0:0:0:0:
256,107,156521,6,0,P|287:163|279:232,1,119.999996337891,4|0,1:2|0:0,0:0:0:0:
281,308,156770,2,0,P|313:253|377:225,1,119.999996337891,0|0,1:0|0:0,0:0:0:0:
440,205,157018,2,0,P|403:200|370:182,1,59.9999981689454,0|0,1:0|0:0,0:0:0:0:
245,90,157184,5,4,1:3:0:0:
468,187,157405,1,4,1:3:0:0:
272,332,157626,1,4,1:3:0:0:
328,202,157847,5,4,1:1:0:0:
377,128,158067,1,0,0:0:0:0:
338,218,158288,2,0,L|333:256,2,26.6666666666667,0|0|2,0:0|0:0|0:0,0:0:0:0:
396,116,158730,1,0,0:0:0:0:
452,245,158951,2,0,L|457:283,2,26.6666666666667
418,98,159388,1,0,0:0:0:0:
319,292,159604,5,0,0:0:0:0:
319,292,159712,1,0,0:0:0:0:
319,292,159820,2,0,L|285:299,2,26.6666666666667,2|0|0,0:0|0:0|0:0,0:0:0:0:
262,281,160144,2,0,L|180:275,1,80,0|2,0:0|0:0,0:0:0:0:
118,183,160689,1,0,0:0:0:0:
46,252,160910,2,0,L|3:264,2,26.6666666666667,0|0|2,0:0|0:0|0:0,0:0:0:0:
98,167,161352,1,0,0:0:0:0:
216,163,161573,2,0,L|255:171,2,26.6666666666667,0|0|2,0:0|0:0|0:0,0:0:0:0:
79,153,162015,1,0,0:0:0:0:
52,54,162236,2,0,L|58:23,1,26.6666666666667
63,14,162457,6,0,L|62:9,14,5,2|2|2|2|2|2|2|2|2|2|2|2|2|2|2,0:0|0:0|0:0|0:0|0:0|0:0|0:0|0:0|0:0|0:0|0:0|0:0|0:0|0:0|0:0,0:0:0:0:
141,3,163150,5,4,0:0:0:0:
204,166,163371,1,0,0:0:0:0:
308,41,163592,1,2,0:2:0:0:
307,27,163703,1,0,0:0:0:0:
307,13,163813,5,0,0:0:0:0:
116,102,164034,1,0,0:0:0:0:
335,172,164255,1,2,0:2:0:0:
348,174,164366,1,0,0:0:0:0:
360,176,164476,5,0,0:0:0:0:
227,4,164697,1,0,0:0:0:0:
200,218,164918,2,0,P|221:180|225:149,1,66.6666666666667,2|0,0:2|0:0,2:2:0:0:
115,243,165139,1,0,0:0:0:0:
118,269,165250,1,0,0:0:0:0:
125,294,165360,1,0,0:0:0:0:
141,316,165471,2,0,P|126:248|43:220,1,133.333333333333,2|0,0:0|0:0,2:2:0:0:
36,235,165802,6,0,L|205:224,1,133.333333333333,4|0,0:0|0:0,2:2:0:0:
240,143,166134,2,0,L|409:154,1,133.333333333333,2|0,0:3|0:0,2:2:0:0:
475,223,166465,2,0,P|500:288|482:352,1,133.333333333333,2|0,0:2|0:0,2:2:0:0:
344,350,166797,2,0,P|319:285|337:221,1,133.333333333333,2|0,0:3|0:0,2:2:0:0:
460,99,167128,6,0,B|426:127|426:127|312:102,1,159.999995117188,4|0,0:2|0:0,2:2:0:0:
213,33,167460,1,2,1:2:0:0:
172,26,167570,1,0,1:0:0:0:
135,19,167681,1,0,1:0:0:0:
57,61,167791,5,2,1:2:0:0:
43,108,167902,1,0,1:0:0:0:
56,154,168012,1,0,1:0:0:0:
117,201,168123,5,2,1:2:0:0:
131,248,168232,1,0,1:0:0:0:
118,294,168344,1,0,1:0:0:0:
72,375,168454,6,0,B|53:350|53:350|113:311|184:345,1,159.999995117188,12|0,0:0|0:0,0:0:0:0:
292,357,168786,1,10,0:0:0:0:
314,334,168896,1,2,0:0:0:0:
321,302,169007,1,2,0:0:0:0:
305,258,169117,2,0,B|282:232|282:232|292:363,1,159.999995117188,0|0,1:0|0:0,0:0:0:0:
400,346,169449,1,10,0:0:0:0:
404,298,169559,1,2,0:0:0:0:
389,251,169670,1,2,0:0:0:0:
365,215,169780,6,0,B|333:176|333:176|352:64,1,159.999995117188,2|2,1:2|0:0,0:0:0:0:
445,0,170112,1,10,0:0:0:0:
457,29,170222,1,2,0:0:0:0:
455,61,170333,1,2,0:0:0:0:
360,94,170443,5,4,1:3:0:0:
311,91,170554,1,4,0:3:0:0:
263,89,170664,1,4,0:3:0:0:
178,125,170775,6,0,B|159:94|159:94|150:58,1,66.6666666666667,8|0,1:2|0:0,0:0:0:0:
137,21,171106,6,0,P|154:73|106:163,1,159.999995117188,12|0,0:0|0:0,0:0:0:0:
13,256,171438,1,10,0:2:0:0:
3,297,171548,1,2,0:2:0:0:
14,337,171659,1,2,0:2:0:0:
40,369,171769,2,0,B|89:361|89:361|120:336|120:336|190:328,1,159.999995117188,0|0,1:0|0:0,0:0:0:0:
375,290,172101,1,10,0:2:0:0:
377,343,172211,1,2,0:2:0:0:
342,384,172322,1,2,0:2:0:0:
291,364,172432,6,0,B|262:344|262:344|405:340,1,159.999995117188,0|0,1:0|0:0,0:0:0:0:
498,367,172764,1,10,0:2:0:0:
512,339,172874,1,2,0:2:0:0:
509,308,172985,1,2,0:2:0:0:
440,261,173095,5,4,1:3:0:0:
406,193,173206,1,4,1:3:0:0:
437,126,173316,1,4,1:3:0:0:
511,86,173427,6,0,B|493:53|493:53|443:34,1,79.9999975585938,12|0,1:2|0:0,0:0:0:0:
425,40,173758,6,0,L|250:53,1,159.999995117188,12|0,0:0|0:0,0:0:0:0:
142,70,174090,1,10,0:0:0:0:
105,112,174200,1,2,0:0:0:0:
106,168,174311,1,2,0:0:0:0:
143,209,174421,2,0,B|168:235|168:235|167:109,1,159.999995117188,0|0,1:0|0:0,0:0:0:0:
75,5,174753,1,10,0:0:0:0:
26,57,174863,1,2,0:0:0:0:
10,127,174974,1,2,0:0:0:0:
24,197,175084,6,0,B|46:240|46:240|32:354,1,159.999995117188,0|0,1:0|0:0,0:0:0:0:
126,306,175416,1,10,0:0:0:0:
165,299,175526,1,2,0:0:0:0:
204,308,175637,1,2,0:0:0:0:
280,364,175747,5,4,1:3:0:0:
353,368,175858,1,4,1:3:0:0:
425,370,175968,1,4,1:3:0:0:
498,290,176079,6,0,B|502:312|502:312|495:328|495:328|503:344|503:344|500:376,1,79.9999975585938,8|0,1:2|0:0,0:0:0:0:
512,384,176410,6,0,P|498:304|485:207,1,159.999995117188,12|0,0:0|0:0,0:0:0:0:
436,95,176742,1,10,0:0:0:0:
372,61,176852,1,2,0:0:0:0:
302,79,176963,1,2,0:0:0:0:
265,140,177073,2,0,P|336:100|332:24,1,159.999995117188,0|0,1:0|0:0,0:0:0:0:
175,2,177405,1,10,0:0:0:0:
167,80,177515,1,2,0:0:0:0:
160,160,177626,1,2,0:0:0:0:
79,216,177736,6,0,P|39:226|-5:232,2,79.9999975585938,2|0|0,1:2|0:0|0:0,0:0:0:0:
240,274,178067,2,0,P|281:278|324:287,2,79.9999975585938,10|0|0,0:0|0:0|0:0,0:0:0:0:
89,375,178399,5,4,1:3:0:0:
84,295,178509,1,4,1:3:0:0:
79,216,178620,1,4,1:3:0:0:
158,201,178730,5,8,1:2:0:0:
163,121,178840,1,4,1:3:0:0:
168,42,178951,1,4,1:3:0:0:
90,3,179062,6,0,B|162:8|162:8|191:17|191:17|271:21,1,173.333325398763,12|0,0:0|0:0,0:0:0:0:
411,93,179393,1,0,1:2:0:0:
436,23,179504,1,2,0:0:0:0:
364,34,179614,1,2,0:0:0:0:
433,114,179725,2,0,P|454:158|459:204,1,86.6666626993817,8|0,0:0|0:0,0:0:0:0:
364,34,179946,1,2,1:2:0:0:
304,171,180056,2,0,P|283:215|278:261,1,86.6666626993817,10|0,0:0|0:0,0:0:0:0:
433,114,180277,1,10,0:0:0:0:
264,54,180388,6,0,L|159:43,2,86.6666626993817,2|2|2,1:2|0:0|0:0,0:0:0:0:
408,79,180719,2,0,L|513:68,2,86.6666626993817,10|2|2,0:0|0:0|0:0,0:0:0:0:
304,171,181051,1,4,1:3:0:0:
277,252,181161,1,4,1:3:0:0:
323,333,181272,1,4,1:3:0:0:
420,327,181382,2,0,B|430:288|430:288|421:246,1,79.9999975585938,8|0,1:2|0:0,0:0:0:0:
396,220,181714,6,0,B|347:211|347:211|305:222|305:222|265:211|265:211|195:220,1,186.666660970052,12|0,0:0|0:0,0:0:0:0:
66,289,182045,1,2,1:2:0:0:
114,350,182156,1,2,0:0:0:0:
145,276,182266,1,2,0:0:0:0:
114,350,182377,6,0,P|147:375|200:384,1,93.3333304850261,10|0,0:0|0:0,0:0:0:0:
259,289,182598,1,2,1:2:0:0:
133,187,182708,2,0,P|127:228|146:278,1,93.3333304850261,10|0,0:0|0:0,0:0:0:0:
254,211,182929,1,10,0:0:0:0:
193,136,183040,6,0,B|176:119|155:113|155:113|222:118|222:118|233:124|233:124|303:128,2,186.666660970052,2|2|2,1:2|1:2|0:0,0:0:0:0:
317,218,183592,1,2,0:0:0:0:
391,182,183703,1,4,1:3:0:0:
468,214,183813,1,4,1:3:0:0:
486,296,183924,1,4,1:3:0:0:
421,356,184034,6,0,B|403:318|403:318|408:276,1,79.9999975585938,12|0,1:2|0:0,0:0:0:0:
420,254,184366,6,0,B|441:207|441:207|418:177|418:177|428:142|428:142|402:111|411:62,1,200.000007629395,12|0,0:0|0:0,0:0:0:0:
281,2,184697,1,8,0:0:0:0:
321,82,184808,1,0,1:0:0:0:
293,167,184918,1,0,1:0:0:0:
204,185,185029,1,8,0:0:0:0:
206,179,185250,1,8,0:0:0:0:
208,172,185471,5,8,0:0:0:0:
245,258,185581,1,0,1:0:0:0:
198,324,185692,1,8,0:0:0:0:
191,329,185913,5,8,0:0:0:0:
102,323,186023,1,0,1:0:0:0:
36,265,186134,1,8,0:0:0:0:
31,177,186244,1,8,0:0:0:0:
87,94,186355,5,4,1:3:0:0:
193,95,186465,1,4,1:3:0:0:
300,95,186576,1,4,1:3:0:0:
365,162,186686,6,0,B|382:158|382:158|407:161|407:161|434:154|434:154|465:157,1,79.9999975585938,12|0,1:2|0:0,0:0:0:0:
510,150,187018,6,0,P|435:160|426:291,1,213.333333333333,12|0,0:0|0:0,0:0:0:0:
512,365,187349,1,8,0:0:0:0:
448,373,187460,1,0,1:0:0:0:
384,377,187570,1,0,1:0:0:0:
317,310,187681,5,8,0:0:0:0:
235,299,187791,1,0,1:0:0:0:
153,288,187902,1,0,1:0:0:0:
52,302,188012,5,8,0:0:0:0:
79,200,188123,1,0,1:0:0:0:
41,102,188233,1,0,1:0:0:0:
110,20,188344,6,0,P|132:69|132:141,1,106.666666666667,8|0,0:0|0:0,0:0:0:0:
203,218,188565,1,0,1:0:0:0:
328,0,188675,2,0,P|312:49|301:120,1,106.666666666667,8|0,0:0|0:0,0:0:0:0:
339,201,188896,1,0,1:0:0:0:
412,115,189007,6,0,B|402:150|402:150|421:187|421:187|409:230,1,120,4|0,0:0|0:0,0:0:0:0:
476,296,189338,6,0,P|381:261|331:290,1,165.000005035401,2|0,0:1|0:0,0:0:0:0:
373,354,189670,6,0,B|327:336|327:336|274:349|274:349|228:314|157:324,1,209.999993591309,4|0,1:1|0:0,0:0:0:0:
103,378,190001,2,0,P|136:318|124:248,1,139.999995727539,8|2,0:0|0:3,0:0:0:0:
81,184,190250,1,2,0:0:0:0:
68,168,190333,2,0,B|50:167|50:167|35:172|35:172|17:170|17:170|-13:163,1,69.9999978637696,2|0,1:2|0:0,0:0:0:0:
232,28,190498,2,0,B|214:29|214:29|199:24|199:24|181:26|181:26|151:33,1,69.9999978637696,2|0,1:3|0:0,0:0:0:0:
298,180,190664,1,8,0:0:0:0:
301,195,190747,1,0,0:0:0:0:
304,210,190830,1,2,0:3:0:0:
308,225,190913,1,0,0:0:0:0:
311,240,190996,5,2,1:0:0:0:
363,262,191079,1,2,0:0:0:0:
419,263,191161,1,2,0:3:0:0:
466,232,191244,1,2,0:0:0:0:
484,177,191327,2,0,P|481:136|459:87,1,69.9999978637696,10|0,0:0|0:0,0:0:0:0:
311,240,191493,2,0,P|298:278|302:331,1,69.9999978637696,2|0,0:3|0:0,0:0:0:0:
483,363,191659,5,0,1:0:0:0:
488,341,191742,1,0,3:0:0:0:
488,319,191824,1,2,1:3:0:0:
482,297,191907,1,0,3:0:0:0:
471,276,191990,1,8,0:0:0:0:
466,254,192073,1,0,3:0:0:0:
466,232,192156,1,2,0:3:0:0:
473,210,192238,1,0,3:0:0:0:
482,183,192322,5,4,1:1:0:0:
474,195,192405,1,2,0:0:0:0:
456,210,192487,1,2,0:3:0:0:
428,222,192570,1,2,0:0:0:0:
384,228,192653,1,10,0:0:0:0:
331,203,192736,1,2,0:0:0:0:
264,170,192819,2,0,P|231:167|191:176,1,69.9999978637696,2|0,0:3|0:0,0:0:0:0:
139,384,192985,5,2,1:2:0:0:
186,366,193067,1,2,0:0:0:0:
217,329,193150,2,0,P|223:294|223:259,1,69.9999978637696,2|0,1:3|0:0,0:0:0:0:
42,114,193316,5,10,0:0:0:0:
34,163,193398,1,2,0:0:0:0:
50,209,193482,2,0,P|76:231|106:249,1,69.9999978637696,2|0,0:3|0:0,0:0:0:0:
264,170,193648,5,2,1:0:0:0:
267,142,193730,1,2,0:0:0:0:
257,111,193813,1,2,0:3:0:0:
229,91,193896,1,2,0:0:0:0:
171,99,193979,5,8,0:0:0:0:
219,107,194062,1,0,3:0:0:0:
267,116,194145,1,2,0:3:0:0:
315,125,194228,1,0,3:0:0:0:
342,90,194311,1,0,1:0:0:0:
389,81,194394,1,2,0:0:0:0:
437,72,194475,1,2,1:3:0:0:
486,64,194558,1,2,0:0:0:0:
512,79,194642,1,8,0:0:0:0:
511,94,194725,1,2,0:0:0:0:
510,108,194808,1,2,0:3:0:0:
509,123,194891,1,2,0:0:0:0:
506,137,194974,6,0,L|514:199,3,50,4|0|2|0,1:1|3:0|0:3|3:0,0:0:0:0:
428,255,195305,2,0,L|420:317,3,50,10|0|2|0,0:0|3:0|0:3|3:0,0:0:0:0:
320,374,195637,1,2,1:2:0:0:
282,384,195719,1,0,0:0:0:0:
244,381,195802,1,2,1:3:0:0:
214,355,195885,1,0,0:0:0:0:
203,318,195968,1,8,0:0:0:0:
208,268,196051,1,0,0:0:0:0:
212,219,196134,1,2,0:3:0:0:
217,170,196217,1,0,0:0:0:0:
220,119,196300,6,0,B|204:76|204:76|185:286,1,240,2|0,1:1|0:0,0:0:0:0:
100,355,196631,1,8,0:0:0:0:
100,355,196714,1,0,3:0:0:0:
100,355,196797,2,0,P|110:320|114:283,1,69.9999978637696,2|0,0:3|0:0,0:0:0:0:
333,282,196963,2,0,P|323:247|319:210,1,69.9999978637696,2|0,1:2|0:0,0:0:0:0:
42,211,197128,2,0,P|52:176|56:139,1,69.9999978637696,2|0,1:3|0:0,0:0:0:0:
297,53,197294,1,10,0:0:0:0:
297,53,197377,1,2,0:0:0:0:
297,53,197460,2,0,P|301:87|310:121,1,69.9999978637696,2|0,0:3|0:0,0:0:0:0:
190,371,197626,5,4,1:2:0:0:
189,365,197708,1,0,0:0:0:0:
188,359,197791,1,2,0:3:0:0:
187,353,197874,1,0,0:0:0:0:
186,347,197957,2,0,B|188:335|188:335|186:316|186:316|190:296|190:296|188:273,1,69.9999978637696,8|0,0:0|0:0,0:0:0:0:
319,213,198123,2,0,B|317:201|317:201|319:182|319:182|315:162|315:162|317:139,1,69.9999978637696,2|0,0:3|0:0,0:0:0:0:
58,50,198288,5,4,1:1:0:0:
57,56,198370,1,0,0:0:0:0:
56,62,198453,1,2,0:3:0:0:
55,68,198536,1,0,0:0:0:0:
54,74,198620,2,0,B|48:109|48:109|53:124|53:124|56:148,1,69.9999978637696,8|0,0:0|0:0,0:0:0:0:
188,277,198786,2,0,B|194:242|194:242|189:227|189:227|186:203,1,69.9999978637696,2|0,0:3|0:0,0:0:0:0:
299,22,198951,5,6,1:2:0:0:
365,6,199034,1,0,1:0:0:0:
425,39,199116,1,2,1:3:0:0:
446,104,199199,1,0,1:0:0:0:
418,167,199282,1,8,1:2:0:0:
354,192,199365,1,0,1:0:0:0:
290,168,199449,2,0,P|302:135|325:105,1,69.9999978637696,2|0,1:3|0:0,0:0:0:0:
474,226,199614,5,4,1:1:0:0:
429,257,199696,1,2,1:2:0:0:
377,272,199779,1,2,1:3:0:0:
323,270,199862,1,2,1:2:0:0:
272,251,199945,1,10,1:2:0:0:
227,220,200028,1,2,1:2:0:0:
175,209,200111,1,2,1:3:0:0:
125,229,200194,1,2,1:2:0:0:
88,298,200277,6,0,B|113:262|113:262|101:134,1,160,6|2,1:0|0:0,0:0:0:0:
37,56,200526,1,2,0:0:0:0:
20,85,200609,1,10,0:0:0:0:
227,220,200775,6,0,P|250:143|280:66,1,160,2|0,0:1|1:0,0:0:0:0:
368,11,201023,1,2,0:0:0:0:
384,50,201106,1,2,1:2:0:0:
258,244,201272,1,8,3:2:0:0:
258,244,201355,1,0,3:0:0:0:
258,244,201438,6,0,B|214:221|214:221|186:232|186:232|157:214|157:214|130:249|90:262|41:240,1,240,6|0,3:2|0:0,0:0:0:0:
89,177,201769,2,0,P|114:263|114:343,1,160,2|8,0:0|0:0,0:0:0:0:
226,381,202018,1,2,3:2:0:0:
226,381,202101,2,0,P|215:339|210:297,1,80,2|0,3:2|0:0,0:0:0:0:
277,95,202266,6,0,P|320:157|284:224,1,160,2|0,1:1|0:0,0:0:0:0:
179,93,202515,2,0,P|259:72|317:117,1,160,4|0,1:2|0:0,0:0:0:0:
388,245,202764,2,0,B|407:258|407:258|397:191,1,89.9999972534181,0|0,1:0|0:0,0:0:0:0:
489,0,202929,6,0,B|462:30|462:30|482:156,1,160,4|2,1:1|0:0,0:0:0:0:
364,374,203261,1,8,0:0:0:0:
348,328,203344,1,8,3:3:0:0:
356,280,203427,1,4,0:3:0:0:
388,245,203509,1,8,3:3:0:0:
435,238,203592,2,0,P|474:246|516:276,1,80,0|0,1:0|0:0,0:0:0:0:
271,337,203758,6,0,B|300:296|300:296|287:181,1,160,2|8,1:2|0:0,0:0:0:0:
229,103,204007,1,0,3:0:0:0:
229,103,204090,2,0,P|190:98|146:94,1,80,2|0,3:2|0:0,0:0:0:0:
19,250,204255,5,2,1:1:0:0:
58,276,204338,1,0,3:0:0:0:
105,279,204421,1,2,3:3:0:0:
150,262,204504,1,0,3:0:0:0:
201,215,204587,5,8,0:0:0:0:
240,189,204670,1,0,3:0:0:0:
287,186,204753,1,2,3:3:0:0:
332,203,204836,1,0,3:0:0:0:
374,260,204918,5,4,1:2:0:0:
335,228,205000,1,2,0:0:0:0:
321,181,205083,1,2,1:3:0:0:
337,134,205166,1,2,0:0:0:0:
376,105,205249,1,8,0:0:0:0:
425,102,205332,1,2,0:0:0:0:
467,129,205416,1,2,0:3:0:0:
487,174,205498,1,2,0:0:0:0:
478,218,205581,5,4,1:1:0:0:
446,221,205664,1,0,0:0:0:0:
414,224,205747,2,0,L|318:228,1,80,2|0,1:3|0:0,0:0:0:0:
123,128,205913,1,10,0:1:0:0:
155,131,205996,1,0,0:0:0:0:
187,134,206079,2,0,P|225:158|239:188,1,80,2|0,1:3|0:0,0:0:0:0:
142,371,206244,5,8,1:3:0:0:
145,339,206327,1,8,3:0:0:0:
148,307,206410,2,0,L|152:211,1,80,2|0,1:3|0:0,0:0:0:0:
263,27,206576,1,10,0:0:0:0:
291,44,206659,1,2,0:0:0:0:
303,76,206742,2,0,L|307:172,1,80,2|0,0:3|0:0,0:0:0:0:
151,227,206907,5,4,1:1:0:0:
101,225,206989,1,0,1:0:0:0:
58,201,207072,1,0,1:0:0:0:
31,159,207156,1,0,1:0:0:0:
28,110,207238,1,8,1:2:0:0:
48,65,207322,1,0,1:0:0:0:
87,34,207404,1,0,1:0:0:0:
135,26,207487,1,0,1:0:0:0:
182,41,207570,6,0,P|165:79|128:108,1,80,2|0,1:1|1:0,0:0:0:0:
0,177,207736,2,0,P|40:173|84:191,1,80,0|0,1:0|1:0,0:0:0:0:
198,271,207902,2,0,L|203:345,3,50,8|0|0|0,1:2|1:0|1:0|1:0,0:0:0:0:
168,194,208233,5,4,1:0:0:0:
124,174,208316,1,0,3:0:0:0:
77,186,208399,1,0,3:0:0:0:
47,223,208482,1,0,3:0:0:0:
52,270,208565,2,0,P|79:298|120:303,1,80,8|0,3:2|3:0,0:0:0:0:
328,259,208730,5,4,0:0:0:0:
323,203,208813,1,0,0:0:0:0:
318,147,208896,1,0,0:0:0:0:
314,91,208979,1,0,0:0:0:0:
310,35,209062,2,0,P|273:24|224:23,1,80,8|0,0:0|0:0,0:0:0:0:
55,120,209228,5,6,0:1:0:0:
88,174,209311,1,2,0:0:0:0:
150,186,209393,2,0,P|189:179|223:159,1,80,10|0,0:0|0:0,0:0:0:0:
387,34,209559,5,4,1:1:0:0:
459,30,209642,1,2,0:0:0:0:
508,82,209725,1,2,0:0:0:0:
503,153,209808,1,2,0:0:0:0:
439,187,209891,2,0,P|400:178|354:172,1,80,10|0,0:0|0:0,0:0:0:0:
144,105,210056,5,4,1:2:0:0:
84,145,210139,1,0,3:0:0:0:
57,212,210222,1,0,3:0:0:0:
77,281,210305,1,0,3:0:0:0:
133,325,210388,2,0,P|172:316|218:310,1,80,8|0,3:2|3:0,0:0:0:0:
408,300,210554,5,4,1:0:0:0:
420,324,210637,1,8,0:3:0:0:
416,351,210719,1,8,0:3:0:0:
396,371,210802,1,8,0:3:0:0:
373,375,210885,5,2,1:1:0:0:
353,331,210968,1,2,0:0:0:0:
362,284,211051,1,2,0:0:0:0:
385,233,211134,5,4,1:0:0:0:
402,177,211217,1,0,0:0:0:0:
397,122,211300,1,2,0:0:0:0:
355,84,211382,1,2,0:0:0:0:
289,74,211465,1,2,0:0:0:0:
238,116,211548,1,2,3:2:0:0:
231,190,211631,1,2,3:2:0:0:
258,260,211714,1,2,3:2:0:0:
231,330,211797,1,2,3:2:0:0:
154,364,211880,1,10,0:0:0:0:
75,331,211963,1,10,0:0:0:0:
46,242,212045,1,10,0:0:0:0:
96,168,212128,1,10,0:0:0:0:
204,156,212211,6,0,B|252:163|252:163|288:152|288:152|315:171|351:175|383:163|383:163|402:171|402:171|418:169,1,220.000006713867,4|0,1:0|0:0,0:0:0:0:
371,264,212460,2,0,P|310:179|354:84,1,220.000006713867,4|0,1:0|0:0,0:0:0:0:
459,73,212708,2,0,P|521:159|478:255,1,220.000006713867,4|8,1:0|0:0,0:0:0:0:
478,254,213206,1,4,0:0:0:0:
116,321,213537,6,0,B|111:278|111:278|156:333|156:333|139:372,1,150.000005722046,4|0,1:1|0:0,0:0:0:0:
253,23,214697,6,0,B|292:38|292:38|240:41|240:41|231:46|231:46|176:47,1,150.000005722046,4|0,0:0|0:0,0:0:0:0:
419,263,215195,5,8,0:0:0:0:
422,234,215277,1,0,1:0:0:0:
425,205,215360,1,2,1:2:0:0:
428,176,215443,1,0,1:0:0:0:
431,147,215526,1,8,0:0:0:0:
438,296,215692,6,0,B|451:161|451:161|466:225,1,200,4|0,1:1|0:0,0:0:0:0:
474,374,215940,2,0,P|445:315|321:305,1,200,4|0,1:2|0:0,0:0:0:0:
246,365,216189,6,0,B|251:326|251:326|248:311|248:311|252:285|252:285|207:291|207:291|226:325,1,150.000005722046,4|0,1:1|0:0,0:0:0:0:
81,102,217349,6,0,B|171:88|171:88|185:102|185:102|207:91|207:91|300:76|300:76|243:122,1,300,4|0,1:0|0:0,0:0:0:0:
193,175,217681,1,8,0:0:0:0:
397,142,217846,2,0,B|396:101|396:101|337:148|337:148|340:234,1,200,0|10,1:0|0:0,0:0:0:0:
488,302,218178,1,0,1:0:0:0:
473,49,218344,5,12,0:2:0:0:
440,25,218427,1,8,0:0:0:0:
402,13,218509,1,8,0:0:0:0:
362,20,218592,1,8,0:0:0:0:
329,42,218675,1,8,0:0:0:0:
291,57,218758,1,8,0:0:0:0:
271,48,218841,5,4,1:0:0:0:
299,34,218924,1,0,3:0:0:0:
329,42,219007,1,0,3:0:0:0:
345,69,219090,1,0,3:0:0:0:
323,105,219172,5,8,0:0:0:0:
292,133,219255,1,2,0:0:0:0:
280,174,219338,1,2,0:0:0:0:
294,213,219421,1,2,0:0:0:0:
336,241,219504,5,4,1:3:0:0:
387,229,219587,1,0,1:0:0:0:
418,185,219670,1,0,1:0:0:0:
409,132,219753,1,0,1:0:0:0:
367,100,219835,5,8,0:0:0:0:
315,86,219918,1,0,3:0:0:0:
261,88,220001,1,0,3:0:0:0:
215,115,220084,1,0,3:0:0:0:
160,148,220167,5,4,1:3:0:0:
97,156,220250,1,0,1:0:0:0:
52,109,220333,1,0,1:0:0:0:
59,45,220416,1,0,1:0:0:0:
116,20,220498,5,8,0:0:0:0:
174,44,220581,1,8,0:0:0:0:
189,106,220664,1,8,0:0:0:0:
147,153,220747,1,8,0:0:0:0:
108,217,220830,5,4,1:3:0:0:
118,290,220913,1,8,0:0:0:0:
170,343,220996,1,8,0:0:0:0:
243,351,221079,1,8,0:0:0:0:
313,305,221161,5,10,0:1:0:0:
330,221,221244,1,8,0:0:0:0:
289,134,221327,1,8,0:0:0:0:
308,40,221410,1,8,0:0:0:0:
397,4,221493,6,0,L|431:-1,2,30,2|2|2,0:0|0:0|0:0,0:0:0:0:
122,219,222322,6,0,B|144:102|144:102|98:102|98:102|114:153,1,200,4|0,1:0|0:0,0:0:0:0:
212,198,222570,2,0,B|222:153|222:153|256:176|256:176|279:151|328:141|366:166,1,200,4|0,1:2|0:0,0:0:0:0:
316,225,222819,5,12,1:0:0:0:
283,174,222902,1,8,0:0:0:0:
295,115,222985,1,8,0:0:0:0:
346,84,223067,1,8,0:0:0:0:
397,84,223150,5,4,1:3:0:0:
340,106,223233,1,0,1:0:0:0:
278,96,223316,1,0,1:0:0:0:
233,55,223399,1,0,1:0:0:0:
200,32,223482,5,10,0:0:0:0:
204,87,223565,1,10,0:0:0:0:
208,143,223648,1,10,0:0:0:0:
212,198,223730,1,10,0:0:0:0:
174,205,223813,5,8,3:0:0:0:
170,260,223896,1,8,3:0:0:0:
166,316,223979,1,4,3:0:0:0:
162,371,224061,1,4,3:0:0:0:
198,383,224144,5,4,1:1:0:0:
60,89,224311,1,10,0:0:0:0:
57,148,224394,1,2,0:0:0:0:
54,207,224475,2,0,L|48:297,1,85.0000016212464,2|0,1:2|3:0,0:0:0:0:
198,383,224642,2,0,L|192:292,1,85.0000016212464,10|0,0:0|0:0,0:0:0:0:
285,145,224808,1,2,1:2:0:0:
367,125,224891,1,2,0:0:0:0:
440,167,224974,2,0,B|400:189|400:189|268:163,1,170.000003242493,10|0,0:0|1:0,0:0:0:0:
175,104,225222,1,0,3:0:0:0:
175,104,225305,6,0,P|241:149|235:242,1,170.000003242493,10|0,0:0|1:0,0:0:0:0:
81,376,225637,1,10,0:0:0:0:
39,163,225802,1,2,1:2:0:0:
31,129,225885,1,0,3:0:0:0:
23,95,225968,2,0,L|5:0,1,85.0000016212464,10|0,0:0|0:0,0:0:0:0:
176,304,226134,6,0,B|186:303|186:303|192:311|192:311|199:317|199:317|214:322|214:322|223:324|223:324|230:320|230:320|235:322|235:322|252:326|252:326|264:322|264:322|270:316|270:316|283:317|283:317|294:311|294:311|296:300|296:300|311:299|311:299|312:291|312:291|321:275|322:269|322:269|327:255|327:255,1,200,2|8,1:2|0:0,0:0:0:0:
183,74,226464,1,2,1:2:0:0:
175,104,226548,1,0,3:0:0:0:
183,136,226631,1,10,0:0:0:0:
325,259,226797,5,6,1:2:0:0:
414,32,226963,1,10,0:0:0:0:
358,10,227045,1,2,0:0:0:0:
302,30,227128,2,0,P|270:68|257:107,1,85.0000016212464,2|0,1:2|3:0,0:0:0:0:
416,260,227294,2,0,P|399:213|371:182,1,85.0000016212464,10|0,0:0|0:0,0:0:0:0:
176,304,227460,1,2,1:2:0:0:
93,324,227543,1,2,0:0:0:0:
21,277,227626,2,0,B|-3:227|-3:227|24:116,1,170.000003242493,10|0,0:0|1:0,0:0:0:0:
87,36,227874,1,0,3:0:0:0:
106,13,227957,6,0,B|106:40|106:40|113:61|113:61|108:82|108:82|106:101|106:101|110:117|110:117|108:136|108:136|112:156|112:156|109:177|109:177|112:196|112:196|112:212|112:212,1,200,14|2,0:0|1:2,0:0:0:0:
228,371,228289,1,10,0:0:0:0:
303,154,228453,1,2,1:2:0:0:
302,132,228537,1,0,3:0:0:0:
300,109,228620,1,10,0:0:0:0:
446,379,228786,2,0,B|427:330|427:330|460:207,1,170.000003242493,4|10,1:1|0:0,0:0:0:0:
295,38,229117,1,10,1:2:0:0:
296,60,229199,1,8,0:0:0:0:
298,83,229282,1,10,0:0:0:0:
150,287,229449,5,2,1:1:0:0:
66,284,229532,1,0,0:0:0:0:
6,223,229614,1,8,0:0:0:0:
0,136,229697,1,0,0:0:0:0:
48,64,229780,2,0,P|86:48|129:36,1,85.0000016212464,0|0,1:0|3:0,0:0:0:0:
160,300,229946,5,10,0:1:0:0:
77,297,230029,1,0,0:0:0:0:
17,237,230111,1,0,1:0:0:0:
11,149,230194,1,0,0:0:0:0:
58,77,230277,2,0,B|99:60|138:49|138:49|170:63|226:60,1,170.000003242493,8|0,0:0|1:0,0:0:0:0:
302,124,230526,1,0,3:0:0:0:
334,132,230609,1,10,0:0:0:0:
465,12,230775,6,0,P|425:94|455:170,1,170.000003242493,4|8,1:1|0:0,0:0:0:0:
461,186,231023,1,8,0:0:0:0:
475,216,231106,1,8,0:0:0:0:
480,249,231189,1,8,0:0:0:0:
469,290,231272,1,8,0:0:0:0:
436,317,231355,1,8,0:0:0:0:
385,322,231438,1,4,1:3:0:0:
330,297,231521,1,8,0:3:0:0:
278,268,231603,1,8,0:3:0:0:
211,253,231686,1,8,0:3:0:0:
145,271,231769,1,12,0:0:0:0:
133,346,231852,1,8,0:0:0:0:
201,381,231935,1,8,0:0:0:0:
255,326,232018,1,8,0:0:0:0:
248,249,232101,6,0,B|222:201|222:201|251:58,1,200,4|0,1:1|0:0,0:0:0:0:
330,94,232349,2,0,P|250:144|170:91,1,200,0|0,1:0|0:0,0:0:0:0:
102,41,232598,2,0,P|116:88|108:137,1,100,8|0,0:0|0:0,0:0:0:0:
17,323,232764,6,0,B|108:305|103:400|207:379,1,200,4|0,1:2|0:0,0:0:0:0:
236,234,233012,2,0,P|173:214|207:298,1,200,0|0,1:0|0:0,0:0:0:0:
320,236,233261,2,0,P|313:200|274:143,1,100,8|0,0:0|0:0,0:0:0:0:
51,205,233427,5,4,1:3:0:0:
108,137,233758,1,0,1:0:0:0:
165,69,234090,1,2,1:2:0:0:
236,219,234255,5,8,0:0:0:0:
254,225,234338,1,8,0:0:0:0:
273,221,234421,1,8,0:3:0:0:
277,201,234504,1,8,0:3:0:0:
269,191,234587,1,8,0:0:0:0:
256,192,234670,1,8,0:0:0:0:
253,202,234753,6,0,L|261:258,1,44.999998626709,2|0,1:0|0:0,0:0:0:0:
336,101,235084,2,0,L|344:157,1,44.999998626709,2|0,1:0|0:0,0:0:0:0:
420,0,235416,2,0,L|428:56,1,44.999998626709,2|0,1:0|0:0,0:0:0:0:
253,202,235747,6,0,L|261:258,1,44.999998626709,2|0,1:0|0:0,0:0:0:0:
245,300,236079,6,0,L|266:147,1,150.000005722046,4|2,1:1|0:3,0:0:0:0:
106,17,236410,1,8,3:2:0:0:
79,62,236493,1,0,3:2:0:0:
92,112,236576,1,2,3:3:0:0:
139,133,236659,1,0,3:0:0:0:
188,116,236742,1,0,1:0:0:0:
327,16,236907,1,2,0:3:0:0:
378,5,236990,1,0,0:0:0:0:
424,30,237073,2,0,B|442:73|442:73|431:185,1,150.000005722046,8|2,0:0|0:3,0:0:0:0:
475,264,237322,1,0,0:0:0:0:
475,264,237405,6,0,P|399:210|331:212,1,150.000005722046,0|2,1:0|0:3,0:0:0:0:
205,347,237736,1,8,0:0:0:0:
240,336,237819,1,0,3:0:0:0:
262,306,237902,1,2,0:3:0:0:
106,150,238067,5,0,1:0:0:0:
100,202,238150,1,0,3:0:0:0:
94,254,238233,1,2,0:3:0:0:
88,306,238316,1,0,3:0:0:0:
83,358,238399,1,8,0:0:0:0:
257,188,238565,1,2,0:3:0:0:
99,34,238730,5,0,1:0:0:0:
56,20,238813,1,0,3:0:0:0:
31,56,238896,1,2,0:3:0:0:
58,91,238979,1,0,3:0:0:0:
99,77,239062,1,8,0:0:0:0:
326,83,239228,1,2,0:3:0:0:
370,92,239311,1,2,0:0:0:0:
374,135,239394,1,0,1:0:0:0:
333,152,239475,1,0,0:0:0:0:
304,120,239558,1,2,0:3:0:0:
433,33,239725,2,0,P|447:67|452:104,1,75.0000028610231,8|0,0:0|0:0,0:0:0:0:
242,174,239891,2,0,P|227:139|222:102,1,75.0000028610231,2|0,0:3|0:0,0:0:0:0:
496,209,240056,6,0,B|455:195|455:195|348:228,1,150.000005722046,0|2,1:0|0:3,0:0:0:0:
338,242,240305,1,0,3:0:0:0:
326,257,240388,5,8,0:0:0:0:
273,254,240471,1,0,1:0:0:0:
220,252,240554,1,2,0:3:0:0:
167,250,240637,1,0,3:0:0:0:
129,249,240719,5,8,0:0:0:0:
109,217,240802,1,8,0:0:0:0:
109,179,240885,1,2,1:3:0:0:
128,146,240968,1,0,1:0:0:0:
141,128,241051,5,8,0:0:0:0:
150,107,241134,1,0,1:0:0:0:
150,84,241217,1,2,1:3:0:0:
144,62,241300,1,0,1:0:0:0:
138,56,241382,6,0,B|164:53|187:62|187:62|196:48|196:48|235:68|291:55,1,160,4|2,1:2|0:3,0:0:0:0:
464,99,241714,1,8,0:0:0:0:
477,61,241797,1,0,3:0:0:0:
468,21,241880,1,2,0:3:0:0:
284,145,242045,6,0,B|279:213|279:213|289:227|289:227|284:307,1,160,0|2,1:0|3:3,0:0:0:0:
223,354,242294,1,0,3:0:0:0:
223,354,242377,2,0,P|170:289|91:269,1,160,8|0,0:0|0:0,0:0:0:0:
32,328,242625,1,0,0:0:0:0:
45,360,242708,6,0,B|73:317|73:317|61:209,1,160,0|2,1:0|0:3,0:0:0:0:
160,5,243040,2,0,P|150:40|144:104,1,80,8|0,0:0|0:0,0:0:0:0:
190,249,243206,1,2,0:3:0:0:
367,93,243371,1,0,1:0:0:0:
339,63,243454,1,0,3:0:0:0:
302,46,243537,1,2,0:3:0:0:
261,46,243620,1,0,3:0:0:0:
225,63,243703,1,8,0:0:0:0:
303,263,243869,1,2,0:3:0:0:
303,263,243951,1,0,3:0:0:0:
303,263,244034,6,0,P|297:214|286:179,1,80,0|0,1:0|0:0,0:0:0:0:
393,17,244200,2,0,P|373:62|365:98,1,80,2|0,0:3|0:0,0:0:0:0:
504,250,244366,2,0,P|494:169|467:92,1,160,8|2,0:0|3:3,0:0:0:0:
446,84,244614,1,0,3:0:0:0:
446,84,244697,2,0,L|356:93,1,80,0|0,1:0|0:0,0:0:0:0:
280,280,244863,1,2,0:3:0:0:
168,62,245029,1,8,0:0:0:0:
160,59,245112,1,0,3:0:0:0:
152,57,245195,1,2,0:3:0:0:
144,57,245277,1,0,3:0:0:0:
136,58,245360,5,0,1:0:0:0:
119,94,245443,1,0,0:0:0:0:
119,134,245526,1,8,0:0:0:0:
135,170,245609,1,8,0:0:0:0:
155,204,245692,1,8,0:0:0:0:
166,242,245775,1,8,0:0:0:0:
161,281,245858,1,8,0:0:0:0:
144,317,245940,1,8,0:0:0:0:
109,336,246023,5,8,0:3:0:0:
124,308,246106,1,8,0:3:0:0:
151,291,246189,1,8,0:3:0:0:
182,293,246272,1,8,0:3:0:0:
211,304,246355,1,4,0:3:0:0:
232,315,246438,1,4,0:3:0:0:
255,321,246521,1,4,0:3:0:0:
270,319,246603,1,4,0:3:0:0:
277,312,246686,6,0,P|298:235|308:146,1,170.000003242493,4|2,1:1|0:3,0:0:0:0:
419,0,247018,2,0,P|412:18|402:89,1,85.0000016212464,8|0,3:2|3:2,0:0:0:0:
490,247,247184,2,0,P|490:227|475:157,1,85.0000016212464,2|0,3:3|0:0,0:0:0:0:
285,33,247349,2,0,B|202:25|204:94|132:93,1,170.000003242493,0|2,1:0|3:3,0:0:0:0:
62,41,247598,1,0,3:0:0:0:
62,41,247681,2,0,P|116:114|102:187,1,170.000003242493,8|0,0:0|3:0,0:0:0:0:
48,262,247929,1,0,3:0:0:0:
14,300,248012,6,0,B|39:302|55:292|55:292|63:311|63:311|121:292|169:310,1,170.000003242493,0|2,1:0|0:3,0:0:0:0:
373,384,248344,1,8,0:0:0:0:
395,347,248427,1,0,3:0:0:0:
394,305,248509,1,2,0:3:0:0:
187,149,248675,1,0,1:0:0:0:
195,206,248758,1,0,3:0:0:0:
238,246,248841,1,2,0:3:0:0:
297,243,248924,1,0,3:0:0:0:
342,204,249007,1,8,0:0:0:0:
131,82,249172,1,2,0:3:0:0:
131,82,249255,1,0,3:0:0:0:
131,82,249338,6,0,P|105:119|97:165,1,85.0000016212464,0|0,1:0|0:0,0:0:0:0:
260,325,249504,2,0,P|255:279|231:239,1,85.0000016212464,2|0,0:3|0:0,0:0:0:0:
19,297,249670,2,0,B|55:332|55:332|177:306,1,170.000003242493,8|2,0:0|3:3,0:0:0:0:
237,245,249918,1,0,3:0:0:0:
262,220,250001,6,0,P|287:213|355:209,1,85.0000016212464,0|0,1:0|0:0,0:0:0:0:
97,157,250167,2,0,P|72:164|4:168,1,85.0000016212464,2|0,0:3|0:0,0:0:0:0:
200,23,250333,1,8,0:0:0:0:
259,25,250416,1,0,3:0:0:0:
310,53,250498,1,2,0:3:0:0:
368,63,250581,1,0,3:0:0:0:
427,62,250664,6,0,P|380:72|343:180,1,170.000003242493,0|2,1:0|3:3,0:0:0:0:
348,181,250913,1,0,3:0:0:0:
355,185,250996,5,8,0:0:0:0:
419,214,251079,1,8,0:0:0:0:
434,282,251161,1,2,0:3:0:0:
403,347,251244,1,2,0:0:0:0:
345,366,251327,5,0,1:0:0:0:
296,349,251410,1,8,0:0:0:0:
264,323,251493,1,2,0:3:0:0:
226,307,251576,1,0,1:0:0:0:
195,304,251659,5,8,0:0:0:0:
163,306,251742,1,8,0:0:0:0:
146,310,251824,1,2,1:3:0:0:
131,318,251907,1,2,0:0:0:0:
126,327,251990,6,0,B|151:265|151:265|129:221|129:221|148:151,1,179.999994506836,4|2,1:2|0:3,0:0:0:0:
365,58,252322,1,8,0:0:0:0:
381,109,252405,1,0,3:0:0:0:
370,161,252487,1,2,0:3:0:0:
136,136,252653,2,0,B|168:99|168:99|308:116,1,179.999994506836,0|2,1:0|3:3,0:0:0:0:
370,161,252902,1,0,3:0:0:0:
402,195,252985,2,0,B|443:264|412:316|412:316|383:338|352:316,1,179.999994506836,8|0,0:0|3:0,0:0:0:0:
264,254,253233,1,0,3:0:0:0:
198,220,253316,6,0,B|127:218|128:294|36:297,1,179.999994506836,0|2,1:0|0:3,0:0:0:0:
39,60,253648,1,8,0:0:0:0:
48,109,253731,1,0,3:0:0:0:
57,159,253812,1,2,0:3:0:0:
171,362,253979,5,0,1:0:0:0:
184,291,254062,1,0,3:0:0:0:
198,220,254145,1,2,0:3:0:0:
212,148,254228,1,0,3:0:0:0:
226,78,254311,2,0,L|240:-19,1,89.9999972534181,12|0,0:2|0:0,0:0:0:0:
19,70,254476,2,0,L|33:167,1,89.9999972534181,2|0,0:3|0:0,0:0:0:0:
184,291,254642,5,4,1:1:0:0:
256,288,254725,1,8,0:0:0:0:
313,245,254808,1,2,1:3:0:0:
330,175,254891,1,0,1:0:0:0:
307,106,254974,2,0,P|298:69|297:12,1,89.9999972534181,8|0,0:0|0:0,0:0:0:0:
495,212,255139,5,10,0:3:0:0:
468,287,255222,1,4,0:3:0:0:
405,335,255305,1,0,1:0:0:0:
324,332,255388,1,0,1:0:0:0:
256,288,255471,2,0,P|233:275|156:254,1,89.9999972534181,2|0,3:3|0:0,0:0:0:0:
13,369,255637,2,0,P|35:366|104:343,1,89.9999972534181,8|0,0:0|0:0,0:0:0:0:
125,100,255802,2,0,P|103:106|40:142,1,89.9999972534181,2|0,0:3|0:0,0:0:0:0:
217,381,255968,5,4,1:1:0:0:
269,313,256051,1,0,0:0:0:0:
279,228,256134,1,8,0:0:0:0:
239,152,256217,1,8,0:0:0:0:
223,68,256300,1,8,0:0:0:0:
277,3,256382,1,8,0:0:0:0:
362,1,256465,1,8,0:0:0:0:
415,66,256548,1,8,0:0:0:0:
403,150,256631,5,8,0:3:0:0:
364,177,256714,1,8,0:3:0:0:
317,187,256797,1,8,0:3:0:0:
270,177,256880,1,8,0:3:0:0:
230,151,256963,1,4,0:3:0:0:
184,139,257046,1,4,0:3:0:0:
136,148,257127,1,4,0:3:0:0:
100,178,257210,1,4,0:3:0:0:
110,188,257294,5,2,0:0:0:0:
144,116,259449,6,0,B|163:57|163:57|178:98|178:98|201:114|201:114|215:158|215:158|152:134|152:134|121:133|121:133|55:109,1,333.333333333333,4|0,1:1|0:0,0:0:0:0:
