osu file format v14

[General]
AudioFilename: ayaponzu.mp3
AudioLeadIn: 0
PreviewTime: 212803
Countdown: 0
SampleSet: Soft
StackLeniency: 0.4
Mode: 0
LetterboxInBreaks: 0
WidescreenStoryboard: 1

[Editor]
Bookmarks: 8000,18608,23912,31868,45127,56092,56257,56423,56589,56755,56920,57061,75625,78277,88884,100155,108110,110762,121370,129326,133304,151867,154519,157834,163137,168441,179049,184353,189657,197638,205568,213524,218828,221480,224132,232088,233415,236066,246673,257281
DistanceSpacing: 0.4
BeatDivisor: 4
GridSize: 32
TimelineZoom: 2.899999

[Metadata]
Title:Haikei Doppelganger
TitleUnicode:拝啓ドッペルゲンガー
Artist:ayaponzu*
ArtistUnicode:あやぽんず*
Creator:Stack
Version:Stuk's Extra
Source:
Tags:impurePug kemu voxx utaite female vocalist mustacho yukiya Elayue bashe Aunn japanese rock vocaloid GUMI
BeatmapID:2458223
BeatmapSetID:1014945

[Difficulty]
HPDrainRate:5
CircleSize:3.8
OverallDifficulty:8.7
ApproachRate:9.2
SliderMultiplier:1.8
SliderTickRate:1

[Events]
//Background and Video events
0,0,"Konachan.com - 283619 2girls aliasing barefoot dress green_eyes long_hair neon_(pixiv31150749) original pointed_ears red_eyes twins white_hair wings.jpg",0,0
//Break Periods
2,78490,87001
2,158047,162580
//Storyboard Layer 0 (Background)
//Storyboard Layer 1 (Fail)
//Storyboard Layer 2 (Pass)
//Storyboard Layer 3 (Foreground)
//Storyboard Layer 4 (Overlay)
//Storyboard Sound Samples

[TimingPoints]
58,331.491712707182,4,2,1,70,1,0
8013,-83.3333333333333,4,2,1,90,0,0
18621,-83.3333333333333,4,2,1,60,0,0
21107,-83.3333333333333,4,2,1,70,0,0
23925,-111.111111111111,4,2,1,70,0,0
31881,-83.3333333333333,4,2,1,90,0,0
34533,-111.111111111111,4,2,1,70,0,0
42488,-83.3333333333333,4,2,1,90,0,0
45140,-100,4,2,1,70,0,0
47461,-200,4,2,1,70,0,0
47792,-100,4,2,1,70,0,0
50113,-200,4,2,1,70,0,0
50444,-100,4,2,1,70,0,0
54422,-83.3333333333333,4,2,1,80,0,0
55748,-71.4285714285714,4,2,1,80,0,0
56411,-500,4,2,1,80,0,0
56743,-1000,4,2,1,80,0,0
57074,-76.9230769230769,4,2,2,90,0,0
57240,-76.9230769230769,4,2,1,90,0,0
64408,-76.9230769230769,4,2,1,5,0,0
64450,-76.9230769230769,4,2,1,90,0,0
64574,-76.9230769230769,4,2,1,5,0,0
64616,-76.9230769230769,4,2,1,90,0,0
64740,-76.9230769230769,4,2,1,5,0,0
64781,-76.9230769230769,4,2,1,90,0,0
67682,-76.9230769230769,4,2,2,90,0,0
67848,-76.9230769230769,4,2,1,90,0,0
75638,-66.6666666666667,4,2,1,90,0,0
77958,-142.857142857143,4,2,1,70,0,0
78290,-142.857142857143,4,2,3,70,0,0
87571,-142.857142857143,4,2,1,70,0,0
88897,-100,4,2,1,80,0,0
91549,-1000,4,2,1,80,0,0
92212,-66.6666666666667,4,2,1,80,0,0
92875,-1000,4,2,1,80,0,0
93538,-66.6666666666667,4,2,1,80,0,0
96853,-1000,4,2,1,80,0,0
97516,-66.6666666666667,4,2,1,80,0,0
100168,331.491712707182,4,2,1,70,1,0
100168,-125,4,2,1,70,0,0
102902,-100,4,2,1,5,0,0
102985,-125,4,2,1,70,0,0
105554,-100,4,2,1,5,0,0
105637,-125,4,2,1,70,0,0
108123,-83.3333333333333,4,2,1,90,0,0
110775,-100,4,2,1,70,0,0
118731,-83.3333333333333,4,2,1,90,0,0
121383,-111.111111111111,4,2,1,70,0,0
126355,-200,4,2,1,70,0,0
126687,-111.111111111111,4,2,1,70,0,0
130665,-90.9090909090908,4,2,1,80,0,0
131991,-76.9230769230769,4,2,1,90,0,0
133317,-66.6666666666667,4,2,2,90,0,0
133482,-66.6666666666667,4,2,1,90,0,0
140609,-50,4,2,1,90,0,0
140651,-50,4,2,1,5,0,0
140775,-50,4,2,1,90,0,0
140817,-50,4,2,1,5,0,0
140941,-50,4,2,1,90,0,0
140983,-50,4,2,1,5,0,0
141107,-66.6666666666667,4,2,1,90,0,0
141770,-83.3333333333333,4,2,1,90,0,0
142598,-100,4,2,1,90,0,0
142930,-66.6666666666667,4,2,1,90,0,0
143924,-66.6666666666667,4,2,2,90,0,0
144090,-66.6666666666667,4,2,1,90,0,0
146245,-50,4,2,1,90,0,0
148234,-66.6666666666667,4,2,1,90,0,0
148565,-83.3333333333333,4,2,1,90,0,0
150057,-50,4,2,1,90,0,0
150388,-66.6666666666667,4,2,1,90,0,0
154201,-66.6666666666667,4,2,1,70,0,0
154532,-66.6666666666667,4,2,1,85,0,0
157847,331.491712707182,4,2,3,70,1,0
159172,324.324324324324,4,2,3,70,1,0
160469,331.491712707182,4,2,3,70,1,0
163150,331.491712707182,4,1,1,70,1,0
168454,-100,4,2,2,90,0,0
168786,-100,4,2,1,70,0,0
171106,-100,4,2,2,90,0,0
171327,-100,4,2,1,70,0,0
173758,-100,4,2,2,90,0,0
174090,-100,4,2,1,70,0,0
176410,-100,4,2,2,90,0,0
176742,-100,4,2,1,70,0,0
179062,-83.3333333333333,4,2,2,90,0,0
179393,-83.3333333333333,4,2,1,70,0,0
181382,-111.111111111111,4,2,1,70,0,0
181714,-83.3333333333333,4,2,2,90,0,0
182045,-83.3333333333333,4,2,1,70,0,0
184034,-111.111111111111,4,2,1,70,0,0
184366,-83.3333333333333,4,2,2,90,0,0
184697,-76.9230769230769,4,2,1,70,0,0
187018,-76.9230769230769,4,2,2,90,0,0
187349,-76.9230769230769,4,2,1,70,0,0
189007,-125,4,2,1,70,0,0
189338,-76.9230769230769,4,2,1,90,0,0
189670,-76.9230769230769,4,2,2,80,0,0
189918,-76.9230769230769,4,2,1,90,0,0
200277,-76.9230769230769,4,2,2,90,0,0
200443,-76.9230769230769,4,2,1,90,0,0
202266,-66.6666666666667,4,2,1,90,0,0
209559,-66.6666666666667,4,2,2,90,0,0
209642,-66.6666666666667,4,2,1,90,0,0
212211,-55.5555555555556,4,2,1,90,0,0
213206,-55.5555555555556,4,2,2,90,0,0
213537,-55.5555555555556,4,2,3,80,0,0
213620,-55.5555555555556,4,2,1,5,0,0
213703,-55.5555555555556,4,2,2,85,0,0
214780,-55.5555555555556,4,2,1,5,0,0
214863,-55.5555555555556,4,2,1,70,0,0
215195,-55.5555555555556,4,2,1,80,0,0
216189,-55.5555555555556,4,2,3,80,0,0
216272,-55.5555555555556,4,2,1,5,0,0
216355,-55.5555555555556,4,2,1,80,0,0
217349,-66.6666666666667,4,2,1,90,0,0
217598,-66.6666666666667,4,2,1,5,0,0
217681,-66.6666666666667,4,2,1,90,0,0
218509,-100,4,2,1,90,0,0
222322,-58.8235294117647,4,2,1,90,0,0
222985,-83.3333333333333,4,2,1,90,0,0
224145,-76.9230769230769,4,2,2,95,0,0
224311,-76.9230769230769,4,2,1,95,0,0
232101,-66.6666666666667,4,2,1,95,0,0
234255,-125,4,2,1,95,0,0
234753,-83.3333333333333,4,2,1,70,0,0
234794,-83.3333333333333,4,2,1,5,0,0
235084,-83.3333333333333,4,2,1,75,0,0
235126,-83.3333333333333,4,2,1,5,0,0
235416,-83.3333333333333,4,2,1,80,0,0
235457,-83.3333333333333,4,2,1,5,0,0
235747,-83.3333333333333,4,2,1,85,0,0
236079,-83.3333333333333,4,2,1,90,0,0
259449,-50,4,2,1,90,0,0

[Colours]
Combo1 : 122,0,244
Combo2 : 199,142,230
Combo3 : 216,197,237
Combo4 : 72,130,193
Combo5 : 106,177,249
Combo6 : 192,192,192
Combo7 : 221,0,0
Combo8 : 34,34,255

[HitObjects]
256,192,2709,12,0,6522,0:0:0:0:
80,91,6687,5,8,0:0:0:0:
80,91,6770,1,0,1:0:0:0:
80,91,6853,2,0,L|66:146,1,45,0|0,1:0|1:0,0:0:0:0:
169,53,7019,1,8,0:0:0:0:
169,53,7102,1,0,1:0:0:0:
169,53,7185,2,0,L|155:-2,1,45,0|0,1:0|1:0,0:0:0:0:
252,107,7350,1,4,0:3:0:0:
275,120,7433,1,0,1:0:0:0:
301,123,7516,1,0,1:0:0:0:
327,120,7599,1,0,1:0:0:0:
351,108,7682,2,0,B|329:86|329:86|345:189,1,135,12|0,0:0|0:0,0:0:0:0:
392,249,8013,6,0,P|345:231|288:237,1,107.999996704102,4|2,1:1|0:3,0:0:0:0:
193,319,8345,1,8,3:2:0:0:
195,335,8428,1,0,3:2:0:0:
197,351,8511,1,2,3:3:0:0:
88,166,8676,2,0,P|98:218|103:276,1,107.999996704102,0|2,1:0|0:3,0:0:0:0:
103,297,8925,1,0,0:0:0:0:
103,297,9008,1,8,0:0:0:0:
177,93,9174,1,0,0:0:0:0:
177,93,9256,1,0,0:0:0:0:
177,93,9339,6,0,P|224:104|284:108,1,107.999996704102,0|2,1:0|0:3,0:0:0:0:
481,46,9671,2,0,P|449:35|428:32,1,53.9999983520508,8|0,0:0|0:0,0:0:0:0:
342,36,9837,1,2,0:3:0:0:
488,184,10002,1,0,1:0:0:0:
501,218,10085,1,0,0:0:0:0:
502,257,10168,1,2,0:3:0:0:
500,294,10251,1,0,0:0:0:0:
491,330,10334,1,8,0:0:0:0:
332,241,10499,5,2,0:3:0:0:
332,241,10582,1,0,0:0:0:0:
332,241,10665,2,0,L|389:236,1,53.9999983520508,0|0,1:0|0:0,0:0:0:0:
273,311,10831,2,0,L|216:306,1,53.9999983520508,2|0,0:3|0:0,0:0:0:0:
338,227,10997,1,8,0:0:0:0:
213,138,11162,2,0,P|185:134|149:133,3,53.9999983520508,2|0|0|0,0:3|0:0|1:0|0:0,0:0:0:0:
132,144,11494,1,2,0:3:0:0:
288,111,11660,2,0,P|294:138|290:164,1,53.9999983520508,8|0,0:0|0:0,0:0:0:0:
187,58,11825,2,0,P|181:31|185:5,1,53.9999983520508,2|0,0:3|0:0,0:0:0:0:
384,10,11991,102,0,P|378:74|377:129,1,107.999996704102,0|2,1:0|0:3,0:0:0:0:
446,232,12323,1,8,0:0:0:0:
450,258,12406,1,0,0:0:0:0:
454,284,12488,1,2,0:3:0:0:
458,310,12571,1,0,0:0:0:0:
463,336,12654,2,0,L|519:348,3,53.9999983520508,0|8|0|0,1:0|0:0|0:0|1:0,0:0:0:0:
347,308,12986,2,0,L|291:320,3,53.9999983520508,8|0|2|0,0:0|0:0|1:3|0:0,0:0:0:0:
234,278,13317,86,0,P|248:328|259:384,1,107.999996704102,4|2,1:2|0:3,0:0:0:0:
144,231,13649,1,8,0:0:0:0:
146,215,13732,1,0,0:0:0:0:
148,199,13815,1,2,0:3:0:0:
21,253,13980,2,0,P|31:305|36:363,1,107.999996704102,0|2,1:0|0:3,0:0:0:0:
36,384,14229,1,0,0:0:0:0:
36,384,14312,1,8,0:0:0:0:
148,199,14478,1,0,0:0:0:0:
148,199,14560,1,0,0:0:0:0:
148,199,14643,6,0,B|195:183|195:183|253:200,1,107.999996704102,0|2,1:0|0:3,0:0:0:0:
334,83,14975,2,0,B|308:94|308:94|280:94,1,53.9999983520508,8|0,0:0|0:0,0:0:0:0:
205,32,15141,1,2,0:3:0:0:
85,120,15306,1,0,1:0:0:0:
60,148,15389,1,0,0:0:0:0:
46,183,15472,1,2,0:3:0:0:
50,220,15555,1,0,0:0:0:0:
68,253,15638,1,8,0:0:0:0:
185,312,15803,5,2,0:3:0:0:
185,312,15886,1,0,0:0:0:0:
185,312,15969,2,0,L|180:369,1,53.9999983520508,0|0,1:0|0:0,0:0:0:0:
255,253,16135,2,0,L|250:196,1,53.9999983520508,2|0,0:3|0:0,0:0:0:0:
171,318,16301,1,8,0:0:0:0:
275,245,16466,2,0,B|301:236|301:236|332:248,3,53.9999983520508,2|0|0|0,0:3|0:0|1:0|0:0,0:0:0:0:
355,260,16798,1,2,0:3:0:0:
490,325,16964,2,0,P|485:351|484:378,1,53.9999983520508,8|0,0:0|0:0,0:0:0:0:
355,260,17129,2,0,P|360:286|361:313,1,53.9999983520508,2|0,0:3|0:0,0:0:0:0:
471,177,17295,6,0,P|463:133|452:56,1,107.999996704102,0|8,1:0|0:0,0:0:0:0:
447,44,17544,1,8,0:0:0:0:
447,44,17627,1,8,0:0:0:0:
414,25,17709,1,8,0:0:0:0:
377,16,17792,1,8,0:0:0:0:
340,24,17875,1,8,0:0:0:0:
311,48,17958,2,0,L|304:109,3,53.9999983520508,8|8|8|8,0:3|0:3|0:3|0:3,0:0:0:0:
239,185,18290,69,4,0:3:0:0:
202,207,18372,1,4,0:3:0:0:
159,214,18455,1,4,0:3:0:0:
116,207,18538,1,4,0:3:0:0:
78,185,18621,5,4,1:1:0:0:
86,294,18953,1,2,1:2:0:0:
87,185,19284,1,0,1:0:0:0:
76,293,19616,1,2,1:2:0:0:
260,381,19947,5,0,1:0:0:0:
268,272,20279,1,2,1:2:0:0:
269,380,20610,1,0,1:0:0:0:
258,272,20942,1,8,1:3:0:0:
354,323,21107,1,8,0:0:0:0:
354,323,21190,1,8,0:0:0:0:
354,323,21273,2,0,P|420:338|474:333,1,107.999996704102,4|0,1:2|0:0,0:0:0:0:
471,329,21522,1,8,0:0:0:0:
478,318,21604,1,0,1:0:0:0:
382,116,21770,6,0,P|397:177|407:237,1,107.999996704102,8|0,0:3|1:0,0:0:0:0:
399,237,22019,1,8,0:0:0:0:
390,251,22102,1,8,0:0:0:0:
475,106,22267,1,8,0:3:0:0:
475,106,22433,1,4,3:3:0:0:
326,23,22599,70,0,L|219:17,1,107.999996704102,4|8,3:2|0:0,0:0:0:0:
191,20,22848,1,8,0:0:0:0:
175,41,22930,1,0,1:0:0:0:
176,67,23013,1,8,0:0:0:0:
195,85,23096,1,8,0:0:0:0:
340,151,23262,5,0,1:0:0:0:
314,143,23344,1,0,1:0:0:0:
287,143,23427,1,8,0:0:0:0:
261,151,23510,1,8,0:0:0:0:
236,161,23593,1,0,1:0:0:0:
210,168,23676,1,0,1:0:0:0:
183,168,23759,1,8,0:0:0:0:
157,160,23842,1,8,0:0:0:0:
131,148,23925,6,0,P|137:207|138:233,1,80.9999975280763,4|2,1:1|0:3,0:0:0:0:
171,254,24174,2,0,P|165:313|164:339,1,80.9999975280763,2|0,1:2|0:0,0:0:0:0:
187,373,24422,1,2,1:3:0:0:
257,310,24588,1,2,0:0:0:0:
334,362,24754,1,2,1:3:0:0:
397,295,24919,1,10,0:0:0:0:
471,363,25085,2,0,B|436:325|436:325|456:215,1,161.999995056153,2|2,3:3|3:3,0:0:0:0:
370,148,25582,1,10,0:0:0:0:
472,16,25748,5,2,1:3:0:0:
472,16,26080,1,2,1:3:0:0:
374,27,26245,1,10,0:0:0:0:
276,38,26411,1,2,0:3:0:0:
171,54,26577,2,0,L|80:37,1,80.9999975280763,2|2,1:2|0:3,0:0:0:0:
17,89,26825,2,0,L|108:72,1,80.9999975280763,2|0,1:2|0:0,0:0:0:0:
149,134,27074,1,2,1:3:0:0:
81,190,27240,1,2,0:0:0:0:
137,258,27406,1,2,1:3:0:0:
205,202,27571,1,10,0:0:0:0:
75,309,27737,70,0,P|125:294|212:350,1,161.999995056153,2|2,3:3|0:3,0:0:0:0:
283,269,28234,1,10,0:0:0:0:
370,383,28400,5,2,1:3:0:0:
370,383,28732,1,2,1:3:0:0:
509,319,28897,1,10,0:0:0:0:
364,263,29063,1,2,0:3:0:0:
495,195,29229,1,4,1:2:0:0:
390,60,29395,5,0,0:0:0:0:
390,60,29477,2,0,P|404:118|411:158,1,80.9999975280763,0|0,1:2|0:0,0:0:0:0:
409,172,29726,1,2,1:3:0:0:
364,263,29892,1,2,0:0:0:0:
216,178,30057,101,2,1:3:0:0:
255,367,30223,1,8,0:0:0:0:
255,367,30389,2,0,P|228:354|205:351,1,40.4999987640381,2|8,3:3|0:0,0:0:0:0:
134,383,30555,2,0,P|141:338|147:290,1,80.9999975280763,2|10,1:2|0:3,0:0:0:0:
111,269,30803,2,0,P|104:224|98:176,1,80.9999975280763,2|2,0:0|0:0,0:0:0:0:
130,148,31052,2,0,P|136:129|139:99,1,40.4999987640381,10|8,0:0|0:0,0:0:0:0:
87,59,31218,37,2,1:2:0:0:
113,67,31300,1,0,1:0:0:0:
140,67,31383,1,2,1:2:0:0:
166,59,31466,1,0,1:0:0:0:
191,49,31549,1,10,0:0:0:0:
217,42,31632,1,8,0:0:0:0:
244,42,31715,1,10,0:0:0:0:
270,50,31798,1,8,0:0:0:0:
292,65,31881,5,4,1:1:0:0:
437,161,32046,1,2,0:0:0:0:
443,187,32129,1,0,0:0:0:0:
454,211,32212,1,10,0:0:0:0:
461,236,32295,1,2,0:0:0:0:
469,261,32378,2,0,L|475:321,1,53.9999983520508,2|0,1:2|0:0,0:0:0:0:
339,336,32544,2,0,L|354:270,1,53.9999983520508,2|10,0:0|0:0,0:0:0:0:
250,182,32709,1,2,1:2:0:0:
250,182,32792,1,2,0:0:0:0:
250,182,32875,2,0,L|230:253,1,53.9999983520508,10|0,0:0|0:0,0:0:0:0:
121,299,33041,1,8,0:3:0:0:
121,299,33124,1,0,1:0:0:0:
121,299,33207,5,4,1:2:0:0:
171,133,33372,1,2,0:0:0:0:
172,95,33455,1,0,0:0:0:0:
146,66,33538,1,10,0:0:0:0:
109,54,33621,1,2,0:0:0:0:
73,68,33704,2,0,P|42:93|29:112,1,53.9999983520508,2|0,1:2|0:0,0:0:0:0:
62,249,33870,2,0,L|104:173,1,53.9999983520508,2|2,1:2|0:0,0:0:0:0:
231,148,34035,1,10,0:0:0:0:
231,148,34118,1,2,0:0:0:0:
231,148,34201,2,0,L|219:218,1,53.9999983520508,2|0,1:2|0:0,0:0:0:0:
284,319,34367,1,8,0:3:0:0:
284,319,34450,1,2,0:0:0:0:
284,319,34533,6,0,P|232:355|192:365,1,80.9999975280763,4|2,1:1|0:3,0:0:0:0:
100,287,34864,1,10,0:0:0:0:
100,287,34947,1,2,0:0:0:0:
100,287,35030,1,2,1:3:0:0:
194,185,35196,2,0,P|217:233|211:278,1,80.9999975280763,2|2,0:0|1:3,0:0:0:0:
106,134,35527,2,0,L|157:99,1,40.4999987640381,10|0,0:0|0:0,0:0:0:0:
220,24,35693,1,2,0:3:0:0:
211,24,35776,1,0,0:0:0:0:
205,25,35859,85,0,1:0:0:0:
350,31,36024,1,2,0:3:0:0:
359,27,36107,1,0,0:0:0:0:
367,22,36190,2,0,L|352:134,1,80.9999975280763,10|2,0:0|1:3,0:0:0:0:
392,201,36522,1,0,0:0:0:0:
392,201,36604,1,0,0:0:0:0:
392,201,36687,1,2,1:3:0:0:
508,116,36853,2,0,P|494:160|504:229,1,80.9999975280763,10|2,0:0|0:3,0:0:0:0:
410,324,37185,6,0,L|410:267,1,40.4999987640381,2|0,1:2|0:0,0:0:0:0:
408,165,37350,1,2,0:3:0:0:
400,171,37433,1,2,1:2:0:0:
391,174,37516,1,10,0:0:0:0:
385,178,37599,2,0,P|353:174|316:130,1,80.9999975280763,2|2,0:0|0:0,0:0:0:0:
272,45,37848,2,0,P|268:84|237:123,1,80.9999975280763,2|2,0:0|1:3,0:0:0:0:
103,143,38179,2,0,L|52:145,1,40.4999987640381,10|0,0:0|0:0,0:0:0:0:
11,17,38345,2,0,L|64:14,1,40.4999987640381,2|0,0:3|0:0,0:0:0:0:
207,11,38511,5,0,1:0:0:0:
283,110,38676,2,0,P|217:136|196:165,1,80.9999975280763,2|10,1:3|0:0,0:0:0:0:
170,254,39008,1,2,1:3:0:0:
165,246,39091,1,0,0:0:0:0:
157,202,39174,2,0,L|147:253,1,40.4999987640381
35,358,39339,2,0,L|24:301,1,40.4999987640381,2|0,1:3|0:0,0:0:0:0:
66,152,39505,2,0,L|60:263,1,80.9999975280763,10|2,0:0|0:3,0:0:0:0:
194,87,39837,86,0,P|237:62|278:92,1,80.9999975280763,6|0,1:2|0:0,0:0:0:0:
263,71,40085,1,2,1:2:0:0:
263,71,40168,1,8,0:0:0:0:
410,195,40334,2,0,L|464:122,1,80.9999975280763,2|2,1:3|0:0,0:0:0:0:
470,20,40665,1,2,1:3:0:0:
471,142,40831,2,0,L|446:192,1,40.4999987640381,10|0,0:0|0:0,0:0:0:0:
382,286,40997,1,2,0:3:0:0:
382,286,41080,1,0,0:0:0:0:
382,286,41162,6,0,P|436:283|396:359,1,161.999995056153,6|0,1:2|0:0,0:0:0:0:
276,359,41660,1,0,0:0:0:0:
297,209,41825,1,10,0:0:0:0:
302,189,41908,1,8,0:0:0:0:
308,165,41991,1,8,0:0:0:0:
313,141,42074,1,8,0:0:0:0:
318,108,42157,5,8,0:3:0:0:
288,121,42240,1,8,0:3:0:0:
255,125,42323,1,4,0:3:0:0:
224,114,42406,1,4,0:3:0:0:
190,87,42488,86,0,L|198:198,1,107.999996704102,4|0,1:1|0:0,0:0:0:0:
107,315,42820,1,10,0:0:0:0:
92,291,42903,1,2,0:0:0:0:
76,268,42986,1,2,1:2:0:0:
62,244,43069,1,0,0:0:0:0:
48,220,43152,2,0,L|42:160,1,53.9999983520508,2|0,0:0|0:0,0:0:0:0:
145,71,43318,2,0,L|160:137,1,53.9999983520508,2|2,1:2|0:0,0:0:0:0:
285,189,43483,2,0,L|266:104,1,53.9999983520508,10|0,0:0|0:0,0:0:0:0:
358,16,43649,1,10,0:0:0:0:
358,16,43732,1,10,0:0:0:0:
358,16,43814,6,0,P|284:18|238:38,1,107.999996704102,2|2,1:2|1:2,0:0:0:0:
119,100,44146,1,10,0:0:0:0:
94,88,44229,1,2,0:0:0:0:
83,61,44312,1,10,0:0:0:0:
90,35,44395,1,0,0:0:0:0:
112,20,44478,2,0,L|177:13,1,53.9999983520508,2|10,1:2|0:0,0:0:0:0:
328,57,44644,2,0,L|276:71,1,53.9999983520508,8|4,0:3|0:3,0:0:0:0:
160,167,44809,2,0,B|195:157|195:157|225:179|225:179|294:158,1,107.999996704102,2|0,1:2|0:0,0:0:0:0:
414,264,45140,6,0,L|416:317,1,45,4|0,1:3|3:0,0:0:0:0:
246,375,45389,1,0,3:0:0:0:
205,352,45472,2,0,L|302:346,1,90,2|2,0:0|0:0,0:0:0:0:
376,264,45803,1,4,1:3:0:0:
248,233,45969,2,0,L|200:254,1,45,0|0,3:0|3:0,0:0:0:0:
42,306,46135,2,0,L|96:340,2,45,2|0|0,0:0|3:0|3:0,0:0:0:0:
72,170,46466,86,0,L|47:131,2,45,4|0|2,1:3|0:0|0:0,0:0:0:0:
147,59,46798,2,0,L|171:11,2,45,0|0|2,0:0|0:0|0:0,0:0:0:0:
242,115,47129,1,4,1:3:0:0:
358,86,47295,2,0,L|354:155,1,45,0|0,0:0|0:0,0:0:0:0:
403,237,47461,2,0,L|406:178,1,45,0|0,0:0|3:0,0:0:0:0:
480,83,47792,5,4,1:3:0:0:
352,21,47958,2,0,L|296:29,2,45,0|0|2,3:0|3:0|0:2,0:0:0:0:
248,113,48290,2,0,L|204:132,2,45,0|0|4,3:0|3:0|1:3,0:0:0:0:
381,138,48621,1,0,3:0:0:0:
327,285,48787,1,2,0:0:0:0:
327,285,48870,1,0,3:0:0:0:
327,285,48953,1,2,0:0:0:0:
181,238,49118,5,4,1:3:0:0:
66,327,49284,2,0,L|18:289,2,45,0|0|2,3:0|3:0|0:0,0:0:0:0:
208,264,49616,1,0,3:0:0:0:
59,183,49781,1,4,1:3:0:0:
153,78,49947,2,0,L|211:85,1,45,0|0,3:0|3:0,0:0:0:0:
306,133,50113,2,0,L|251:140,1,45,2|0,0:0|0:0,0:0:0:0:
439,60,50444,85,4,1:2:0:0:
439,60,50527,1,0,3:0:0:0:
439,60,50610,1,2,3:3:0:0:
479,158,50776,2,0,L|479:221,2,45,2|0|2,0:0|3:0|3:3,0:0:0:0:
388,266,51107,1,4,1:3:0:0:
328,147,51273,1,2,3:3:0:0:
323,134,51356,1,0,3:0:0:0:
317,121,51439,1,2,0:0:0:0:
313,107,51522,1,0,3:0:0:0:
307,94,51604,1,2,3:3:0:0:
197,16,51770,6,0,B|143:29|143:29|97:69,1,90,4|0,1:3|0:0,0:0:0:0:
25,188,52102,1,2,0:0:0:0:
25,188,52185,1,0,0:0:0:0:
25,188,52267,2,0,L|13:144,1,45,2|2,0:3|0:0,0:0:0:0:
121,33,52433,2,0,L|109:111,1,45,4|0,1:3|0:0,0:0:0:0:
211,211,52599,2,0,L|207:166,1,45,2|0,3:2|0:0,0:0:0:0:
300,47,52765,2,0,B|294:92|294:92|306:151,1,90,2|0,3:2|0:0,0:0:0:0:
380,301,53096,5,4,1:1:0:0:
368,281,53179,1,0,3:0:0:0:
364,258,53262,1,0,3:0:0:0:
370,236,53345,1,8,0:0:0:0:
386,220,53428,1,0,1:0:0:0:
405,208,53511,1,0,1:0:0:0:
421,193,53593,1,8,0:0:0:0:
434,169,53676,1,8,0:0:0:0:
417,131,53759,85,4,1:2:0:0:
387,158,53842,1,0,3:0:0:0:
349,173,53925,1,0,3:0:0:0:
308,176,54008,1,8,0:0:0:0:
267,170,54091,1,0,1:2:0:0:
233,146,54174,1,2,0:0:0:0:
193,148,54256,1,10,1:2:0:0:
157,168,54339,1,10,1:2:0:0:
130,209,54422,6,0,P|148:163|105:201,1,107.999996704102,4|0,1:1|0:0,0:0:0:0:
161,314,54671,2,0,P|202:328|283:299,1,107.999996704102,2|0,1:2|0:0,0:0:0:0:
337,198,54919,2,0,P|327:231|330:265,1,53.9999983520508,10|0,0:0|0:0,0:0:0:0:
452,318,55085,2,0,P|462:285|459:251,1,53.9999983520508,0|0,1:0|0:0,0:0:0:0:
400,144,55251,1,0,3:0:0:0:
386,108,55334,1,0,1:0:0:0:
397,72,55417,1,8,1:2:0:0:
425,48,55499,1,0,1:0:0:0:
462,46,55582,1,2,1:2:0:0:
489,72,55665,1,0,0:0:0:0:
476,114,55748,6,0,B|412:133|412:133|333:109,1,125.999996154785,4|0,1:2|0:0,0:0:0:0:
199,58,55997,2,0,B|252:27|252:27|328:62,1,125.999996154785,8|0,0:0|0:0,0:0:0:0:
380,146,56245,2,0,B|388:178|388:178|380:226,1,62.9999980773926,0|0,1:0|0:0,0:0:0:0:
274,290,56411,86,0,L|272:269,1,18,8|0,0:0|0:0,0:0:0:0:
212,201,56743,2,0,L|209:211,1,9,2|0,0:0|0:0,0:0:0:0:
160,280,57074,38,0,P|105:264|44:280,1,116.999994644165,4|10,1:1|0:0,0:0:0:0:
33,310,57323,1,2,0:0:0:0:
45,342,57406,1,2,1:2:0:0:
209,209,57571,1,10,1:2:0:0:
9,82,57737,1,2,1:2:0:0:
0,115,57820,1,2,0:0:0:0:
17,145,57903,2,0,B|53:164|53:164|136:142,1,116.999994644165,10|0,0:0|1:0,0:0:0:0:
348,91,58234,6,0,B|391:132|391:132|213:117,1,233.999989288331,10|10,0:0|0:0,0:0:0:0:
390,13,58732,1,2,1:2:0:0:
359,214,58897,1,10,0:0:0:0:
233,27,59063,2,0,P|173:10|115:6,1,116.999994644165,2|8,1:2|0:0,0:0:0:0:
18,178,59395,1,2,1:2:0:0:
23,212,59477,1,0,3:0:0:0:
28,246,59560,1,10,0:0:0:0:
33,280,59643,1,0,0:0:0:0:
38,314,59726,6,0,L|100:309,1,58.4999973220826,2|0,1:2|0:0,0:0:0:0:
175,364,59892,2,0,L|237:369,1,58.4999973220826,10|2,0:0|0:0,0:0:0:0:
310,319,60057,1,2,1:2:0:0:
310,319,60223,6,0,P|317:292|319:246,1,58.4999973220826,10|0,0:0|0:0,0:0:0:0:
401,209,60389,2,0,P|394:182|392:136,1,58.4999973220826,2|2,1:2|0:0,0:0:0:0:
345,76,60555,1,10,0:0:0:0:
509,6,60720,101,0,1:0:0:0:
509,6,60803,1,0,3:0:0:0:
509,6,60886,2,0,B|453:49|453:49|290:24,1,233.999989288331,10|10,0:0|0:0,0:0:0:0:
116,106,61383,1,2,1:2:0:0:
116,106,61466,1,0,3:0:0:0:
116,106,61549,1,10,0:0:0:0:
286,239,61715,2,0,P|301:185|280:125,1,116.999994644165,2|8,1:2|0:0,0:0:0:0:
103,230,62046,2,0,P|88:284|109:344,1,116.999994644165,2|8,1:2|0:0,0:0:0:0:
314,264,62378,5,2,1:1:0:0:
286,239,62461,1,0,0:0:0:0:
248,232,62544,1,8,0:0:0:0:
211,245,62627,1,0,0:0:0:0:
190,277,62709,1,0,1:0:0:0:
328,377,62875,69,10,0:1:0:0:
376,361,62958,1,0,0:0:0:0:
410,319,63041,1,0,1:0:0:0:
420,267,63124,1,0,0:0:0:0:
397,220,63207,2,0,P|369:154|359:90,1,116.999994644165,8|0,0:0|1:0,0:0:0:0:
128,41,63538,6,0,L|249:31,1,116.999994644165,10|4,0:0|1:3,0:0:0:0:
81,135,63870,1,10,0:0:0:0:
281,204,64035,1,2,1:2:0:0:
281,204,64118,1,0,3:0:0:0:
281,204,64201,1,10,0:0:0:0:
134,261,64367,2,0,L|75:271,1,58.4999973220826,2|0,1:1|0:0,0:0:0:0:
218,299,64533,2,0,L|292:319,1,58.4999973220826,10|0,0:0|0:0,0:0:0:0:
145,348,64698,1,2,1:2:0:0:
145,348,64781,1,0,0:0:0:0:
145,348,64864,1,10,0:0:0:0:
281,204,65030,6,0,P|344:191|400:190,1,116.999994644165,6|8,1:2|0:0,0:0:0:0:
484,335,65361,1,2,1:2:0:0:
484,335,65444,1,0,3:0:0:0:
484,335,65527,2,0,B|435:292|435:292|459:123,1,233.999989288331,10|8,0:0|0:0,0:0:0:0:
300,11,66024,1,0,1:0:0:0:
303,28,66107,1,0,3:0:0:0:
306,45,66190,1,8,2:0:0:0:
309,62,66273,1,0,0:0:0:0:
312,79,66356,6,0,P|253:50|200:52,1,116.999994644165,12|8,0:1|0:0,0:0:0:0:
157,224,66687,2,0,P|211:187|236:140,1,116.999994644165,8|8,1:2|0:0,0:0:0:0:
48,96,67019,69,2,1:1:0:0:
51,113,67102,1,0,1:0:0:0:
54,130,67185,1,0,1:0:0:0:
57,147,67268,1,0,1:0:0:0:
75,172,67350,1,8,0:3:0:0:
69,205,67433,1,8,0:3:0:0:
63,239,67516,1,4,0:3:0:0:
57,272,67599,1,4,0:3:0:0:
49,306,67682,6,0,P|104:290|165:306,1,116.999994644165,4|10,1:1|0:0,0:0:0:0:
179,333,67931,1,2,0:0:0:0:
187,366,68014,1,2,1:2:0:0:
274,189,68179,1,10,0:0:0:0:
430,375,68345,1,2,1:2:0:0:
397,384,68428,1,2,0:0:0:0:
367,367,68511,2,0,B|348:331|348:331|370:248,1,116.999994644165,10|0,0:0|1:0,0:0:0:0:
472,95,68842,6,0,B|515:136|515:136|337:121,1,233.999989288331,10|10,0:0|0:0,0:0:0:0:
171,182,69340,1,2,1:2:0:0:
367,257,69505,1,10,0:0:0:0:
246,75,69671,2,0,P|264:141|274:192,1,116.999994644165,2|8,1:2|0:0,0:0:0:0:
149,338,70003,1,2,1:2:0:0:
115,333,70085,1,0,3:0:0:0:
81,328,70168,1,10,0:0:0:0:
47,323,70251,1,0,0:0:0:0:
13,318,70334,6,0,P|8:289|16:256,1,58.4999973220826,6|0,1:2|0:0,0:0:0:0:
76,197,70499,2,0,P|81:168|73:135,1,58.4999973220826,10|2,0:0|0:0,0:0:0:0:
3,66,70665,1,2,1:2:0:0:
3,66,70831,70,0,L|73:62,1,58.4999973220826,10|0,0:0|0:0,0:0:0:0:
135,7,70997,2,0,L|205:11,1,58.4999973220826,2|2,1:2|0:0,0:0:0:0:
259,79,71163,1,10,0:0:0:0:
484,0,71328,5,0,1:0:0:0:
484,0,71411,1,0,3:0:0:0:
484,0,71494,2,0,P|458:85|347:40,1,233.999989288331,14|10,0:0|0:0,0:0:0:0:
509,103,71991,1,2,1:2:0:0:
509,103,72074,1,0,3:0:0:0:
509,103,72157,1,10,0:0:0:0:
353,199,72323,2,0,L|274:175,3,58.4999973220826,4|0|10|10,1:1|0:0|0:0|0:0,0:0:0:0:
455,281,72654,2,0,L|512:271,3,58.4999973220826,10|8|10|8,1:2|0:0|0:0|0:0,0:0:0:0:
328,358,72986,5,2,1:1:0:0:
292,359,73069,1,0,0:0:0:0:
257,360,73151,1,8,0:0:0:0:
221,361,73234,1,0,0:0:0:0:
185,362,73317,1,0,1:0:0:0:
87,210,73483,5,10,0:1:0:0:
117,245,73566,1,0,0:0:0:0:
125,291,73649,1,0,1:0:0:0:
107,334,73732,1,0,0:0:0:0:
66,356,73814,2,0,P|48:288|22:239,1,116.999994644165,8|0,0:0|1:0,0:0:0:0:
110,110,74146,69,10,0:0:0:0:
110,110,74229,1,0,0:0:0:0:
110,110,74312,2,0,L|98:174,3,58.4999973220826,4|0|8|8,1:1|0:0|0:0|0:0,0:0:0:0:
222,57,74643,2,0,L|210:-7,3,58.4999973220826,8|8|8|8,0:0|0:0|0:0|0:0,0:0:0:0:
325,158,74975,5,4,1:3:0:0:
355,177,75057,1,8,0:3:0:0:
391,182,75140,1,8,0:3:0:0:
426,173,75223,1,8,0:3:0:0:
455,150,75306,1,12,0:0:0:0:
472,118,75389,1,8,0:0:0:0:
475,82,75472,1,8,0:0:0:0:
463,48,75555,1,8,0:0:0:0:
439,21,75638,6,0,B|414:85|414:85|440:149,1,135.000005149842,4|0,1:1|0:0,0:0:0:0:
496,222,75886,2,0,B|521:285|521:285|495:349,1,135.000005149842,0|0,1:0|0:0,0:0:0:0:
426,378,76135,2,0,L|358:370,1,67.5000025749208,8|0,0:0|0:0,0:0:0:0:
242,262,76301,6,0,P|276:317|250:380,1,135.000005149842,4|0,1:2|0:0,0:0:0:0:
158,384,76549,2,0,P|124:329|150:266,1,135.000005149842,0|0,1:0|0:0,0:0:0:0:
190,197,76798,2,0,P|196:158|191:122,1,67.5000025749208,8|0,0:0|0:0,0:0:0:0:
74,58,76964,69,4,1:3:0:0:
74,58,77295,1,0,1:2:0:0:
74,58,77627,1,2,1:2:0:0:
74,58,77958,2,0,P|104:32|163:45,1,94.499997116089,2|0,1:1|0:0,0:0:0:0:
170,56,78290,5,4,1:1:0:0:
209,142,87571,53,8,0:0:0:0:
208,110,87654,1,8,0:0:0:0:
206,78,87737,1,8,0:0:0:0:
204,46,87820,1,8,0:0:0:0:
202,14,87903,5,8,0:0:0:0:
191,53,87986,1,8,0:0:0:0:
167,86,88069,1,8,0:0:0:0:
122,97,88151,1,8,0:0:0:0:
81,93,88234,5,8,0:0:0:0:
118,76,88317,1,8,0:0:0:0:
158,78,88400,1,8,0:0:0:0:
190,102,88483,1,8,0:0:0:0:
224,129,88566,85,8,0:0:0:0:
264,147,88649,1,8,0:0:0:0:
308,148,88732,1,8,0:0:0:0:
349,136,88814,1,8,0:0:0:0:
366,99,88897,5,4,0:3:0:0:
444,218,89063,2,0,B|418:167|418:167|464:105|464:105|447:43,1,180
320,216,89560,2,0,B|346:267|346:267|300:329|300:329|317:391,1,180,8|0,0:0|0:0,0:0:0:0:
300,262,90057,1,8,0:0:0:0:
160,358,90223,5,4,1:3:0:0:
74,257,90389,1,0,0:0:0:0:
195,112,90555,1,2,0:0:0:0:
206,165,90665,1,2,0:0:0:0:
225,215,90776,1,2,0:0:0:0:
290,216,90886,2,0,B|248:133|248:133|354:103,1,180,10|0,0:0|0:0,0:0:0:0:
171,22,91383,1,8,1:2:0:0:
148,22,91466,1,0,1:0:0:0:
120,26,91549,86,0,L|92:34,1,27,4|0,1:3|0:0,0:0:0:0:
38,145,92212,2,0,L|6:60,1,67.5000025749208,8|0,0:0|0:0,0:0:0:0:
117,224,92461,2,0,L|141:144,1,67.5000025749208,2|0,0:0|0:0,0:0:0:0:
180,364,92709,2,0,L|225:260,1,67.5000025749208,8|0,0:0|0:0,0:0:0:0:
276,198,92875,6,0,L|291:223,1,27,4|0,0:3|0:0,0:0:0:0:
449,342,93538,2,0,L|534:374,1,67.5000025749208,8|0,0:0|0:0,0:0:0:0:
434,243,93787,2,0,L|366:230,1,67.5000025749208,2|0,0:0|0:0,0:0:0:0:
238,205,94035,1,0,0:0:0:0:
418,92,94201,1,0,3:0:0:0:
418,92,94284,1,0,3:0:0:0:
418,92,94367,1,0,3:0:0:0:
418,92,94450,1,0,3:0:0:0:
418,92,94533,1,2,0:0:0:0:
418,92,94616,1,2,0:0:0:0:
397,133,94698,5,2,0:0:0:0:
354,153,94781,1,2,0:0:0:0:
307,163,94864,2,0,B|236:178|236:178|174:156,1,135.000005149842,8|0,0:0|0:0,0:0:0:0:
254,67,95113,2,0,P|290:77|294:176,1,135.000005149842,2|0,0:0|0:0,0:0:0:0:
178,229,95361,2,0,L|131:172,1,67.5000025749208,8|0,0:0|0:0,0:0:0:0:
50,76,95527,85,4,0:3:0:0:
151,17,95693,1,0,0:0:0:0:
212,198,95859,1,2,0:0:0:0:
237,251,95969,1,2,0:0:0:0:
267,301,96080,1,2,0:0:0:0:
319,278,96190,2,0,L|292:204,1,67.5000025749208,10|0,0:0|0:0,0:0:0:0:
159,176,96439,2,0,L|169:248,1,67.5000025749208,2|0,0:0|0:0,0:0:0:0:
80,350,96687,1,8,1:2:0:0:
80,350,96770,1,0,1:0:0:0:
80,350,96853,6,0,L|73:322,1,27,4|0,1:3|0:0,0:0:0:0:
116,203,97516,2,0,L|31:235,1,67.5000025749208,8|0,0:0|0:0,0:0:0:0:
217,123,97765,2,0,L|167:63,1,67.5000025749208,2|0,0:0|0:0,0:0:0:0:
328,250,98013,2,0,L|358:189,1,67.5000025749208,8|0,0:0|0:0,0:0:0:0:
397,69,98179,5,4,0:3:0:0:
397,69,98262,1,4,0:3:0:0:
397,69,98345,1,4,3:3:0:0:
478,159,98511,1,0,1:0:0:0:
291,126,98676,1,0,3:0:0:0:
109,15,98842,85,0,1:0:0:0:
140,41,98925,1,0,1:0:0:0:
148,80,99008,1,0,1:0:0:0:
134,117,99091,1,0,1:0:0:0:
124,156,99174,1,2,3:2:0:0:
131,195,99256,1,2,3:2:0:0:
157,226,99339,1,2,3:2:0:0:
192,246,99422,1,2,3:2:0:0:
247,259,99505,5,2,0:0:0:0:
247,259,99588,1,2,0:0:0:0:
247,259,99671,1,2,0:0:0:0:
247,259,99754,1,2,0:0:0:0:
247,259,99837,6,0,L|290:265,6,33.7500012874604,2|2|2|2|2|2|0,0:0|0:0|0:0|0:0|0:0|0:0|0:0,0:0:0:0:
345,215,100168,6,0,P|381:207|418:204,1,72,4|0,1:2|0:0,0:0:0:0:
510,251,100416,2,0,P|474:243|437:240,1,72,0|0,0:0|0:0,0:0:0:0:
421,279,100665,1,0,0:0:0:0:
421,279,100830,2,0,P|410:326|417:368,2,72,0|0|0,0:0|0:0|0:0,0:0:0:0:
489,125,101328,6,0,B|461:149|461:149|346:131,1,144,2|0,0:0|0:0,0:0:0:0:
284,81,101825,1,0,0:0:0:0:
216,210,101991,2,0,P|220:162|212:126,1,72,2|0,0:0|0:0,0:0:0:0:
55,46,102322,6,0,B|104:42|97:90|158:84,2,108,4|0|4,1:2|1:0|1:2,0:0:0:0:
8,115,102985,2,0,P|-1:158|0:203,1,72
64,245,103317,1,0,0:0:0:0:
64,245,103400,1,0,0:0:0:0:
64,245,103482,2,0,L|141:241,2,72,0|0|0,0:0|0:0|0:0,0:0:0:0:
18,374,103980,6,0,P|50:338|140:347,1,144,2|0,0:0|0:0,0:0:0:0:
207,286,104477,1,0,0:0:0:0:
301,371,104643,2,0,P|287:328|284:291,1,72,2|0,0:0|0:0,0:0:0:0:
373,210,104974,102,0,B|391:243|391:243|370:319,2,108,4|0|4,1:2|1:0|1:2,0:0:0:0:
305,160,105637,2,0,L|222:153,1,72
144,148,105969,1,0,0:0:0:0:
144,148,106134,1,0,0:0:0:0:
144,148,106466,6,0,P|153:97|118:52,1,108,4|0,1:2|0:0,0:0:0:0:
94,45,106797,1,4,1:2:0:0:
382,103,107377,69,2,0:0:0:0:
63,182,108123,6,0,P|111:165|166:186,1,107.999996704102,4|2,1:1|0:0,0:0:0:0:
196,260,108372,1,0,1:0:0:0:
178,280,108455,2,0,P|172:200|241:151,1,161.999995056153,10|0,0:0|0:0,0:0:0:0:
311,115,108786,2,0,L|433:121,1,107.999996704102,2|2,0:0|1:2,0:0:0:0:
456,128,109035,1,2,0:0:0:0:
456,128,109118,1,10,0:0:0:0:
504,269,109284,5,10,0:0:0:0:
504,269,109366,1,2,1:2:0:0:
504,269,109449,2,0,P|447:250|393:240,1,107.999996704102,6|2,1:2|0:0,0:0:0:0:
281,341,109781,2,0,P|224:360|170:370,1,107.999996704102,10|2,0:0|1:2,0:0:0:0:
61,219,110112,1,2,1:2:0:0:
92,239,110195,1,2,0:0:0:0:
108,272,110278,1,2,1:2:0:0:
105,309,110361,1,2,0:0:0:0:
83,339,110444,2,0,L|29:333,3,53.9999983520508,10|0|8|8,0:0|0:0|0:0|0:0,0:0:0:0:
143,283,110775,6,0,P|155:244|158:192,1,90,4|2,1:1|0:3,0:0:0:0:
102,137,111024,2,0,P|90:98|87:46,1,90,0|2,1:2|0:0,0:0:0:0:
148,3,111272,2,0,L|201:5,1,45,2|2,1:3|0:0,0:0:0:0:
268,58,111438,1,2,0:0:0:0:
268,58,111604,1,2,1:3:0:0:
349,7,111770,1,10,0:0:0:0:
435,119,111935,69,2,1:3:0:0:
435,119,112018,1,0,0:0:0:0:
435,119,112101,2,0,P|439:180|440:227,1,90,0|2,1:0|0:3,0:0:0:0:
348,148,112433,1,10,0:0:0:0:
512,266,112598,2,0,P|508:327|507:374,1,90,2|0,0:3|0:0,0:0:0:0:
439,208,112930,1,2,1:3:0:0:
439,208,113096,1,10,0:0:0:0:
360,323,113261,1,2,0:3:0:0:
360,323,113344,1,2,0:0:0:0:
360,323,113427,6,0,B|313:335|313:335|275:320,1,90,2|2,1:2|0:3,0:0:0:0:
250,297,113676,1,0,1:0:0:0:
250,297,113759,2,0,L|240:192,1,90,8|2,0:0|1:3,0:0:0:0:
239,174,114007,1,2,0:0:0:0:
239,174,114090,1,2,0:0:0:0:
158,303,114256,1,2,1:3:0:0:
323,235,114422,1,10,0:0:0:0:
113,130,114587,1,2,0:3:0:0:
113,130,114670,1,0,0:0:0:0:
113,130,114753,6,0,P|124:183|128:251,1,90,0|2,1:0|1:3,0:0:0:0:
202,86,115085,1,10,0:0:0:0:
16,67,115250,2,0,P|5:120|1:188,1,90,2|0,0:3|0:0,0:0:0:0:
116,8,115582,1,2,1:3:0:0:
202,86,115747,1,10,0:0:0:0:
284,9,115913,1,2,0:3:0:0:
360,109,116079,6,0,P|407:121|455:112,1,90,6|0,1:2|0:0,0:0:0:0:
489,123,116328,2,0,P|455:157|438:203,1,90,2|0,1:2|0:0,0:0:0:0:
457,233,116576,2,0,P|465:259|469:294,1,45,2|0,1:3|0:0,0:0:0:0:
401,346,116742,1,2,0:0:0:0:
401,346,116908,1,2,1:3:0:0:
300,202,117074,1,10,0:0:0:0:
240,320,117239,69,2,0:3:0:0:
240,320,117322,1,0,0:0:0:0:
240,320,117405,2,0,P|185:295|135:290,1,90,6|2,1:2|0:3,0:0:0:0:
93,337,117654,1,0,0:0:0:0:
93,337,117737,2,0,L|0:349,1,90,12|2,0:1|1:3,0:0:0:0:
126,215,118068,1,10,0:0:0:0:
135,189,118151,1,8,0:0:0:0:
135,161,118234,1,8,0:0:0:0:
126,135,118317,1,8,0:0:0:0:
111,117,118400,1,8,0:3:0:0:
102,91,118483,1,8,0:3:0:0:
102,63,118566,1,4,0:3:0:0:
111,37,118649,1,4,0:3:0:0:
126,19,118731,6,0,P|194:8|237:19,1,107.999996704102,4|0,1:1|0:0,0:0:0:0:
349,93,118980,1,0,0:0:0:0:
341,127,119063,2,0,B|292:151|292:151|178:113,1,161.999995056153,10|0,0:0|0:0,0:0:0:0:
122,166,119394,2,0,B|65:152|65:152|16:167,1,107.999996704102,2|2,1:2|1:2,0:0:0:0:
0,202,119643,1,2,0:0:0:0:
0,202,119726,1,10,0:0:0:0:
44,349,119892,5,10,0:0:0:0:
44,349,119974,1,10,0:0:0:0:
44,349,120057,2,0,P|63:292|73:238,1,107.999996704102,2|2,1:2|1:2,0:0:0:0:
241,311,120388,2,0,P|222:254|212:200,1,107.999996704102,10|10,0:0|0:0,0:0:0:0:
372,324,120720,1,2,1:2:0:0:
392,355,120803,1,10,0:0:0:0:
425,371,120886,1,8,0:3:0:0:
462,368,120969,1,4,0:3:0:0:
492,346,121052,2,0,L|486:292,3,53.9999983520508,2|0|2|0,1:2|0:0|0:0|0:0,0:0:0:0:
453,217,121383,6,0,P|388:204|339:203,1,80.9999975280763,4|0,1:3|0:0,0:0:0:0:
294,213,121632,1,0,3:0:0:0:
294,213,121714,2,0,L|285:261,3,40.4999987640381,2|0|2|0,0:0|0:0|0:0|3:0,0:0:0:0:
226,320,122046,69,4,1:3:0:0:
128,293,122211,1,0,3:0:0:0:
132,316,122294,1,0,0:0:0:0:
136,339,122377,1,2,0:0:0:0:
32,243,122543,1,0,3:0:0:0:
28,266,122626,1,0,0:0:0:0:
21,289,122709,6,0,B|54:251|54:251|24:141,1,161.999995056153,4|0,1:3|0:0,0:0:0:0:
77,76,123123,1,0,0:0:0:0:
77,76,123206,2,0,L|139:85,1,40.4999987640381,2|0,0:0|0:0,0:0:0:0:
180,30,123372,2,0,L|279:23,2,80.9999975280763,4|0|0,1:3|0:0|0:0,0:0:0:0:
77,76,123869,1,0,3:0:0:0:
191,152,124035,5,4,1:3:0:0:
193,171,124118,1,0,0:0:0:0:
195,190,124201,1,0,3:0:0:0:
197,209,124284,1,0,3:0:0:0:
199,228,124366,2,0,L|256:217,3,40.4999987640381,2|0|0|0,0:2|0:0|3:0|0:0,0:0:0:0:
298,283,124698,1,4,1:3:0:0:
298,283,124781,1,0,0:0:0:0:
298,283,124864,2,0,L|353:293,1,40.4999987640381,0|0,3:0|3:0,0:0:0:0:
425,233,125029,1,2,0:0:0:0:
326,176,125195,1,2,0:0:0:0:
326,176,125278,1,0,0:0:0:0:
326,176,125361,6,0,P|371:191|444:111,1,161.999995056153,4|2,1:3|0:0,0:0:0:0:
378,1,125858,2,0,L|378:43,1,40.4999987640381,0|0,3:0|3:0,0:0:0:0:
378,71,126024,1,4,1:3:0:0:
110,143,126355,70,0,P|101:111|93:72,1,67.5,2|0,0:0|0:0,0:0:0:0:
107,40,126687,22,0,P|97:123|76:201,1,161.999995056153,4|2,1:2|0:0,0:0:0:0:
21,301,127184,1,2,3:3:0:0:
21,301,127267,1,0,0:0:0:0:
21,301,127350,2,0,P|65:292|126:290,1,80.9999975280763,4|2,1:3|3:3,0:0:0:0:
132,307,127598,1,0,3:0:0:0:
132,307,127681,1,2,0:0:0:0:
250,233,127847,2,0,P|260:259|267:290,1,40.4999987640381,2|0,3:3|0:0,0:0:0:0:
337,339,128013,6,0,P|343:292|352:254,1,80.9999975280763,4|2,1:3|3:3,0:0:0:0:
482,182,128344,1,2,0:0:0:0:
458,197,128427,1,0,0:0:0:0:
429,197,128510,1,2,0:3:0:0:
403,183,128593,1,2,0:0:0:0:
387,158,128676,2,0,P|377:118|375:72,1,80.9999975280763,4|2,1:3|3:2,0:0:0:0:
385,50,128924,1,0,0:0:0:0:
385,50,129007,1,2,3:2:0:0:
236,22,129173,2,0,P|243:48|247:82,1,40.4999987640381,0|0,3:0|1:0,0:0:0:0:
200,132,129339,70,0,L|193:180,3,40.4999987640381,4|0|0|8,1:1|3:0|3:0|0:0,0:0:0:0:
279,215,129670,2,0,L|286:263,3,40.4999987640381,0|0|8|8,1:0|1:0|0:0|0:0,0:0:0:0:
238,324,130002,1,4,1:2:0:0:
213,338,130085,1,0,3:0:0:0:
185,341,130167,1,0,3:0:0:0:
159,329,130250,1,8,0:0:0:0:
138,297,130333,1,0,1:2:0:0:
113,283,130416,1,2,0:0:0:0:
85,280,130498,1,10,1:2:0:0:
59,292,130581,1,10,1:2:0:0:
37,327,130665,6,0,B|54:288|54:288|32:233,1,99.0000030212403,4|0,1:1|0:0,0:0:0:0:
73,165,130913,2,0,B|56:126|56:126|78:71,1,99.0000030212403,2|0,1:2|0:0,0:0:0:0:
135,21,131162,2,0,L|199:15,1,49.5000015106202,10|0,0:0|0:0,0:0:0:0:
318,63,131328,5,0,1:0:0:0:
330,95,131411,1,0,0:0:0:0:
337,128,131493,1,0,3:0:0:0:
331,162,131576,1,0,1:0:0:0:
313,191,131659,2,0,L|249:185,1,49.5000015106202,8|0,1:2|1:0,0:0:0:0:
380,263,131825,2,0,L|444:257,1,49.5000015106202,2|0,1:2|0:0,0:0:0:0:
384,377,131991,22,0,P|312:356|258:346,1,116.999994644165,4|0,1:2|0:0,0:0:0:0:
223,273,132239,2,0,P|150:290|98:309,1,116.999994644165,8|0,0:0|0:0,0:0:0:0:
20,372,132488,2,0,P|33:337|40:296,1,58.4999973220826,0|0,1:0|0:0,0:0:0:0:
8,234,132654,1,8,0:0:0:0:
8,234,132985,1,2,0:0:0:0:
441,21,133317,6,0,P|404:60|415:147,1,135.000005149842,4|10,1:1|0:0,0:0:0:0:
443,172,133565,1,2,0:0:0:0:
443,172,133648,1,2,1:2:0:0:
404,3,133814,1,10,1:2:0:0:
255,66,133980,1,2,1:2:0:0:
237,47,134063,1,2,0:0:0:0:
223,28,134145,1,10,0:0:0:0:
50,101,134311,1,0,1:0:0:0:
71,122,134394,1,0,3:0:0:0:
74,174,134477,2,0,B|86:108|86:108|71:19,1,135.000005149842,10|0,0:0|1:0,0:0:0:0:
21,261,134808,1,10,0:0:0:0:
201,277,134974,2,0,L|151:233,1,67.5000025749208,2|0,1:2|3:0,0:0:0:0:
258,358,135140,2,0,L|255:283,1,67.5000025749208,10|0,0:0|0:0,0:0:0:0:
205,79,135306,2,0,B|238:167|193:197|233:235,1,135.000005149842,2|8,1:2|0:0,0:0:0:0:
228,7,135637,1,2,1:2:0:0:
222,38,135720,1,8,0:0:0:0:
245,76,135803,1,10,0:0:0:0:
238,115,135886,1,8,0:0:0:0:
242,172,135969,6,0,L|271:111,1,67.5000025749208,2|0,1:2|0:0,0:0:0:0:
187,244,136134,2,0,L|169:141,1,67.5000025749208,10|2,0:0|0:0,0:0:0:0:
127,65,136300,1,2,1:2:0:0:
124,227,136466,2,0,L|96:288,1,67.5000025749208,10|0,0:0|0:0,0:0:0:0:
76,131,136631,2,0,L|67:208,1,67.5000025749208,2|2,1:2|0:0,0:0:0:0:
51,350,136797,1,10,0:0:0:0:
211,313,136963,1,0,1:0:0:0:
229,321,137046,1,0,3:0:0:0:
246,331,137129,2,0,B|207:275|207:275|280:249,1,135.000005149842,10|0,0:0|1:0,0:0:0:0:
396,222,137460,1,10,0:0:0:0:
237,136,137626,2,0,L|232:69,1,67.5000025749208,2|0,1:2|3:0,0:0:0:0:
220,235,137792,2,0,L|270:179,1,67.5000025749208,10|0,0:0|0:0,0:0:0:0:
401,81,137958,2,0,B|312:113|283:69|244:108,1,135.000005149842,2|8,1:2|0:0,0:0:0:0:
495,34,138289,1,2,1:2:0:0:
495,34,138372,1,0,3:0:0:0:
495,34,138455,1,8,0:0:0:0:
495,34,138538,1,0,0:0:0:0:
495,34,138621,5,2,1:1:0:0:
501,87,138704,1,0,0:0:0:0:
481,137,138787,1,8,0:0:0:0:
433,161,138869,1,0,0:0:0:0:
377,166,138952,1,0,1:0:0:0:
267,35,139118,85,10,0:1:0:0:
320,37,139200,1,0,0:0:0:0:
361,71,139283,1,0,1:0:0:0:
387,118,139366,1,0,0:0:0:0:
379,171,139449,1,8,0:0:0:0:
219,109,139615,1,0,1:0:0:0:
219,109,139698,1,0,3:0:0:0:
219,109,139781,2,0,P|252:101|190:43,1,135.000005149842,10|4,0:0|1:3,0:0:0:0:
84,16,140112,1,10,0:0:0:0:
29,158,140278,1,2,1:2:0:0:
105,0,140444,1,10,0:0:0:0:
252,131,140609,2,0,B|210:118|210:118|161:149|161:149,1,90,2|0,1:1|0:0,0:0:0:0:
29,158,140775,2,0,B|75:174|75:174|132:152|132:152,1,90,10|0,0:0|0:0,0:0:0:0:
234,128,140941,2,0,B|276:115|276:115|325:147|325:147,1,90,2|0,1:2|0:0,0:0:0:0:
426,203,141107,1,10,0:0:0:0:
286,310,141272,5,6,1:2:0:0:
240,164,141438,2,0,B|220:195|220:195|276:173|359:201,1,135.000005149842,8|2,0:0|1:2,0:0:0:0:
426,203,141687,1,0,3:0:0:0:
469,233,141770,2,0,B|486:206|511:192|511:192|449:136|474:18,1,215.999993408203,10|8,0:0|0:0,0:0:0:0:
276,13,142267,2,0,P|291:75|272:158,1,107.999996704102,0|8,1:0|2:0,0:0:0:0:
166,242,142598,6,0,L|184:201,3,45,12|8|8|8,0:1|0:0|0:0|0:0,0:0:0:0:
63,104,142930,2,0,L|28:181,3,67.5000025749208,8|8|8|8,1:2|0:0|0:0|0:0,0:0:0:0:
123,294,143261,1,2,1:1:0:0:
153,279,143344,1,0,1:0:0:0:
183,264,143427,1,0,1:0:0:0:
212,248,143510,1,0,1:0:0:0:
227,260,143592,1,8,0:3:0:0:
244,271,143675,1,8,0:3:0:0:
263,276,143758,1,4,0:3:0:0:
282,282,143841,1,4,0:3:0:0:
302,283,143924,86,0,B|341:250|341:250|299:257|231:239,1,135.000005149842,4|10,1:1|0:0,0:0:0:0:
213,234,144172,1,2,0:0:0:0:
213,234,144255,1,2,1:2:0:0:
247,105,144422,1,10,0:0:0:0:
72,216,144587,1,2,1:2:0:0:
91,195,144671,1,2,0:0:0:0:
130,199,144753,1,10,0:0:0:0:
89,56,144919,1,0,0:0:0:0:
70,35,145002,1,0,3:0:0:0:
18,32,145084,2,0,B|84:20|84:20|173:35,1,135.000005149842,10|0,0:0|1:0,0:0:0:0:
265,91,145415,1,2,0:0:0:0:
94,200,145582,2,0,L|138:150,1,67.5000025749208,2|0,1:2|3:0,0:0:0:0:
13,257,145747,2,0,L|88:254,1,67.5000025749208,10|0,0:0|0:0,0:0:0:0:
292,204,145913,2,0,B|204:236|174:191|136:231,1,135.000005149842,2|8,1:2|0:0,0:0:0:0:
395,218,146245,1,2,1:2:0:0:
310,45,146411,1,10,0:0:0:0:
292,204,146576,5,6,1:2:0:0:
298,257,146659,1,2,0:0:0:0:
278,307,146742,1,10,0:0:0:0:
230,331,146824,1,2,0:0:0:0:
174,336,146907,1,2,1:2:0:0:
20,153,147073,101,10,0:0:0:0:
70,169,147155,1,2,0:0:0:0:
100,213,147238,1,2,0:0:0:0:
112,265,147321,1,2,0:0:0:0:
90,314,147405,2,0,B|48:348|48:348|70:277|50:211,1,180,10|0,0:0|1:0,0:0:0:0:
186,33,147737,2,0,B|245:33|283:7|283:7|237:122|307:326,1,360,14|10,0:0|0:0,0:0:0:0:
431,74,148234,2,0,L|387:23,1,67.5000025749208,2|0,1:2|3:0,0:0:0:0:
512,130,148399,2,0,L|437:125,1,67.5000025749208,10|0,0:0|0:0,0:0:0:0:
283,124,148565,6,0,L|225:124,3,53.9999983520508,4|8|10|10,1:1|0:0|0:0|0:0,0:0:0:0:
215,16,148897,5,10,1:2:0:0:
215,16,148980,1,8,0:0:0:0:
215,16,149063,1,10,0:0:0:0:
215,16,149145,1,8,0:0:0:0:
215,16,149228,85,2,1:1:0:0:
261,40,149311,1,2,0:0:0:0:
291,84,149394,1,8,0:0:0:0:
284,137,149476,1,2,0:0:0:0:
257,187,149559,1,0,1:0:0:0:
103,245,149726,5,10,0:1:0:0:
149,217,149808,1,2,0:0:0:0:
202,217,149890,1,0,1:0:0:0:
250,239,149973,1,2,0:0:0:0:
276,277,150057,2,0,B|280:330|280:330|234:272|168:252,1,180,8|0,0:0|1:0,0:0:0:0:
7,275,150388,1,10,0:0:0:0:
7,275,150471,1,2,0:0:0:0:
7,275,150554,6,0,L|36:355,3,67.5000025749208,4|0|8|8,1:1|0:0|0:0|0:0,0:0:0:0:
121,198,150886,2,0,L|92:118,3,67.5000025749208,8|8|8|8,0:0|0:0|0:0|0:0,0:0:0:0:
226,338,151217,1,4,1:3:0:0:
219,318,151299,1,8,0:3:0:0:
224,291,151382,1,8,0:3:0:0:
237,267,151465,1,8,0:3:0:0:
256,231,151548,1,12,0:0:0:0:
264,191,151631,1,8,0:0:0:0:
263,150,151714,1,8,0:0:0:0:
259,102,151797,1,8,0:0:0:0:
235,53,151880,86,0,P|168:82|77:50,1,135.000005149842,4|0,1:1|0:0,0:0:0:0:
122,211,152129,2,0,P|189:182|280:214,1,135.000005149842,0|0,1:0|0:0,0:0:0:0:
372,260,152377,1,8,0:0:0:0:
263,63,152543,1,4,1:2:0:0:
184,220,152709,1,2,0:0:0:0:
360,95,152875,1,2,0:0:0:0:
197,122,153040,1,8,0:0:0:0:
197,122,153123,1,8,0:0:0:0:
197,122,153206,5,4,1:3:0:0:
4,6,153538,1,0,1:0:0:0:
18,358,153869,1,2,1:2:0:0:
4,6,154201,1,2,1:1:0:0:
101,343,154532,6,0,B|126:314|151:309|151:309|131:273|136:220,1,135.000005149842,4|0,1:0|0:0,0:0:0:0:
263,132,154781,2,0,B|238:161|213:166|213:166|233:202|228:255,1,135.000005149842,0|0,1:0|0:0,0:0:0:0:
323,339,155029,2,0,B|328:267,1,67.5000025749208,0|0,1:0|0:0,0:0:0:0:
341,139,155195,1,8,0:0:0:0:
355,101,155278,1,8,0:0:0:0:
328,70,155361,1,8,0:0:0:0:
290,55,155444,1,8,0:0:0:0:
251,68,155527,86,0,B|219:61|219:61|173:78|173:78|100:52,1,135.000005149842,0|0,1:2|0:0,0:0:0:0:
0,194,155775,2,0,B|32:201|32:201|78:184|78:184|151:210,1,135.000005149842,0|0,1:0|0:0,0:0:0:0:
349,262,156024,1,0,1:0:0:0:
144,127,156190,1,8,0:0:0:0:
144,127,156272,1,2,0:0:0:0:
225,41,156438,1,2,0:0:0:0:
225,41,156521,5,4,1:2:0:0:
349,262,156770,1,0,1:0:0:0:
349,262,156853,1,2,0:0:0:0:
257,114,157018,1,0,1:0:0:0:
250,279,157184,5,4,1:3:0:0:
33,159,157405,1,4,1:3:0:0:
126,186,157626,1,4,1:3:0:0:
198,168,157847,1,4,1:1:0:0:
133,182,163150,5,4,0:0:0:0:
249,107,163371,1,0,0:0:0:0:
145,75,163592,5,2,0:2:0:0:
145,75,163703,1,0,0:0:0:0:
145,75,163813,1,0,0:0:0:0:
244,234,164034,1,0,0:0:0:0:
249,107,164255,5,2,0:2:0:0:
249,107,164366,1,0,0:0:0:0:
249,107,164476,1,0,0:0:0:0:
154,272,164697,1,0,0:0:0:0:
335,186,164918,1,2,0:2:0:0:
335,186,165028,1,0,0:0:0:0:
335,186,165139,1,0,0:0:0:0:
335,186,165250,1,0,0:0:0:0:
335,186,165360,1,0,0:0:0:0:
335,186,165471,6,0,P|385:165|446:190,1,120,2|0,0:0|0:0,0:0:0:0:
512,221,165802,6,0,L|505:341,1,120,4|0,0:0|0:0,0:0:0:0:
422,384,166134,2,0,L|415:264,1,120,2|0,0:3|0:0,0:0:0:0:
335,186,166465,2,0,L|328:306,1,120,2|0,0:2|0:0,0:0:0:0:
248,382,166797,2,0,L|241:262,1,120,2|0,0:3|0:0,0:0:0:0:
169,191,167128,53,4,0:2:0:0:
169,191,167239,1,0,0:0:0:0:
169,191,167349,1,0,0:0:0:0:
169,191,167460,2,0,P|124:176|85:179,2,60,2|0|0,1:2|1:0|1:0,0:0:0:0:
256,122,167791,2,0,P|301:107|340:110,2,60,2|0|0,1:2|1:0|1:0,0:0:0:0:
180,46,168123,1,2,1:2:0:0:
147,30,168233,1,0,1:0:0:0:
111,22,168344,1,0,1:0:0:0:
75,23,168454,5,12,0:0:0:0:
75,23,168786,2,0,L|62:97,1,60,10|2,0:0|0:0,0:0:0:0:
0,173,169007,2,0,L|10:297,1,120,2|0,0:0|0:0,0:0:0:0:
221,358,169449,1,10,0:0:0:0:
249,336,169559,1,2,0:0:0:0:
284,332,169670,1,2,0:0:0:0:
318,340,169780,6,0,P|368:353|441:355,1,120,2|2,1:2|0:0,0:0:0:0:
512,291,170112,2,0,L|499:163,1,120,10|2,0:0|0:0,0:0:0:0:
402,52,170443,1,4,1:3:0:0:
367,85,170554,1,4,0:3:0:0:
386,128,170664,1,4,0:3:0:0:
434,128,170775,2,0,P|372:82|320:73,1,120,8|0,1:2|0:0,0:0:0:0:
283,73,171106,5,12,0:0:0:0:
283,73,171438,2,0,P|253:89|224:111,1,60,10|2,0:2|0:2,0:0:0:0:
141,56,171659,2,0,P|87:44|29:9,1,120,2|0,0:2|0:0,0:0:0:0:
8,223,172101,1,10,0:2:0:0:
40,207,172211,1,2,0:2:0:0:
76,204,172322,1,2,0:2:0:0:
110,214,172432,6,0,P|120:257|129:347,1,120,0|0,1:0|0:0,0:0:0:0:
245,378,172764,2,0,P|250:334|272:246,1,120,10|2,0:2|0:2,0:0:0:0:
467,218,173095,1,4,1:3:0:0:
454,264,173206,1,4,1:3:0:0:
409,282,173316,1,4,1:3:0:0:
368,256,173427,2,0,P|343:214|327:138,1,120,12|0,1:2|0:0,0:0:0:0:
327,99,173758,85,12,0:0:0:0:
327,99,174090,2,0,P|297:92|251:91,1,60,10|2,0:0|0:0,0:0:0:0:
187,29,174311,1,2,0:0:0:0:
200,49,174421,2,0,P|221:116|230:170,1,120,0|0,1:0|0:0,0:0:0:0:
303,237,174753,2,0,P|333:230|379:229,1,60,10|2,0:0|0:0,0:0:0:0:
445,168,174974,1,2,0:0:0:0:
430,187,175084,2,0,P|409:254|400:308,1,120,0|0,1:0|0:0,0:0:0:0:
326,361,175416,5,10,0:0:0:0:
290,358,175526,1,2,0:0:0:0:
253,355,175637,1,2,0:0:0:0:
214,330,175747,69,4,1:3:0:0:
178,333,175857,1,4,1:3:0:0:
141,336,175968,1,4,1:3:0:0:
105,366,176079,6,0,P|96:307|43:293,1,120,8|0,1:2|0:0,0:0:0:0:
12,316,176410,5,12,0:0:0:0:
12,316,176742,2,0,L|20:254,1,60,10|2,0:0|0:0,0:0:0:0:
85,179,176963,1,2,0:0:0:0:
92,151,177073,2,0,L|78:17,1,120,0|0,1:0|0:0,0:0:0:0:
250,21,177405,1,10,0:0:0:0:
244,56,177515,1,2,0:0:0:0:
239,91,177626,1,2,0:0:0:0:
233,126,177736,6,0,P|193:136|160:137,2,60,2|0|0,1:2|0:0|0:0,0:0:0:0:
310,196,178067,2,0,P|350:206|383:207,2,60,10|0|0,0:0|0:0|0:0,0:0:0:0:
208,264,178399,69,4,1:3:0:0:
196,297,178509,1,4,1:3:0:0:
206,331,178620,1,4,1:3:0:0:
271,371,178730,5,8,1:2:0:0:
318,366,178841,1,4,1:3:0:0:
365,361,178951,1,4,1:3:0:0:
430,319,179062,5,12,0:0:0:0:
430,319,179393,2,0,P|425:292|407:248,1,71.9999978027344,0|2,1:2|0:0,0:0:0:0:
458,183,179614,1,2,0:0:0:0:
309,106,179725,2,0,P|325:189|329:257,1,143.999995605469,8|2,0:0|1:2,0:0:0:0:
206,331,180056,2,0,P|219:247|238:182,1,143.999995605469,10|10,0:0|0:0,0:0:0:0:
119,73,180388,5,2,1:2:0:0:
124,108,180498,1,2,0:0:0:0:
129,143,180609,1,2,0:0:0:0:
105,178,180719,5,10,0:0:0:0:
100,213,180829,1,2,0:0:0:0:
95,248,180940,1,2,0:0:0:0:
114,287,181051,54,0,L|124:368,1,71.9999978027344,4|4,1:3|1:3,0:0:0:0:
187,237,181272,1,4,1:3:0:0:
257,351,181382,2,0,P|303:370|364:338,1,107.999996704102,8|0,1:2|0:0,0:0:0:0:
372,320,181714,5,12,0:0:0:0:
372,320,182045,2,0,L|380:241,1,71.9999978027344,2|2,1:2|0:0,0:0:0:0:
438,185,182266,1,2,0:0:0:0:
319,178,182377,2,0,L|327:99,1,71.9999978027344,10|0,0:0|0:0,0:0:0:0:
385,43,182598,1,2,1:2:0:0:
274,6,182708,2,0,P|243:-1|180:0,2,71.9999978027344,10|0|10,0:0|0:0|0:0,0:0:0:0:
385,43,183040,5,2,1:2:0:0:
232,129,183261,5,2,1:2:0:0:
438,185,183482,5,2,0:0:0:0:
462,228,183592,1,2,0:0:0:0:
448,276,183703,1,4,1:3:0:0:
409,308,183813,1,4,1:3:0:0:
359,298,183924,1,4,1:3:0:0:
319,269,184034,2,0,P|271:252|195:258,1,107.999996704102,12|0,1:2|0:0,0:0:0:0:
175,274,184366,53,12,0:0:0:0:
175,274,184697,2,0,P|184:231|174:198,1,77.9999964294435,8|0,0:0|1:0,0:0:0:0:
97,146,184918,1,0,1:0:0:0:
259,51,185029,2,0,B|330:41|334:99|409:89,2,155.999992858887,8|8|8,0:0|0:0|0:0,0:0:0:0:
225,98,185581,1,0,1:0:0:0:
243,153,185692,1,8,0:0:0:0:
406,89,185913,5,8,0:0:0:0:
465,141,186023,2,0,P|475:179|466:216,1,77.9999964294435,0|8,1:0|0:0,0:0:0:0:
372,308,186244,1,8,0:0:0:0:
288,362,186355,2,0,P|289:288|308:204,1,155.999992858887,4|4,1:3|1:3,0:0:0:0:
243,153,186686,2,0,P|225:71|153:63,1,155.999992858887,12|0,1:2|0:0,0:0:0:0:
73,119,187018,6,0,B|76:176|76:176|89:203|89:203|94:273,1,155.999992858887,12|0,0:0|0:0,0:0:0:0:
131,349,187349,5,8,0:0:0:0:
170,345,187460,1,0,1:0:0:0:
208,341,187570,1,0,1:0:0:0:
248,312,187681,5,8,0:0:0:0:
287,316,187790,1,0,1:0:0:0:
325,320,187902,1,0,1:0:0:0:
366,348,188012,53,8,0:0:0:0:
405,344,188123,1,0,1:0:0:0:
443,340,188233,1,0,1:0:0:0:
482,308,188344,6,0,L|491:230,1,77.9999964294435,8|0,0:0|0:0,0:0:0:0:
503,146,188565,1,0,1:0:0:0:
388,241,188675,6,0,L|397:163,1,77.9999964294435,8|0,0:0|0:0,0:0:0:0:
409,79,188896,1,0,1:0:0:0:
288,175,189007,6,0,P|236:193|190:171,1,108,4|0,0:0|0:0,0:0:0:0:
139,98,189338,6,0,P|159:193|173:275,1,175.499991966248,2|0,0:1|0:0,0:0:0:0:
206,362,189670,6,0,B|266:372|266:372|252:309|289:250,1,175.499991966248,4|0,1:1|0:0,0:0:0:0:
352,203,190001,2,0,B|365:244|365:244|356:285|310:310,1,116.999994644165,8|2,0:0|0:3,0:0:0:0:
233,328,190250,1,2,0:0:0:0:
214,325,190333,2,0,P|185:324|136:338,1,58.4999973220826,2|0,1:2|0:0,0:0:0:0:
54,268,190498,2,0,P|91:273|136:263,1,58.4999973220826,2|0,1:3|0:0,0:0:0:0:
259,213,190664,1,8,0:0:0:0:
272,193,190747,1,0,0:0:0:0:
277,170,190830,1,2,0:3:0:0:
275,146,190913,1,0,0:0:0:0:
250,112,190996,5,2,1:0:0:0:
220,140,191079,1,2,0:0:0:0:
244,172,191161,1,2,0:3:0:0:
280,153,191244,1,2,0:0:0:0:
303,119,191327,6,0,P|328:82|318:7,1,116.999994644165,10|2,0:0|0:3,0:0:0:0:
146,106,191659,85,0,1:0:0:0:
112,129,191742,1,0,3:0:0:0:
72,138,191824,1,2,1:3:0:0:
33,125,191907,1,0,3:0:0:0:
11,89,191990,1,8,0:0:0:0:
11,89,192073,1,0,3:0:0:0:
11,89,192155,1,2,0:3:0:0:
11,89,192238,1,0,3:0:0:0:
11,89,192322,5,4,1:1:0:0:
48,104,192405,1,2,0:0:0:0:
88,101,192487,1,2,0:3:0:0:
122,78,192570,1,2,0:0:0:0:
142,42,192653,2,0,B|194:62|194:62|217:121,1,116.999994644165,10|2,0:0|0:3,0:0:0:0:
270,229,192985,5,2,1:2:0:0:
270,229,193067,1,2,0:0:0:0:
270,229,193150,2,0,L|364:237,1,58.4999973220826,2|0,1:3|0:0,0:0:0:0:
450,345,193316,85,10,0:0:0:0:
450,345,193398,1,2,0:0:0:0:
450,345,193482,2,0,L|356:337,1,58.4999973220826,2|0,0:3|0:0,0:0:0:0:
247,304,193648,5,2,1:0:0:0:
223,286,193730,1,2,0:0:0:0:
193,284,193813,1,2,0:3:0:0:
164,292,193896,1,2,0:0:0:0:
125,310,193979,5,8,0:0:0:0:
103,282,194062,1,0,3:0:0:0:
116,249,194145,1,2,0:3:0:0:
149,237,194228,1,0,3:0:0:0:
176,259,194311,85,0,1:0:0:0:
198,285,194394,1,2,0:0:0:0:
231,294,194475,1,2,1:3:0:0:
266,290,194558,1,2,0:0:0:0:
298,265,194642,1,8,0:0:0:0:
337,255,194725,1,2,0:0:0:0:
377,259,194808,1,2,0:3:0:0:
411,280,194891,1,2,0:0:0:0:
436,317,194974,6,0,L|510:321,3,58.4999973220826,4|0|2|0,1:1|3:0|0:3|3:0,0:0:0:0:
384,213,195305,2,0,L|314:206,3,58.4999973220826,10|0|2|0,0:0|3:0|0:3|3:0,0:0:0:0:
466,120,195637,1,2,1:2:0:0:
482,103,195719,1,0,0:0:0:0:
490,81,195802,1,2,1:3:0:0:
490,51,195885,1,0,0:0:0:0:
464,27,195968,2,0,L|373:20,1,58.4999973220826,8|0,0:0|0:0,0:0:0:0:
298,102,196134,2,0,L|389:109,1,58.4999973220826,2|0,0:3|0:0,0:0:0:0:
483,191,196300,6,0,L|398:203,1,58.4999973220826,2|0,1:1|0:0,0:0:0:0:
294,236,196465,1,0,0:0:0:0:
271,241,196548,1,0,0:0:0:0:
248,246,196631,1,8,0:0:0:0:
226,254,196714,1,0,3:0:0:0:
203,261,196797,2,0,L|199:185,1,58.4999973220826,2|0,0:3|0:0,0:0:0:0:
127,120,196963,2,0,P|126:86|129:60,1,58.4999973220826,2|0,1:2|0:0,0:0:0:0:
245,3,197128,1,2,1:3:0:0:
266,13,197211,1,0,0:0:0:0:
288,20,197294,1,10,0:0:0:0:
309,30,197377,1,2,0:0:0:0:
330,38,197460,2,0,L|330:111,1,58.4999973220826,2|0,0:3|0:0,0:0:0:0:
336,233,197626,86,0,B|367:242|367:242|407:231,3,58.4999973220826,4|0|2|0,1:2|0:0|0:3|0:0,0:0:0:0:
498,342,197957,2,0,B|471:348|471:348|427:344,3,58.4999973220826,8|0|2|0,0:0|0:0|0:3|0:0,0:0:0:0:
226,376,198288,2,0,B|253:370|253:370|297:374,3,58.4999973220826,4|0|2|0,1:1|0:0|0:3|0:0,0:0:0:0:
75,302,198620,2,0,B|42:243,1,58.4999973220826,8|0,0:0|0:0,0:0:0:0:
160,172,198786,2,0,B|208:232,1,58.4999973220826,2|0,0:3|0:0,0:0:0:0:
283,358,198951,5,6,1:2:0:0:
294,337,199033,1,0,1:0:0:0:
291,313,199116,1,2,1:3:0:0:
266,287,199199,1,0,1:0:0:0:
246,244,199282,1,8,1:2:0:0:
252,197,199365,1,0,1:0:0:0:
280,159,199449,2,0,P|317:133|353:124,1,58.4999973220826,2|0,1:3|0:0,0:0:0:0:
511,111,199614,5,4,1:1:0:0:
475,139,199696,1,2,1:2:0:0:
438,149,199779,1,2,1:3:0:0:
404,149,199862,1,2,1:2:0:0:
380,142,199945,1,10,1:2:0:0:
364,132,200028,1,2,1:2:0:0:
340,129,200111,1,2,1:3:0:0:
319,141,200194,1,2,1:2:0:0:
298,151,200277,86,0,B|287:213|287:213|228:287,1,116.999994644165,6|2,1:0|0:0,0:0:0:0:
189,301,200526,1,2,0:0:0:0:
163,307,200609,1,10,0:0:0:0:
287,208,200775,6,0,B|306:150|306:150|289:72,1,116.999994644165,2|0,0:1|1:0,0:0:0:0:
264,20,201023,1,2,0:0:0:0:
213,6,201106,1,2,1:2:0:0:
434,107,201272,2,0,L|433:173,1,58.4999973220826,8|0,3:2|3:0,0:0:0:0:
451,334,201438,6,0,B|451:305|474:275|474:275|429:234|453:129,1,175.499991966248,6|0,3:2|0:0,0:0:0:0:
401,76,201769,1,2,0:0:0:0:
384,45,201852,1,2,0:0:0:0:
512,167,202017,1,2,3:2:0:0:
512,167,202100,2,0,P|480:162|434:183,1,58.4999973220826,2|0,3:2|0:0,0:0:0:0:
338,283,202266,86,0,B|294:298|294:298|271:263|271:263|211:297,1,135.000005149842,2|0,1:1|0:0,0:0:0:0:
121,359,202515,2,0,B|148:361|165:374|165:374|152:327|159:280,1,135.000005149842,4|0,1:2|0:0,0:0:0:0:
137,191,202764,2,0,B|139:183|139:183|97:175|97:175|89:190,1,67.5000025749208,0|0,1:0|0:0,0:0:0:0:
51,313,202929,6,0,B|103:304|103:304|56:262|58:209,1,135.000005149842,4|0,1:1|0:0,0:0:0:0:
33,115,203261,1,8,0:0:0:0:
30,88,203344,1,8,3:3:0:0:
52,62,203427,1,4,0:3:0:0:
90,52,203509,1,8,3:3:0:0:
136,46,203592,6,0,B|219:28|219:28|260:57,2,135.000005149842,0|2|8,1:0|1:2|0:0,0:0:0:0:
39,19,204007,1,0,3:0:0:0:
39,19,204090,2,0,L|110:27,1,67.5000025749208,2|0,3:2|0:0,0:0:0:0:
259,56,204255,85,2,1:1:0:0:
394,30,204421,1,2,3:3:0:0:
394,30,204504,1,0,3:0:0:0:
394,30,204587,5,8,0:0:0:0:
426,38,204670,1,0,3:0:0:0:
453,57,204753,1,2,3:3:0:0:
468,87,204836,1,0,3:0:0:0:
470,126,204918,5,4,1:2:0:0:
453,162,205000,1,2,0:0:0:0:
419,184,205083,1,2,1:3:0:0:
379,175,205166,1,2,0:0:0:0:
345,151,205249,1,8,0:0:0:0:
305,143,205332,1,2,0:0:0:0:
264,146,205415,1,2,0:3:0:0:
231,170,205498,1,2,0:0:0:0:
203,199,205581,85,4,1:1:0:0:
186,210,205664,1,0,0:0:0:0:
168,220,205747,2,0,L|76:187,1,67.5000025749208,2|0,1:3|0:0,0:0:0:0:
0,295,205913,2,0,L|82:301,1,67.5000025749208,10|0,0:1|0:0,0:0:0:0:
230,380,206079,2,0,L|144:372,1,67.5000025749208,2|0,1:3|0:0,0:0:0:0:
20,301,206244,5,8,1:3:0:0:
0,248,206327,1,8,3:0:0:0:
9,215,206410,1,2,1:3:0:0:
32,210,206493,1,0,0:0:0:0:
47,222,206576,1,10,0:0:0:0:
60,233,206659,1,2,0:0:0:0:
76,240,206742,2,0,P|111:235|151:214,1,67.5000025749208,2|0,0:3|0:0,0:0:0:0:
251,140,206907,5,4,1:1:0:0:
249,120,206989,1,0,1:0:0:0:
247,99,207072,1,0,1:0:0:0:
245,78,207155,1,0,1:0:0:0:
230,44,207238,85,8,1:2:0:0:
227,84,207321,1,0,1:0:0:0:
224,124,207404,1,0,1:0:0:0:
220,164,207487,1,0,1:0:0:0:
216,211,207570,2,0,L|197:295,3,67.5000025749208,2|0|0|0,1:1|1:0|1:0|1:0,0:0:0:0:
348,285,207902,2,0,L|359:218,3,67.5000025749208,8|0|0|0,1:2|1:0|1:0|1:0,0:0:0:0:
462,150,208232,6,0,B|452:185|452:185|468:211,3,67.5000025749208,4|0|0|0,1:0|3:0|3:0|3:0,0:0:0:0:
448,19,208565,2,0,B|457:54|457:54|441:80,1,67.5000025749208,8|0,3:2|3:0,0:0:0:0:
380,226,208730,2,0,B|389:191|389:191|373:165,1,67.5000025749208,4|0,0:0|0:0,0:0:0:0:
278,75,208895,1,0,0:0:0:0:
248,47,208979,1,0,0:0:0:0:
209,34,209062,1,8,0:0:0:0:
168,37,209145,1,0,0:0:0:0:
132,56,209228,1,6,0:1:0:0:
107,88,209311,1,2,0:0:0:0:
95,126,209393,2,0,L|115:227,1,67.5000025749208,10|0,0:0|0:0,0:0:0:0:
152,333,209559,5,4,1:1:0:0:
152,333,209642,1,2,0:0:0:0:
152,333,209725,1,2,0:0:0:0:
152,333,209808,1,2,0:0:0:0:
152,333,209891,2,0,L|230:313,1,67.5000025749208,10|0,0:0|0:0,0:0:0:0:
405,249,210056,85,4,1:2:0:0:
405,249,210139,1,0,3:0:0:0:
405,249,210222,1,0,3:0:0:0:
405,249,210305,1,0,3:0:0:0:
405,249,210388,2,0,L|323:246,1,67.5000025749208,8|0,3:2|3:0,0:0:0:0:
133,165,210554,5,4,1:0:0:0:
133,165,210637,1,8,0:3:0:0:
133,165,210719,1,8,0:3:0:0:
133,165,210802,1,8,0:3:0:0:
133,165,210885,5,2,1:1:0:0:
136,184,210968,1,2,0:0:0:0:
139,204,211051,1,2,0:0:0:0:
141,224,211134,1,4,1:0:0:0:
145,250,211217,85,0,0:0:0:0:
165,276,211300,1,2,0:0:0:0:
197,282,211382,1,2,0:0:0:0:
229,272,211465,1,2,0:0:0:0:
256,233,211548,5,2,3:2:0:0:
300,217,211631,1,2,3:2:0:0:
343,235,211714,1,2,3:2:0:0:
380,263,211797,1,2,3:2:0:0:
425,275,211880,1,10,0:0:0:0:
465,251,211963,1,10,0:0:0:0:
470,203,212045,1,10,0:0:0:0:
460,156,212128,1,10,0:0:0:0:
436,104,212211,6,0,L|384:17,1,80.9999975280763,4|0,1:0|0:0,0:0:0:0:
206,18,212460,2,0,L|253:97,1,80.9999975280763,4|0,1:0|0:0,0:0:0:0:
316,209,212708,2,0,L|358:277,1,80.9999975280763,4|0,1:0|0:0,0:0:0:0:
443,360,212874,1,8,0:0:0:0:
437,377,213206,1,4,0:0:0:0:
210,357,213537,5,4,1:1:0:0:
318,47,214697,5,4,0:0:0:0:
318,47,215195,1,8,0:0:0:0:
316,62,215277,1,0,1:0:0:0:
315,78,215360,1,2,1:2:0:0:
313,94,215443,1,0,1:0:0:0:
312,109,215526,1,8,0:0:0:0:
363,229,215692,6,0,P|318:157|243:151,1,161.999995056153,4|0,1:1|0:0,0:0:0:0:
169,197,215940,2,0,P|84:194|41:132,1,161.999995056153,4|0,1:2|0:0,0:0:0:0:
41,48,216189,1,4,1:1:0:0:
170,323,217349,6,0,B|191:288|191:288|168:195,1,135.000005149842,4|0,1:0|0:0,0:0:0:0:
100,374,217681,1,8,0:0:0:0:
246,149,217846,6,0,P|306:124|376:146,1,135.000005149842,0|10,1:0|0:0,0:0:0:0:
316,346,218178,2,0,B|310:293|310:293|319:271|319:271|309:211,1,135.000005149842,0|12,1:0|0:2,0:0:0:0:
374,145,218427,1,8,0:0:0:0:
374,145,218509,2,0,P|399:137|426:131,3,45,8|8|8|8,0:0|0:0|0:0|0:0,0:0:0:0:
303,64,218841,53,4,1:0:0:0:
269,49,218924,1,0,3:0:0:0:
233,44,219007,1,0,3:0:0:0:
198,54,219090,1,0,3:0:0:0:
170,76,219172,2,0,P|160:104|160:140,1,45,8|2,0:0|0:0,0:0:0:0:
211,196,219338,5,2,0:0:0:0:
214,231,219421,1,2,0:0:0:0:
218,266,219504,1,4,1:3:0:0:
221,301,219587,1,0,1:0:0:0:
225,336,219670,2,0,L|168:331,1,45,0|0,1:0|1:0,0:0:0:0:
79,372,219835,2,0,L|34:375,3,45,8|0|0|0,0:0|3:0|3:0|3:0,0:0:0:0:
112,253,220167,5,4,1:3:0:0:
120,217,220250,1,0,1:0:0:0:
111,181,220333,1,0,1:0:0:0:
90,151,220416,1,0,1:0:0:0:
60,130,220498,2,0,L|8:137,1,45,8|8,0:0|0:0,0:0:0:0:
146,26,220664,2,0,L|198:33,1,45,8|8,0:0|0:0,0:0:0:0:
255,189,220830,2,0,L|203:196,1,45,4|8,1:3|0:0,0:0:0:0:
314,5,220996,2,0,L|366:12,1,45,8|8,0:0|0:0,0:0:0:0:
473,175,221161,5,10,0:1:0:0:
478,219,221244,1,8,0:0:0:0:
483,263,221327,1,8,0:0:0:0:
488,307,221410,1,8,0:0:0:0:
494,351,221493,5,2,0:0:0:0:
494,351,222322,54,0,B|456:324|456:324|337:337,1,153.000002918243,4|0,1:0|0:0,0:0:0:0:
298,267,222570,2,0,B|260:294|260:294|141:281,1,153.000002918243,4|0,1:2|0:0,0:0:0:0:
76,228,222819,2,0,P|63:191|66:155,1,76.5000014591217,12|8,1:0|0:0,0:0:0:0:
169,57,222985,5,8,0:0:0:0:
169,57,223067,1,8,0:0:0:0:
169,57,223150,2,0,L|228:51,3,53.9999983520508,4|0|0|0,1:3|1:0|1:0|1:0,0:0:0:0:
293,1,223482,1,10,0:0:0:0:
315,31,223565,1,10,0:0:0:0:
315,68,223648,1,10,0:0:0:0:
299,102,223730,1,10,0:0:0:0:
276,132,223813,1,8,3:0:0:0:
259,165,223896,1,8,3:0:0:0:
265,201,223979,1,4,3:0:0:0:
287,232,224061,1,4,3:0:0:0:
321,252,224145,6,0,L|440:247,1,116.999994644165,4|10,1:1|0:0,0:0:0:0:
468,238,224394,1,2,0:0:0:0:
500,226,224475,1,2,1:2:0:0:
348,169,224642,1,10,0:0:0:0:
241,356,224808,1,2,1:2:0:0:
208,365,224891,1,2,0:0:0:0:
178,348,224974,2,0,B|159:312|159:312|181:229,1,116.999994644165,10|0,0:0|1:0,0:0:0:0:
100,33,225305,6,0,B|141:83|141:83|91:248,1,233.999989288331,10|10,0:0|0:0,0:0:0:0:
0,319,225801,1,2,1:2:0:0:
15,155,225968,1,10,0:0:0:0:
178,238,226134,2,0,P|233:250|293:251,1,116.999994644165,2|8,1:2|0:0,0:0:0:0:
477,175,226464,1,2,1:2:0:0:
472,141,226548,1,0,3:0:0:0:
467,107,226631,1,10,0:0:0:0:
462,73,226714,1,0,0:0:0:0:
457,39,226797,6,0,L|395:44,1,58.4999973220826,6|0,1:2|0:0,0:0:0:0:
299,118,226963,2,0,L|361:123,1,58.4999973220826,10|2,0:0|0:0,0:0:0:0:
477,175,227128,1,2,1:2:0:0:
477,175,227294,86,0,P|474:204|467:232,1,58.4999973220826,10|0,0:0|0:0,0:0:0:0:
382,273,227460,2,0,P|384:302|391:330,1,58.4999973220826,2|2,1:2|0:0,0:0:0:0:
313,381,227626,1,10,0:0:0:0:
230,224,227791,5,0,1:0:0:0:
230,224,227874,1,0,3:0:0:0:
230,224,227957,2,0,B|103:219|145:327|27:316,1,233.999989288331,14|10,0:0|0:0,0:0:0:0:
221,327,228454,1,2,1:2:0:0:
221,327,228537,1,0,3:0:0:0:
221,327,228620,1,10,0:0:0:0:
37,227,228786,2,0,P|22:173|43:113,1,116.999994644165,4|10,1:1|0:0,0:0:0:0:
110,59,229034,1,0,0:0:0:0:
110,59,229117,2,0,L|178:55,3,58.4999973220826,10|8|10|0,1:2|0:0|0:0|0:0,0:0:0:0:
243,100,229449,85,2,1:1:0:0:
268,128,229532,1,0,0:0:0:0:
275,166,229615,1,8,0:0:0:0:
262,203,229696,1,0,0:0:0:0:
230,224,229780,1,0,1:0:0:0:
50,267,229946,5,10,0:1:0:0:
102,263,230029,1,0,0:0:0:0:
154,260,230112,1,0,1:0:0:0:
206,257,230195,1,0,0:0:0:0:
258,254,230277,2,0,L|388:244,1,116.999994644165,8|0,0:0|1:0,0:0:0:0:
265,357,230609,1,10,0:0:0:0:
435,183,230774,6,0,B|460:240|460:240|444:294,1,116.999994644165,4|8,1:1|0:0,0:0:0:0:
258,254,231106,1,8,0:0:0:0:
243,221,231189,1,8,0:0:0:0:
238,186,231272,1,8,0:0:0:0:
247,152,231355,1,8,0:0:0:0:
268,124,231438,2,0,L|341:118,3,58.4999973220826,4|8|8|8,1:3|0:3|0:3|0:3,0:0:0:0:
195,53,231769,1,12,0:0:0:0:
148,50,231852,1,8,0:0:0:0:
101,47,231935,1,8,0:0:0:0:
54,44,232018,1,8,0:0:0:0:
7,41,232101,86,0,P|48:96|41:174,1,135.000005149842,4|0,1:1|0:0,0:0:0:0:
138,187,232349,2,0,P|97:242|104:320,1,135.000005149842,0|0,1:0|0:0,0:0:0:0:
162,360,232598,2,0,L|243:354,1,67.5000025749208,8|0,0:0|0:0,0:0:0:0:
409,236,232764,6,0,B|438:295|438:295|415:360,1,135.000005149842,4|0,1:2|0:0,0:0:0:0:
325,366,233012,2,0,B|296:307|296:307|319:242,1,135.000005149842,0|0,1:0|0:0,0:0:0:0:
360,167,233261,1,8,0:0:0:0:
360,167,233344,1,0,0:0:0:0:
360,167,233427,5,4,1:3:0:0:
367,136,233758,1,0,1:0:0:0:
374,105,234090,1,2,1:2:0:0:
223,167,234255,1,8,0:0:0:0:
223,167,234338,1,8,0:0:0:0:
223,167,234421,2,0,L|233:205,3,36,8|8|8|8,0:3|0:3|0:0|0:0,0:0:0:0:
223,239,234753,6,0,L|161:231,1,53.9999983520508,2|0,1:0|0:0,0:0:0:0:
197,257,235084,2,0,L|135:249,1,53.9999983520508,2|0,1:0|0:0,0:0:0:0:
171,275,235416,2,0,L|109:267,1,53.9999983520508,2|0,1:0|0:0,0:0:0:0:
37,355,235747,1,2,1:0:0:0:
161,20,236079,5,4,1:1:0:0:
38,234,236244,1,2,0:3:0:0:
70,236,236326,1,2,0:0:0:0:
95,225,236410,1,8,3:2:0:0:
115,207,236492,1,0,3:2:0:0:
128,183,236576,2,0,P|138:145|134:123,1,53.9999983520508,2|0,3:3|3:0,0:0:0:0:
22,37,236742,2,0,L|96:47,1,53.9999983520508,0|0,1:0|0:0,0:0:0:0:
237,15,236907,1,2,0:3:0:0:
237,15,236990,1,2,0:0:0:0:
237,15,237073,2,0,L|308:34,1,53.9999983520508,8|0,0:0|0:0,0:0:0:0:
412,81,237239,1,2,0:3:0:0:
412,81,237322,1,2,0:0:0:0:
412,81,237405,5,0,1:0:0:0:
488,238,237570,1,2,0:3:0:0:
461,243,237653,1,2,0:0:0:0:
435,235,237736,1,8,0:0:0:0:
416,215,237819,1,0,3:0:0:0:
403,191,237902,2,0,L|386:126,1,53.9999983520508,2|0,0:3|0:0,0:0:0:0:
368,1,238067,2,0,L|436:17,1,53.9999983520508,0|0,1:0|3:0,0:0:0:0:
512,132,238233,1,2,0:3:0:0:
512,132,238316,1,0,3:0:0:0:
512,132,238399,2,0,L|454:173,1,53.9999983520508,8|0,0:0|0:0,0:0:0:0:
316,244,238565,2,0,L|380:258,1,53.9999983520508,2|0,0:3|0:0,0:0:0:0:
508,356,238730,5,0,1:0:0:0:
461,368,238813,1,0,3:0:0:0:
413,373,238896,1,2,0:3:0:0:
363,374,238979,1,0,3:0:0:0:
310,376,239061,1,8,0:0:0:0:
80,281,239228,85,2,0:3:0:0:
101,231,239311,1,2,0:0:0:0:
147,204,239393,1,0,1:0:0:0:
200,210,239476,1,0,0:0:0:0:
241,245,239559,1,2,0:3:0:0:
15,373,239725,5,8,0:0:0:0:
15,373,239808,1,2,0:0:0:0:
15,373,239891,1,2,0:3:0:0:
15,373,239974,1,2,0:0:0:0:
15,373,240056,6,0,L|1:287,1,53.9999983520508,0|0,1:0|0:0,0:0:0:0:
9,166,240222,1,2,0:3:0:0:
6,139,240305,1,0,3:0:0:0:
22,117,240388,1,8,0:0:0:0:
56,91,240471,1,0,1:0:0:0:
103,100,240554,1,2,0:3:0:0:
149,86,240637,1,0,3:0:0:0:
197,84,240719,86,0,L|197:174,1,53.9999983520508,8|8,0:0|0:0,0:0:0:0:
304,223,240885,1,2,1:3:0:0:
304,223,240968,1,0,1:0:0:0:
304,223,241051,2,0,L|305:153,1,53.9999983520508,8|0,0:0|1:0,0:0:0:0:
408,81,241217,2,0,L|429:160,1,53.9999983520508,2|0,1:3|1:0,0:0:0:0:
460,271,241382,5,4,1:2:0:0:
239,322,241548,1,2,0:3:0:0:
258,340,241631,1,2,0:0:0:0:
290,350,241714,1,8,0:0:0:0:
318,346,241797,1,0,3:0:0:0:
344,333,241880,2,0,P|374:308|384:288,1,53.9999983520508,2|0,0:3|0:0,0:0:0:0:
360,168,242046,2,0,L|310:214,1,53.9999983520508,0|0,1:0|0:0,0:0:0:0:
185,281,242211,1,2,3:3:0:0:
185,281,242293,1,2,0:0:0:0:
185,281,242377,2,0,L|132:254,1,53.9999983520508,8|0,0:0|0:0,0:0:0:0:
22,201,242543,1,2,0:0:0:0:
22,201,242626,1,2,0:0:0:0:
22,201,242708,5,0,1:0:0:0:
134,361,242874,1,2,0:3:0:0:
145,336,242957,1,2,0:0:0:0:
152,310,243040,1,8,0:0:0:0:
162,285,243122,1,2,0:0:0:0:
166,258,243205,2,0,L|153:196,1,53.9999983520508,2|0,0:3|0:0,0:0:0:0:
116,74,243370,1,0,1:0:0:0:
116,74,243454,1,0,3:0:0:0:
116,74,243537,1,2,0:3:0:0:
116,74,243620,1,0,3:0:0:0:
116,74,243703,2,0,B|140:95|140:95|172:59|242:84,1,107.999996704102,8|2,0:0|0:3,0:0:0:0:
446,75,244034,85,0,1:0:0:0:
413,68,244116,1,0,0:0:0:0:
365,54,244199,1,2,0:3:0:0:
310,43,244282,1,0,0:0:0:0:
257,34,244365,1,8,0:0:0:0:
50,66,244532,5,2,3:3:0:0:
95,93,244614,1,0,3:0:0:0:
117,142,244697,1,0,1:0:0:0:
106,195,244780,1,0,0:0:0:0:
67,232,244863,1,2,0:3:0:0:
221,153,245029,5,8,0:0:0:0:
261,178,245111,1,0,3:0:0:0:
282,221,245194,1,2,0:3:0:0:
277,269,245277,1,0,3:0:0:0:
249,309,245360,86,0,L|320:312,1,53.9999983520508,0|0,1:0|0:0,0:0:0:0:
480,238,245526,1,8,0:0:0:0:
497,198,245609,1,8,0:0:0:0:
478,158,245692,1,8,0:0:0:0:
450,141,245775,1,8,0:0:0:0:
419,152,245858,1,8,0:0:0:0:
386,155,245941,1,8,0:0:0:0:
357,140,246023,2,0,L|328:83,1,53.9999983520508,8|8,0:3|0:3,0:0:0:0:
179,44,246189,1,8,0:3:0:0:
179,44,246272,1,8,0:3:0:0:
179,44,246355,2,0,L|202:107,1,53.9999983520508,4|4,0:3|0:3,0:0:0:0:
255,197,246521,2,0,L|247:259,1,53.9999983520508,4|4,0:3|0:3,0:0:0:0:
236,367,246685,5,4,1:1:0:0:
159,240,246851,1,2,0:3:0:0:
151,213,246935,1,2,0:0:0:0:
156,186,247018,1,8,3:2:0:0:
177,169,247100,1,0,3:2:0:0:
200,156,247184,2,0,L|249:127,1,53.9999983520508,2|0,3:3|0:0,0:0:0:0:
386,184,247349,2,0,L|327:225,1,53.9999983520508,0|0,1:0|0:0,0:0:0:0:
225,313,247515,1,2,3:3:0:0:
225,313,247597,1,0,3:0:0:0:
225,313,247681,1,8,0:0:0:0:
401,262,247846,1,0,3:0:0:0:
401,262,247929,1,0,3:0:0:0:
401,262,248012,5,0,1:0:0:0:
477,107,248178,1,2,0:3:0:0:
450,88,248260,1,2,0:0:0:0:
418,96,248344,1,8,0:0:0:0:
392,116,248427,1,0,3:0:0:0:
362,129,248510,2,0,L|309:118,1,53.9999983520508,2|0,0:3|0:0,0:0:0:0:
229,16,248675,1,0,1:0:0:0:
229,16,248758,1,0,3:0:0:0:
229,16,248841,2,0,L|293:14,1,53.9999983520508,2|0,0:3|3:0,0:0:0:0:
317,154,249007,2,0,L|232:155,1,53.9999983520508,8|0,0:0|0:0,0:0:0:0:
105,186,249172,1,2,0:3:0:0:
62,180,249255,1,0,3:0:0:0:
34,146,249338,85,0,1:0:0:0:
44,103,249421,1,2,0:0:0:0:
85,90,249504,1,2,0:3:0:0:
123,109,249586,1,2,0:0:0:0:
159,132,249670,2,0,L|235:175,1,53.9999983520508,8|0,0:0|0:0,0:0:0:0:
353,243,249835,5,2,3:3:0:0:
396,265,249918,1,0,3:0:0:0:
444,262,250001,1,0,1:0:0:0:
472,222,250084,1,2,0:0:0:0:
472,173,250167,2,0,L|447:107,1,53.9999983520508,2|0,0:3|0:0,0:0:0:0:
323,20,250333,5,8,0:0:0:0:
323,20,250416,1,0,3:0:0:0:
323,20,250498,1,2,0:3:0:0:
323,20,250581,1,0,3:0:0:0:
323,20,250664,85,0,1:0:0:0:
346,192,250830,1,2,3:3:0:0:
358,233,250913,1,0,3:0:0:0:
359,265,250995,1,8,0:0:0:0:
343,293,251079,1,8,0:0:0:0:
324,303,251162,1,2,0:3:0:0:
297,296,251243,1,0,0:0:0:0:
273,274,251326,5,0,1:0:0:0:
250,289,251409,1,8,0:0:0:0:
224,297,251493,1,2,0:3:0:0:
197,291,251576,1,0,1:0:0:0:
172,278,251659,6,0,L|122:255,1,53.9999983520508,8|8,0:0|0:0,0:0:0:0:
2,339,251824,2,0,L|85:369,1,53.9999983520508,2|2,1:3|0:0,0:0:0:0:
194,374,251990,85,4,1:2:0:0:
0,244,252155,1,2,0:3:0:0:
27,246,252239,1,2,0:0:0:0:
62,249,252322,1,8,0:0:0:0:
95,250,252405,1,0,3:0:0:0:
132,252,252488,2,0,L|186:252,1,53.9999983520508,2|0,0:3|0:0,0:0:0:0:
290,147,252653,2,0,L|222:147,1,53.9999983520508,0|0,1:0|0:0,0:0:0:0:
87,109,252819,1,2,3:3:0:0:
87,109,252901,1,0,3:0:0:0:
87,109,252985,1,8,0:0:0:0:
230,71,253150,1,0,3:0:0:0:
230,73,253233,1,0,3:0:0:0:
230,73,253316,5,0,1:0:0:0:
309,243,253482,1,2,0:3:0:0:
310,216,253565,1,2,0:0:0:0:
314,181,253648,1,8,0:0:0:0:
315,148,253731,1,0,3:0:0:0:
317,111,253812,2,0,L|317:57,1,53.9999983520508,2|0,0:3|0:0,0:0:0:0:
462,20,253979,1,0,1:0:0:0:
462,20,254062,1,0,3:0:0:0:
462,20,254145,2,0,L|456:77,1,53.9999983520508,2|0,0:3|3:0,0:0:0:0:
364,161,254310,2,0,L|371:218,1,53.9999983520508,12|0,0:2|0:0,0:0:0:0:
400,360,254476,1,2,0:3:0:0:
415,364,254559,1,2,0:0:0:0:
447,367,254642,5,4,1:1:0:0:
473,340,254725,1,8,0:0:0:0:
476,296,254808,1,2,1:3:0:0:
443,267,254891,1,0,1:0:0:0:
400,260,254974,2,0,L|316:249,1,53.9999983520508,8|0,0:0|0:0,0:0:0:0:
174,245,255139,85,10,0:3:0:0:
174,245,255222,1,4,0:3:0:0:
174,245,255305,2,0,L|180:312,1,53.9999983520508,0|0,1:0|1:0,0:0:0:0:
314,342,255470,2,0,L|304:264,1,53.9999983520508,2|0,3:3|0:0,0:0:0:0:
252,166,255637,5,8,0:0:0:0:
252,166,255720,1,2,0:0:0:0:
252,166,255802,1,2,0:3:0:0:
252,166,255884,1,2,0:0:0:0:
252,166,255968,5,4,1:1:0:0:
373,47,256133,1,8,0:0:0:0:
405,90,256217,1,8,0:0:0:0:
411,143,256300,1,8,0:0:0:0:
391,181,256383,1,8,0:0:0:0:
360,202,256464,1,8,0:0:0:0:
341,234,256547,1,8,0:0:0:0:
346,267,256631,85,8,0:3:0:0:
357,285,256714,1,8,0:3:0:0:
377,292,256797,1,8,0:3:0:0:
398,290,256880,1,8,0:3:0:0:
419,285,256963,6,0,L|473:265,1,53.9999983520508,4|4,0:3|0:3,0:0:0:0:
483,120,257127,2,0,L|417:141,1,53.9999983520508,4|4,0:3|0:3,0:0:0:0:
11,27,259449,6,0,B|4:38|4:38|10:53|10:53|32:37|32:37|48:43|48:43|43:69|43:69|28:71,1,90,4|0,1:1|0:0,0:0:0:0:
