osu file format v14

[General]
AudioFilename: ghost rule.mp3
AudioLeadIn: 0
PreviewTime: 47981
Countdown: 0
SampleSet: Normal
StackLeniency: 0.7
Mode: 0
LetterboxInBreaks: 0
WidescreenStoryboard: 1

[Editor]
DistanceSpacing: 1.2
BeatDivisor: 4
GridSize: 32
TimelineZoom: 2

[Metadata]
Title:Ghost Rule
TitleUnicode:ゴーストルール
Artist:ayaponzu*
ArtistUnicode:あやぽんず*
Creator:Moly
Version:Hard
Source:
Tags:Yuii- Dailycare Ayalis Gimbab Enon Rose Pacifica DECO*27 Vocaloid Utaite Hatsune Miku
BeatmapID:1262476
BeatmapSetID:408440

[Difficulty]
HPDrainRate:5
CircleSize:4
OverallDifficulty:6
ApproachRate:8.3
SliderMultiplier:1.4
SliderTickRate:1

[Events]
//Background and Video events
0,0,"42d70c89-7f6b-4110-c133-2938cd654f3b.jpg",0,0
//Break Periods
//Storyboard Layer 0 (Background)
//Storyboard Layer 1 (Fail)
//Storyboard Layer 2 (Pass)
//Storyboard Layer 3 (Foreground)
//Storyboard Sound Samples

[TimingPoints]
9410,285.714285714286,4,1,1,50,1,0
27624,-100,4,1,1,5,0,0
27695,-100,4,1,1,50,0,0
34481,-100,4,1,1,5,0,0
34552,-100,4,1,1,50,0,0
48267,-100,4,1,1,70,0,1
66552,-100,4,1,1,70,0,0

[Colours]
Combo1 : 218,106,238
Combo2 : 255,128,128
Combo3 : 186,239,75
Combo4 : 84,87,222

[HitObjects]
403,35,9409,5,2,0:0:0:0:
403,35,9552,2,0,P|306:65|292:116,1,140,2|2,0:0|0:0,0:0:0:0:
313,172,9981,2,0,B|369:179|369:179|387:198|387:198|444:206,1,140,8|8,0:0|0:0,0:0:0:0:
322,259,10409,6,0,B|266:266|266:266|248:285|248:285|191:293,1,140,8|0,0:0|0:0,0:0:0:0:
109,264,10838,2,0,P|107:316|112:333,1,70,2|0,0:0|0:0,0:0:0:0:
176,207,11124,1,8,0:0:0:0:
176,207,11267,2,0,P|178:155|173:138,2,70,2|0|8,0:0|0:0|0:0,0:0:0:0:
190,292,11695,6,0,P|223:280|247:255,1,70,2|2,0:0|0:0,0:0:0:0:
324,219,11981,2,0,P|333:252|327:287,1,70,2|2,0:0|0:0,0:0:0:0:
331,369,12267,2,0,P|365:360|391:339,1,70,8|0,0:0|0:0,0:0:0:0:
472,308,12552,1,0,0:0:0:0:
472,308,12695,6,0,P|454:241|471:174,1,140,8|0,0:0|0:0,0:0:0:0:
503,99,13124,2,0,P|453:148|387:166,1,140,2|8,0:0|0:0,0:0:0:0:
307,176,13552,2,0,P|374:193|423:242,1,140,2|8,0:0|0:0,0:0:0:0:
439,325,13981,5,2,0:0:0:0:
439,325,14124,2,0,L|508:315,2,70,2|0|2,0:0|0:0|0:0,0:0:0:0:
492,231,14552,1,8,0:0:0:0:
492,231,14695,2,0,L|423:241,1,70
338,246,14981,6,0,P|320:148|334:110,1,140,8|0,0:0|0:0,0:0:0:0:
328,21,15410,2,0,P|269:57|237:119,1,140,2|8,0:0|0:0,0:0:0:0:
212,199,15838,2,0,B|156:189|156:189|135:197|135:197|75:187,1,140,2|8,0:0|0:0,0:0:0:0:
126,111,16267,5,2,0:0:0:0:
126,111,16410,1,2,0:0:0:0:
126,111,16552,2,0,P|126:61|137:39,1,70,2|2,0:0|0:0,0:0:0:0:
214,94,16838,1,8,0:0:0:0:
214,94,16981,1,2,0:0:0:0:
214,94,17124,2,0,P|257:68|281:67,1,70,0|8,0:0|0:0,0:0:0:0:
275,152,17410,6,0,P|318:177|331:197,1,70,2|8,0:0|0:0,0:0:0:0:
333,204,17624,1,8,0:0:0:0:
336,215,17695,2,0,P|330:263|318:283,1,70,8|8,0:0|0:0,0:0:0:0:
403,308,17981,2,0,P|420:259|421:239,1,70,8|8,0:0|0:0,0:0:0:0:
411,161,18266,1,8,0:0:0:0:
360,100,18409,1,8,0:0:0:0:
280,87,18552,6,0,B|193:98|193:98|185:127|160:141,1,140,6|8,0:0|0:0,0:0:0:0:
74,82,18981,2,0,L|91:220,1,140,0|2,0:0|0:0,0:0:0:0:
31,299,19410,1,8,0:0:0:0:
31,299,19552,6,0,B|118:310|118:310|126:339|150:353,1,140,0|2,0:0|0:0,0:0:0:0:
197,283,19981,2,0,P|210:242|207:215,1,70,8|0,0:0|0:0,0:0:0:0:
229,133,20267,1,2,0:0:0:0:
229,133,20410,1,2,0:0:0:0:
229,133,20552,2,0,P|260:148|282:175,1,70,8|0,0:0|0:0,0:0:0:0:
360,145,20838,6,0,P|280:61|254:52,1,140,2|8,0:0|0:0,0:0:0:0:
229,133,21267,2,0,P|116:160|95:178,1,140,0|2,0:0|0:0,0:0:0:0:
58,257,21695,1,8,0:0:0:0:
58,257,21838,1,0,0:0:0:0:
58,257,21981,6,0,L|132:263,1,70,2|2,0:0|0:0,0:0:0:0:
199,307,22267,2,0,P|212:263|201:220,1,70,8|2,0:0|0:0,0:0:0:0:
169,158,22552,2,0,L|243:152,1,70,2|2,0:0|0:0,0:0:0:0:
308,108,22838,2,0,P|320:140|318:175,1,70,12|0,0:0|0:0,0:0:0:0:
399,192,23124,6,0,P|331:260|291:256,1,140,6|8,0:0|0:0,0:0:0:0:
212,327,23552,2,0,L|205:187,1,140,0|2,0:0|0:0,0:0:0:0:
176,110,23981,1,8,0:0:0:0:
176,110,24124,6,0,P|268:134|285:171,1,140,0|2,0:0|0:0,0:0:0:0:
371,179,24552,2,0,P|362:129|352:109,1,70,8|0,0:0|0:0,0:0:0:0:
317,249,24838,2,0,P|364:268|386:267,1,70,2|2,0:0|0:0,0:0:0:0:
454,216,25124,2,0,P|458:165|453:144,1,70,8|0,0:0|0:0,0:0:0:0:
510,82,25410,6,0,P|394:85|377:106,1,140,2|8,0:0|0:0,0:0:0:0:
325,34,25838,2,0,P|301:98|335:161,2,140,0|2|0,0:0|0:0|0:0,0:0:0:0:
383,94,26552,6,0,P|410:72|444:61,1,70,2|2,0:0|0:0,0:0:0:0:
331,158,26838,2,0,P|299:146|273:123,1,70,8|2,0:0|0:0,0:0:0:0:
410,174,27124,2,0,P|415:209|408:243,1,70,2|2,0:0|0:0,0:0:0:0:
347,296,27410,2,0,L|242:290,1,105,8|0,0:0|0:0,0:0:0:0:
232,282,27695,6,0,P|206:236|204:219,1,70,6|0,0:0|0:0,0:0:0:0:
143,161,27981,2,0,P|124:190|118:224,1,70,2|0,0:0|0:0,0:0:0:0:
229,136,28267,2,0,P|213:104|186:83,1,70,2|0,0:0|0:0,0:0:0:0:
204,219,28552,1,2,0:0:0:0:
204,219,28695,6,0,P|262:220|314:156,1,140
367,101,29124,2,0,P|392:146|393:171,1,70,2|0,0:0|0:0,0:0:0:0:
472,184,29410,2,0,P|445:226|424:240,1,70,2|0,0:0|0:0,0:0:0:0:
452,314,29695,2,0,P|401:312|379:301,1,70,2|0,0:0|0:0,0:0:0:0:
375,298,29910,1,0,0:0:0:0:
367,290,29981,6,0,B|352:273|349:251|349:251|329:298|346:348,1,140,2|2,0:0|0:0,0:0:0:0:
261,356,30410,2,0,P|256:287|272:219,1,140,0|0,0:0|0:0,0:0:0:0:
312,144,30838,2,0,P|268:134|224:147,1,70,2|0,0:0|0:0,0:0:0:0:
234,143,31052,1,0,0:0:0:0:
224,148,31124,6,0,P|180:158|136:145,1,70,2|0,0:0|0:0,0:0:0:0:
183,73,31410,2,0,P|152:39|141:-4,1,70,2|0,0:0|0:0,0:0:0:0:
156,153,31695,2,0,P|114:135|85:100,1,70,2|0,0:0|0:0,0:0:0:0:
21,79,31981,2,0,P|12:127|16:147,1,70,2|0,0:0|0:0,0:0:0:0:
20,158,32195,1,0,0:0:0:0:
27,167,32267,6,0,P|36:215|31:235,1,70,6|0,0:0|0:0,0:0:0:0:
0,313,32552,2,0,P|94:327|135:314,1,140,2|2,0:0|0:0,0:0:0:0:
188,381,32981,1,0,0:0:0:0:
188,381,33124,2,0,P|210:354|220:321,1,70,2|0,0:0|0:0,0:0:0:0:
220,310,33338,1,0,0:0:0:0:
219,299,33410,6,0,P|207:266|183:241,1,70,2|0,0:0|0:0,0:0:0:0:
135,313,33695,2,0,P|100:306|66:315,1,70,2|0,0:0|0:0,0:0:0:0:
183,241,33981,2,0,P|152:223|116:218,1,70,2|0,0:0|0:0,0:0:0:0:
35,233,34267,2,0,L|30:126,1,105,2|0,0:0|0:0,0:0:0:0:
42,115,34552,6,0,B|102:109|102:109|122:118|122:118|179:112,1,140,6|2,0:0|0:0,0:0:0:0:
265,108,34981,1,0,0:0:0:0:
221,38,35124,1,2,0:0:0:0:
179,111,35267,2,0,P|206:174|277:196,1,140,0|0,0:0|0:0,0:0:0:0:
347,163,35695,6,0,L|351:80,1,70,2|8,0:0|0:0,0:0:0:0:
346,83,35910,1,8,0:0:0:0:
341,72,35981,2,0,L|424:76,2,70,8|8|8,0:0|0:0|0:0,0:0:0:0:
266,115,36410,1,8,0:0:0:0:
266,115,36552,2,0,L|183:111,1,70,8|8,0:0|0:0,0:0:0:0:
146,197,36838,5,6,0:0:0:0:
146,197,36981,2,0,B|217:200|217:200|262:251,1,140,2|2,0:0|0:0,0:0:0:0:
381,304,37410,2,0,B|325:311|325:311|307:330|307:330|250:338,1,140,8|0,0:0|0:0,0:0:0:0:
262,251,37838,6,0,B|205:259|205:259|187:278|187:278|131:285,1,140,8|0,0:0|0:0,0:0:0:0:
66,229,38267,2,0,P|56:183|63:158,1,70,2|0,0:0|0:0,0:0:0:0:
141,189,38552,2,0,P|150:155|173:128,1,70,8|2,0:0|0:0,0:0:0:0:
206,51,38838,2,0,P|171:44|138:54,1,70,0|8,0:0|0:0,0:0:0:0:
256,118,39124,5,6,0:0:0:0:
256,118,39267,2,0,P|290:124|323:114,1,70,2|2,0:0|0:0,0:0:0:0:
406,103,39552,1,2,0:0:0:0:
406,103,39695,2,0,P|394:70|369:46,2,70,8|2|0,0:0|0:0|0:0,0:0:0:0:
488,83,40124,6,0,P|449:177|420:188,1,140,8|0,0:0|0:0,0:0:0:0:
437,270,40552,2,0,P|345:224|336:194,1,140,2|8,0:0|0:0,0:0:0:0:
259,146,40981,2,0,L|245:285,1,140,2|8,0:0|0:0,0:0:0:0:
196,354,41410,5,6,0:0:0:0:
196,354,41552,2,0,B|128:376|128:376|65:347,1,140,2|2,0:0|0:0,0:0:0:0:
24,273,41981,2,0,L|38:134,1,140,8|0,0:0|0:0,0:0:0:0:
18,51,42410,6,0,P|112:90|123:119,1,140,8|0,0:0|0:0,0:0:0:0:
132,205,42838,2,0,P|190:170|206:104,1,140,2|8,0:0|0:0,0:0:0:0:
198,14,43267,2,0,B|254:21|254:21|272:40|272:40|329:48,1,140,2|8,0:0|0:0,0:0:0:0:
409,25,43695,6,0,P|410:72|396:93,1,70,6|2,0:0|0:0,0:0:0:0:
461,148,43981,2,0,P|420:172|395:171,1,70,2|2,0:0|0:0,0:0:0:0:
316,156,44267,2,0,P|314:203|328:224,1,70,8|2,0:0|0:0,0:0:0:0:
264,279,44553,2,0,P|304:303|329:302,1,70,8|8,0:0|0:0,0:0:0:0:
230,200,44838,6,0,P|190:225|180:249,1,70,2|8,0:0|0:0,0:0:0:0:
178,257,45052,1,8,0:0:0:0:
175,269,45124,2,0,L|102:275,1,70,8|8,0:0|0:0,0:0:0:0:
36,184,45410,1,8,0:0:0:0:
116,192,45552,1,8,0:0:0:0:
82,118,45695,2,0,P|83:72|95:49,1,70,8|8,0:0|0:0,0:0:0:0:
178,98,48267,6,0,P|199:53|215:42,1,70,6|2,0:0|0:0,0:0:0:0:
205,181,48552,2,0,P|156:184|137:176,1,70,8|0,0:0|0:0,0:0:0:0:
265,115,48838,1,2,0:0:0:0:
291,202,48981,2,0,P|269:246|253:257,1,70,2|8,0:0|0:0,0:0:0:0:
171,279,49267,1,0,0:0:0:0:
232,336,49410,6,0,P|325:311|348:278,1,140,2|8,0:0|0:0,0:0:0:0:
421,319,49838,1,2,0:0:0:0:
421,319,49981,2,0,P|431:271|425:251,1,70,0|2,0:0|0:0,0:0:0:0:
505,226,50267,2,0,P|478:184|460:175,1,70,8|0,0:0|0:0,0:0:0:0:
512,89,50552,5,6,0:0:0:0:
431,96,50695,1,2,0:0:0:0:
371,150,50838,1,8,0:0:0:0:
290,158,50981,1,0,0:0:0:0:
225,109,51124,2,0,L|221:32,1,70,2|2,0:0|0:0,0:0:0:0:
141,118,51410,2,0,L|137:41,1,70,8|0,0:0|0:0,0:0:0:0:
98,198,51695,6,0,L|94:275,1,70,2|2,0:0|0:0,0:0:0:0:
14,189,51981,2,0,L|10:266,1,70,8|2,0:0|0:0,0:0:0:0:
53,343,52267,2,0,P|103:349|121:344,1,70,2|8,0:0|0:0,0:0:0:0:
130,339,52481,1,8,0:0:0:0:
139,334,52552,2,0,P|189:328|207:333,1,70,8|8,0:0|0:0,0:0:0:0:
281,373,52838,6,0,P|290:328|286:304,1,70,6|0,0:0|0:0,0:0:0:0:
369,217,53124,2,0,L|230:212,1,140,8|2,0:0|0:0,0:0:0:0:
150,182,53552,2,0,P|142:215|149:250,1,70,2|8,0:0|0:0,0:0:0:0:
219,127,53838,1,0,0:0:0:0:
141,94,53981,6,0,P|67:157|60:197,1,140,2|8,0:0|0:0,0:0:0:0:
208,44,54410,1,2,0:0:0:0:
208,44,54552,2,0,P|183:20|149:9,1,70,2|2,0:0|0:0,0:0:0:0:
219,127,54838,2,0,P|252:117|278:93,1,70,8|0,0:0|0:0,0:0:0:0:
141,94,55124,5,6,0:0:0:0:
149,170,55267,1,2,0:0:0:0:
218,204,55410,1,8,0:0:0:0:
210,280,55553,1,0,0:0:0:0:
152,334,55695,2,0,L|77:339,1,70,2|2,0:0|0:0,0:0:0:0:
136,256,55981,2,0,L|61:261,1,70,8|0,0:0|0:0,0:0:0:0:
117,176,56267,6,0,L|42:181,1,70,2|8,0:0|0:0,0:0:0:0:
38,174,56481,1,8,0:0:0:0:
29,167,56552,2,0,P|21:124|27:100,1,70,8|8,0:0|0:0,0:0:0:0:
108,93,56838,2,0,P|132:56|153:44,1,70,2|2,0:0|0:0,0:0:0:0:
192,126,57124,1,2,0:0:0:0:
192,126,57267,1,0,0:0:0:0:
192,126,57410,6,0,L|181:206,1,70,6|2,0:0|0:0,0:0:0:0:
114,244,57695,2,0,P|201:278|238:259,1,140,8|2,0:0|0:0,0:0:0:0:
324,275,58124,1,2,0:0:0:0:
324,275,58267,2,0,B|316:218|316:218|297:200|297:200|290:144,1,140,8|2,0:0|0:0,0:0:0:0:
313,59,58695,5,2,0:0:0:0:
313,59,58838,2,0,P|278:55|245:67,1,70,8|2,0:0|0:0,0:0:0:0:
376,122,59124,2,0,P|396:93|402:59,1,70,0|2,0:0|0:0,0:0:0:0:
290,144,59410,2,0,P|269:172|262:206,1,70,8|0,0:0|0:0,0:0:0:0:
176,226,59695,6,0,P|189:258|215:281,1,70,6|2,0:0|0:0,0:0:0:0:
182,144,59981,2,0,P|147:148|118:168,1,70,8|0,0:0|0:0,0:0:0:0:
77,245,60267,1,2,0:0:0:0:
32,169,60410,2,0,L|37:96,2,70,2|8|0,0:0|0:0|0:0,0:0:0:0:
77,245,60838,6,0,L|72:314,1,70,2|2,0:0|0:0,0:0:0:0:
118,167,61124,2,0,L|122:97,1,70,8|2,0:0|0:0,0:0:0:0:
161,247,61410,2,0,L|156:316,1,70,2|8,0:0|0:0,0:0:0:0:
163,326,61624,1,8,0:0:0:0:
171,334,61695,2,0,P|211:366|231:371,1,70,2|8,0:0|0:0,0:0:0:0:
241,286,61981,6,0,P|291:280|309:269,1,70,6|2,0:0|0:0,0:0:0:0:
386,195,62267,2,0,L|246:181,1,140,8|2,0:0|0:0,0:0:0:0:
162,176,62695,1,2,0:0:0:0:
162,176,62838,2,0,P|164:77|184:44,1,140,8|2,0:0|0:0,0:0:0:0:
258,97,63267,5,2,0:0:0:0:
258,97,63410,2,0,P|344:49|383:50,1,140,8|0,0:0|0:0,0:0:0:0:
445,107,63838,1,2,0:0:0:0:
445,107,63981,2,0,L|438:178,1,70,8|0,0:0|0:0,0:0:0:0:
465,257,64267,6,0,P|420:262|392:249,1,70,6|2,0:0|0:0,0:0:0:0:
315,237,64552,2,0,P|312:271|328:302,1,70,8|0,0:0|0:0,0:0:0:0:
369,170,64838,1,2,0:0:0:0:
285,159,64981,2,0,P|254:174|234:203,2,70,2|8|0,0:0|0:0|0:0,0:0:0:0:
332,88,65410,6,0,P|300:73|265:76,1,70,2|8,0:0|0:0,0:0:0:0:
255,81,65624,1,8,0:0:0:0:
244,87,65695,2,0,P|210:93|176:81,1,70,8|8,0:0|0:0,0:0:0:0:
94,35,65981,2,0,L|106:179,2,140,8|0|4,0:0|0:0|0:0,0:0:0:0:
