osu file format v14

[General]
AudioFilename: audio.mp3
AudioLeadIn: 0
PreviewTime: 53456
Countdown: 0
SampleSet: Soft
StackLeniency: 0.4
Mode: 0
LetterboxInBreaks: 0
WidescreenStoryboard: 1

[Editor]
Bookmarks: 89070
DistanceSpacing: 1
BeatDivisor: 4
GridSize: 32
TimelineZoom: 1

[Metadata]
Title:Koko ni Aru Yakusoku (TV Size)
TitleUnicode:ここにある約束 (TV Size)
Artist:ayaho + Soga Junichi
ArtistUnicode:ayaho+曽我淳一
Creator:sanairrt
Version:Normal
Source:であいもん
Tags:Deaimon leominexd leomine japanese jpop pop j-pop anime ed ending The Promise Here
BeatmapID:3618129
BeatmapSetID:1767397

[Difficulty]
HPDrainRate:4
CircleSize:3.5
OverallDifficulty:4
ApproachRate:5
SliderMultiplier:1
SliderTickRate:1

[Events]
//Background and Video events
0,0,"FOwKXdbaQAwg9dL.jpg",0,0
//Break Periods
//Storyboard Layer 0 (Background)
//Storyboard Layer 1 (Fail)
//Storyboard Layer 2 (Pass)
//Storyboard Layer 3 (Foreground)
//Storyboard Layer 4 (Overlay)
//Storyboard Sound Samples

[TimingPoints]
1406,359.281437125748,4,2,1,55,1,0
5717,-100,4,2,1,65,0,0
6974,-100,4,2,1,70,0,0
11465,-100,4,2,1,60,0,0
12903,-100,4,2,1,70,0,0
15777,-100,4,2,2,65,0,0
25837,-100,4,2,1,65,0,0
26735,-100,4,2,1,60,0,0
27274,-100,4,2,1,70,0,0
38771,-100,4,2,1,65,0,0
47394,-100,4,2,1,70,0,0
51705,-100,4,2,1,78,0,0
52423,-100,4,2,1,80,0,0
53501,-100,4,2,1,75,0,0
54579,-100,4,2,1,85,0,0
77573,-100,4,2,1,75,0,0
86196,-100,4,2,1,70,0,0
87453,-100,4,2,1,75,0,0
87633,-100,4,2,1,5,0,0
89070,-100,4,2,1,20,0,0

[Colours]
Combo1 : 255,255,79
Combo2 : 255,128,128
Combo3 : 193,97,0

[HitObjects]
91,303,1406,6,0,P|71:222|160:241,1,200,2|0,2:2|2:2,0:0:0:0:
310,361,2843,2,0,P|325:250|342:153,1,200,2|0,2:2|2:2,0:0:0:0:
190,29,4280,2,0,B|135:7|81:32|108:59|46:85|-13:49,2,200,2|0|8,2:2|2:2|2:2,0:0:0:0:
250,108,6076,1,12,2:2:0:0:
329,47,6435,2,0,P|375:56|430:67,1,100,2|10,3:2|2:2,0:0:0:0:
476,76,6974,6,0,P|497:118|477:178,1,100,4|2,1:2|1:2,0:0:0:0:
450,204,7513,1,8,2:2:0:0:
354,172,7873,2,0,P|322:178|234:197,1,100,2|10,1:2|2:2,0:0:0:0:
206,197,8411,2,0,B|195:234|195:234|200:249|200:249|181:312,1,100,4|2,1:2|1:2,0:0:0:0:
173,340,8950,1,8,2:2:0:0:
91,282,9310,2,0,P|63:289|30:298,2,50,0|2|8,1:1|1:2|2:2,0:0:0:0:
173,340,10028,6,0,B|229:357|229:357|263:333,1,100,4|10,1:2|2:2,0:0:0:0:
346,277,10747,2,0,P|350:301|355:326,2,50,0|2|2,1:1|3:2|3:2,0:0:0:0:
325,179,11465,1,4,1:2:0:0:
325,179,12903,6,0,P|365:187|414:198,2,75,4|0|0,1:2|0:0|1:1,0:0:0:0:
297,137,13621,1,14,2:2:0:0:
226,207,13980,1,2,2:2:0:0:
161,130,14340,2,0,P|170:87|179:44,2,75,8|0|0,2:2|3:3|3:3,0:0:0:0:
120,159,15058,1,8,2:2:0:0:
203,340,15777,6,0,B|162:306|162:306|122:322|72:342,2,150,4|2|10,1:2|1:2|2:2,0:0:0:0:
296,304,17214,2,0,P|319:250|281:155,2,150,2|2|10,1:2|1:2|2:2,0:0:0:0:
203,340,18651,1,2,1:2:0:0:
104,320,19010,2,0,P|98:289|91:255,1,50,10|2,2:2|1:2,0:0:0:0:
55,238,19370,2,0,P|103:229|167:219,1,100,10|8,2:2|2:2,0:0:0:0:
236,165,20088,2,0,P|241:192|249:237,2,50,0|0|8,1:1|0:0|2:2,0:0:0:0:
274,132,20627,1,2,1:2:0:0:
274,132,20807,2,0,P|303:122|332:115,2,50,10|2|10,2:2|2:2|2:2,0:0:0:0:
199,65,21525,6,0,P|143:47|68:112,2,150,2|2|10,1:2|1:2|2:2,0:0:0:0:
274,132,22962,2,0,P|265:173|251:248,1,100,2|10,1:2|2:2,0:0:0:0:
269,282,23501,1,2,1:2:0:0:
269,282,23681,2,0,P|219:274|180:313,1,100,10|10,2:2|2:2,0:0:0:0:
87,333,24400,2,0,P|78:293|69:263,1,50,0|0,1:1|0:0,0:0:0:0:
47,242,24759,2,0,P|13:252|-24:258,2,50,8|2|10,2:2|1:2|2:2,0:0:0:0:
79,204,25298,1,0,0:0:0:0:
79,204,25477,1,8,2:2:0:0:
166,252,25837,1,2,1:2:0:0:
487,117,27274,6,0,P|440:109|373:98,1,100,4|10,1:2|2:2,0:0:0:0:
357,61,27813,2,0,P|307:69|258:77,1,100,2|0,2:2|1:1,0:0:0:0:
232,120,28352,1,2,2:2:0:0:
143,74,28711,2,0,P|150:40|157:8,2,50,2|0|10,2:2|1:1|2:2,0:0:0:0:
105,107,29250,2,0,P|76:146|94:210,1,100,2|0,2:2|1:1,0:0:0:0:
107,237,29789,1,10,2:2:0:0:
194,187,30148,6,0,P|243:195|304:209,1,100,2|10,1:2|2:2,0:0:0:0:
353,285,30867,2,0,P|402:276|463:263,1,100,2|2,1:2|2:2,0:0:0:0:
504,276,31405,1,10,2:2:0:0:
504,276,31585,2,0,P|521:237|494:173,1,100,2|8,2:2|2:2,0:0:0:0:
440,107,32304,2,0,P|444:82|449:57,2,50,2|2|10,1:2|1:2|2:2,0:0:0:0:
361,170,33022,6,0,P|327:148|263:159,1,100,4|8,1:2|2:2,0:0:0:0:
264,204,33561,2,0,P|230:226|166:215,1,100,2|0,2:2|1:1,0:0:0:0:
128,195,34100,1,2,2:2:0:0:
57,266,34459,2,0,P|66:309|78:364,1,100,2|10,2:2|2:2,0:0:0:0:
165,314,35178,1,2,1:2:0:0:
262,336,35537,2,0,P|292:328|332:321,1,50,10|2,2:2|2:2,0:0:0:0:
332,278,35897,5,2,1:2:0:0:
263,204,36256,1,8,2:2:0:0:
327,126,36615,2,0,L|389:138,2,50,2|2|8,1:2|3:2|2:2,0:0:0:0:
291,91,37154,2,0,P|240:99|169:112,1,100,4|0,1:2|1:1,0:0:0:0:
152,76,37693,1,10,2:2:0:0:
82,148,38052,2,0,P|105:190|95:249,1,100,8|0,2:2|3:3,0:0:0:0:
71,282,38591,1,2,3:2:0:0:
71,282,38771,6,0,P|127:290|190:302,1,100,4|0,1:2|0:0,0:0:0:0:
237,225,39489,2,0,P|286:216|335:208,1,100,8|2,2:2|2:2,0:0:0:0:
385,201,40028,2,0,P|411:235|393:303,1,100,2|10,1:2|2:2,0:0:0:0:
371,327,40567,2,0,L|387:385,2,50,2|0|8,2:2|1:1|2:2,0:0:0:0:
286,273,41286,1,10,2:2:0:0:
210,338,41645,6,0,P|173:308|113:321,1,100,4|2,1:2|2:2,0:0:0:0:
78,327,42184,1,2,1:2:0:0:
78,327,42364,2,0,P|70:269|64:214,1,100,8|0,2:2|0:0,0:0:0:0:
29,192,42903,1,2,1:2:0:0:
81,110,43262,2,0,P|126:134|186:114,1,100,10|2,2:2|1:2,0:0:0:0:
215,99,43801,2,0,L|205:49,2,50,10|2|8,2:2|1:2|2:2,0:0:0:0:
296,156,44519,6,0,P|270:194|281:265,1,100,4|0,1:2|0:0,0:0:0:0:
258,345,45238,2,0,P|304:335|362:323,1,100,8|2,2:2|2:2,0:0:0:0:
405,329,45777,2,0,B|414:282|414:282|408:269|408:269|416:210,1,100,2|10,1:2|2:2,0:0:0:0:
423,182,46316,2,0,L|490:192,2,50,2|0|8,2:2|1:1|2:2,0:0:0:0:
367,99,47034,2,0,P|342:105|307:115,1,50,10|8,2:2|2:2,0:0:0:0:
296,156,47394,5,4,1:2:0:0:
225,84,47753,1,10,2:2:0:0:
149,149,48112,1,2,1:2:0:0:
78,77,48471,1,10,2:2:0:0:
28,163,48831,2,0,P|38:212|46:285,1,100,2|8,1:2|2:2,0:0:0:0:
129,314,49549,2,0,L|141:253,1,50,2|2,1:2|1:2,0:0:0:0:
186,249,49908,2,0,L|174:188,1,50,10|0,2:2|0:0,0:0:0:0:
187,150,50268,6,0,P|223:122|289:137,1,100,4|10,1:2|2:2,0:0:0:0:
369,174,50986,1,2,1:2:0:0:
449,114,51345,1,10,2:2:0:0:
512,189,51705,2,0,P|497:221|487:295,1,100,4|8,1:2|2:2,0:0:0:0:
437,371,52423,2,0,P|467:378|495:388,2,50,10|8|8,2:2|2:2|2:2,0:0:0:0:
403,333,52962,1,8,2:2:0:0:
274,179,53861,6,0,B|228:213|228:213|256:316,1,150,6|0,1:2|0:0,0:0:0:0:
297,324,54579,5,4,1:2:0:0:
395,337,54938,1,10,2:2:0:0:
457,254,55298,2,0,P|451:224|445:192,1,50,2|0,1:2|1:1,0:0:0:0:
465,158,55657,1,10,2:2:0:0:
391,90,56016,1,2,1:2:0:0:
321,162,56376,1,10,2:2:0:0:
238,105,56735,2,0,P|243:76|253:35,1,50,2|0,1:2|1:1,0:0:0:0:
214,18,57094,1,10,2:2:0:0:
126,66,57453,6,0,P|98:94|98:168,1,100,2|10,1:2|2:2,0:0:0:0:
127,193,57992,1,2,2:2:0:0:
127,193,58172,2,0,P|178:193|248:202,1,100,0|10,1:1|2:2,0:0:0:0:
298,128,58891,2,0,P|314:83|295:25,1,100,0|8,1:1|2:2,0:0:0:0:
267,14,59429,1,2,2:2:0:0:
267,14,59609,2,0,P|203:27|153:38,1,100,2|10,1:2|2:2,0:0:0:0:
121,18,60148,6,0,P|112:59|97:135,1,100,4|2,1:2|1:2,0:0:0:0:
128,157,60687,1,8,2:2:0:0:
98,252,61046,2,0,P|151:240|216:229,1,100,2|10,1:2|2:2,0:0:0:0:
228,193,61585,2,0,P|277:202|326:212,1,100,4|2,1:2|1:2,0:0:0:0:
367,191,62124,1,8,2:2:0:0:
445,258,62483,2,0,P|449:227|457:205,2,50,0|2|10,1:1|1:2|2:2,0:0:0:0:
417,298,63022,1,2,2:2:0:0:
417,298,63202,6,0,P|385:300|309:316,1,100,0|8,1:1|2:2,0:0:0:0:
224,345,63920,2,0,P|217:313|209:276,1,50,2|0,1:2|1:1,0:0:0:0:
201,247,64280,1,10,2:2:0:0:
259,166,64639,1,10,3:2:0:0:
183,108,64998,2,0,P|136:118|73:132,1,100,12|0,0:2|1:1,0:0:0:0:
36,118,65537,1,2,3:2:0:0:
36,118,65717,2,0,P|30:141|21:184,1,50,10|10,2:2|2:2,0:0:0:0:
51,209,66076,6,0,P|55:247|61:314,1,100,4|10,1:2|2:2,0:0:0:0:
147,358,66795,2,0,L|208:343,1,50,2|0,1:2|1:1,0:0:0:0:
245,353,67154,1,10,2:2:0:0:
310,277,67513,1,2,1:2:0:0:
395,328,67873,1,10,2:2:0:0:
469,261,68232,2,0,L|456:205,1,50,2|0,1:2|1:1,0:0:0:0:
419,179,68591,1,10,2:2:0:0:
379,87,68950,6,0,P|348:94|272:111,1,100,2|10,1:2|2:2,0:0:0:0:
278,158,69489,2,0,P|247:151|164:137,1,100,2|2,2:2|1:2,0:0:0:0:
156,103,70028,1,10,2:2:0:0:
66,57,70388,2,0,P|43:86|32:154,1,100,0|12,1:1|2:2,0:0:0:0:
51,196,70926,1,0,0:0:0:0:
51,196,71106,2,0,P|21:205|-10:232,2,50,2|0|10,1:2|3:3|2:2,0:0:0:0:
83,232,71645,6,0,B|122:224|122:224|135:208|135:208|182:199,1,100,4|2,1:2|1:2,0:0:0:0:
208,230,72184,1,8,2:2:0:0:
254,141,72543,2,0,P|235:101|259:40,1,100,2|10,1:2|2:2,0:0:0:0:
279,23,73082,2,0,P|330:33|380:45,1,100,4|2,1:2|1:2,0:0:0:0:
409,15,73621,1,8,2:2:0:0:
494,66,73980,2,0,P|500:36|506:12,2,50,0|2|10,1:1|1:2|2:2,0:0:0:0:
463,106,74519,1,2,2:2:0:0:
463,106,74699,6,0,P|432:147|447:211,1,100,0|8,1:1|2:2,0:0:0:0:
470,287,75417,2,0,L|458:346,1,50,2|0,1:2|1:1,0:0:0:0:
446,384,75777,1,10,2:2:0:0:
376,312,76136,1,10,3:2:0:0:
291,362,76495,2,0,P|248:352|179:337,1,100,12|2,0:2|1:2,0:0:0:0:
147,359,77034,1,0,3:3:0:0:
147,359,77214,2,0,L|133:294,1,50,2|0,3:2|1:1,0:0:0:0:
123,261,77573,5,4,1:2:0:0:
199,196,77932,1,10,2:2:0:0:
278,256,78292,2,0,P|325:278|383:263,1,100,2|10,1:2|2:2,0:0:0:0:
437,195,79010,2,0,P|426:132|418:79,1,100,2|10,1:2|2:2,0:0:0:0:
383,62,79549,2,0,B|329:57|336:84|274:76,1,100,2|2,2:2|1:2,0:0:0:0:
250,41,80088,1,10,2:2:0:0:
176,109,80447,6,0,P|152:153|168:211,1,100,4|10,1:2|2:2,0:0:0:0:
148,299,81166,2,0,P|193:287|247:275,1,100,2|10,1:2|2:2,0:0:0:0:
275,235,81705,1,0,0:0:0:0:
275,235,81885,2,0,P|323:246|372:258,1,100,2|10,1:2|2:2,0:0:0:0:
415,231,82423,1,2,2:2:0:0:
415,231,82603,2,0,P|423:198|431:163,1,50,0|2,1:1|1:2,0:0:0:0:
410,134,82962,1,12,2:2:0:0:
347,55,83322,6,0,P|312:81|251:73,1,100,4|10,1:2|2:2,0:0:0:0:
222,41,83861,1,2,2:2:0:0:
222,41,84040,2,0,L|157:55,1,50,0|2,1:1|3:2,0:0:0:0:
135,85,84400,1,2,3:2:0:0:
66,17,84759,1,10,2:2:0:0:
100,235,86196,6,0,P|153:222|215:212,1,100,4|10,1:2|2:2,0:0:0:0:
243,233,86735,2,0,P|260:194|240:133,1,100,4|0,1:2|3:3,0:0:0:0:
211,104,87274,1,0,3:3:0:0:
211,104,87453,1,4,1:2:0:0:
256,192,87633,12,0,89070,0:0:0:0:
