osu file format v14

[General]
AudioFilename: audio.mp3
AudioLeadIn: 0
PreviewTime: 53456
Countdown: 0
SampleSet: Soft
StackLeniency: 0.4
Mode: 0
LetterboxInBreaks: 0
WidescreenStoryboard: 1

[Editor]
Bookmarks: 89070
DistanceSpacing: 1.4
BeatDivisor: 4
GridSize: 32
TimelineZoom: 1

[Metadata]
Title:Koko ni Aru Yakusoku (TV Size)
TitleUnicode:ここにある約束 (TV Size)
Artist:ayaho + Soga Junichi
ArtistUnicode:ayaho+曽我淳一
Creator:sanairrt
Version:Hard
Source:であいもん
Tags:Deaimon leominexd leomine japanese jpop pop j-pop anime ed ending The Promise Here
BeatmapID:3618128
BeatmapSetID:1767397

[Difficulty]
HPDrainRate:5
CircleSize:3.8
OverallDifficulty:6
ApproachRate:7.5
SliderMultiplier:1.47
SliderTickRate:1

[Events]
//Background and Video events
0,0,"FOwKXdbaQAwg9dL.jpg",0,0
//Break Periods
//Storyboard Layer 0 (Background)
//Storyboard Layer 1 (Fail)
//Storyboard Layer 2 (Pass)
//Storyboard Layer 3 (Foreground)
//Storyboard Layer 4 (Overlay)
//Storyboard Sound Samples

[TimingPoints]
1406,359.281437125748,4,2,1,55,1,0
1406,-142.857142857143,4,2,1,55,0,0
5717,-142.857142857143,4,2,1,65,0,0
6974,-111.111111111111,4,2,1,70,0,0
11465,-166.666666666666,4,2,1,60,0,0
12903,-125,4,2,1,70,0,0
15777,-142.857142857143,4,2,2,65,0,0
25837,-142.857142857143,4,2,1,65,0,0
26735,-142.857142857143,4,2,1,60,0,0
27274,-111.111111111111,4,2,1,70,0,0
38771,-125,4,2,1,65,0,0
47394,-100,4,2,1,70,0,0
51705,-100,4,2,1,78,0,0
52423,-100,4,2,1,80,0,0
53501,-100,4,2,1,75,0,0
53861,-125,4,2,1,75,0,0
54579,-90.9090909090909,4,2,1,85,0,0
77573,-100,4,2,1,75,0,0
86196,-100,4,2,1,70,0,0
87453,-166.666666666667,4,2,1,75,0,0
87633,-166.666666666667,4,2,1,5,0,0
89070,-166.666666666667,4,2,1,5,0,0

[Colours]
Combo1 : 255,255,79
Combo2 : 255,128,128
Combo3 : 193,97,0

[HitObjects]
134,191,1406,6,0,P|125:132|116:70,2,102.899996859741,2|0|0,2:2|2:2|2:2,0:0:0:0:
134,191,2483,1,2,2:2:0:0:
246,311,2843,6,0,B|276:285|276:285|359:305,1,102.899996859741,2|0,2:2|2:2,0:0:0:0:
434,167,3561,2,0,B|404:193|404:193|321:173,1,102.899996859741,2|0,2:2|2:2,0:0:0:0:
254,38,4280,6,0,P|245:73|230:151,1,102.899996859741,2|0,2:2|2:2,0:0:0:0:
168,191,4819,1,2,2:2:0:0:
168,191,4998,2,0,P|176:226|192:304,1,102.899996859741,2|0,2:2|2:2,0:0:0:0:
329,384,5717,5,8,2:2:0:0:
329,384,5897,1,0,1:1:0:0:
381,321,6076,2,0,P|394:280|372:228,1,77.174997644806,12|0,2:2|0:0,0:0:0:0:
365,211,6435,2,0,L|326:222,3,25.7249992149353,2|0|0|8,3:2|3:3|3:3|2:2,0:0:0:0:
303,198,6795,1,10,2:2:0:0:
227,271,6974,6,0,B|143:247|143:247|124:268|92:303,1,132.299995962525,4|2,1:2|1:2,0:0:0:0:
24,221,7513,2,0,P|32:182|44:135,1,66.1499979812623,8|2,2:2|2:2,0:0:0:0:
36,148,7783,1,0,0:0:0:0:
33,141,7873,1,2,1:2:0:0:
115,74,8052,1,0,1:1:0:0:
194,144,8232,1,10,2:2:0:0:
286,75,8411,6,0,P|322:115|316:199,1,132.299995962525,4|2,1:2|1:2,0:0:0:0:
346,292,8950,2,0,P|310:285|260:276,1,66.1499979812623,8|2,2:2|2:2,0:0:0:0:
192,194,9310,2,0,P|186:226|179:258,1,66.1499979812623,0|2,1:1|1:2,0:0:0:0:
137,367,9669,2,0,P|113:341|44:353,1,99.2249969718934,8|0,2:2|0:0,0:0:0:0:
26,379,10028,6,0,P|19:343|8:293,1,66.1499979812623,4|2,1:2|2:2,0:0:0:0:
10,210,10388,2,0,B|89:183|89:183|112:204|135:226,1,132.299995962525,10|0,2:2|1:1,0:0:0:0:
201,289,10926,1,2,3:2:0:0:
275,213,11106,1,2,3:2:0:0:
275,213,11465,6,0,P|341:249|316:105,1,330.749989906311,4|0,1:2|0:0,0:0:0:0:
271,122,12903,6,0,P|218:111|159:101,2,88.2,4|0|0,1:2|0:0|1:1,0:0:0:0:
331,194,13621,2,0,P|384:183|443:173,2,88.2,14|0|0,2:2|0:0|0:0,0:0:0:0:
236,251,14340,2,0,P|225:304|215:363,2,88.2,8|0|0,2:2|3:3|3:3,0:0:0:0:
308,336,15058,1,8,2:2:0:0:
308,336,15777,6,0,P|314:303|322:267,2,51.4499984298707,4|0|8,1:2|0:0|2:2,0:0:0:0:
230,365,16316,2,0,P|178:353|120:342,1,102.899996859741,2|0,1:2|0:0,0:0:0:0:
81,276,16855,1,10,2:2:0:0:
25,146,17214,5,2,1:2:0:0:
25,146,17394,2,0,P|61:138|75:134,1,51.4499984298707,0|8,0:0|2:2,0:0:0:0:
157,174,17753,2,0,P|198:207|256:202,1,102.899996859741,2|0,1:2|0:0,0:0:0:0:
313,158,18292,2,0,P|306:113|301:75,1,77.174997644806,10|0,2:2|0:0,0:0:0:0:
293,41,18651,6,0,B|242:46|242:46|237:51|237:51|177:58,1,102.899996859741,2|10,1:2|2:2,0:0:0:0:
119,31,19190,1,2,1:2:0:0:
119,31,19370,2,0,P|148:68|139:137,1,102.899996859741,10|8,2:2|2:2,0:0:0:0:
95,186,19908,1,2,2:2:0:0:
159,263,20088,5,0,1:1:0:0:
159,263,20268,2,0,P|189:245|276:254,1,102.899996859741,0|2,0:0|1:2,0:0:0:0:
337,249,20807,2,0,P|331:271|321:312,2,51.4499984298707,10|2|10,2:2|2:2|2:2,0:0:0:0:
469,151,21525,6,0,P|426:144|358:134,1,102.899996859741,2|8,1:2|2:2,0:0:0:0:
311,74,22064,2,0,P|260:81|209:89,1,102.899996859741,2|2,1:2|2:2,0:0:0:0:
145,140,22603,1,10,2:2:0:0:
246,233,22962,6,0,P|271:279|241:341,1,102.899996859741,2|10,1:2|2:2,0:0:0:0:
184,369,23501,1,2,1:2:0:0:
184,369,23681,2,0,P|136:361|70:352,1,102.899996859741,10|10,2:2|2:2,0:0:0:0:
8,212,24400,6,0,P|20:155|33:102,1,102.899996859741,0|8,1:1|2:2,0:0:0:0:
94,59,24938,1,2,1:2:0:0:
94,59,25118,2,0,P|125:64|164:72,1,51.4499984298707,10|0,2:2|0:0,0:0:0:0:
208,121,25477,2,0,P|233:116|258:112,1,51.4499984298707,8|0,2:2|0:0,0:0:0:0:
298,34,25837,1,2,1:2:0:0:
455,59,26735,5,0,3:3:0:0:
455,59,26914,2,0,P|446:93|434:153,1,77.174997644806,0|0,3:3|0:0,0:0:0:0:
417,161,27274,6,0,B|349:147|351:188|277:172,1,132.299995962525,4|10,1:2|2:2,0:0:0:0:
225,105,27813,2,0,B|181:141|181:141|206:234,1,132.299995962525,2|0,2:2|1:1,0:0:0:0:
251,291,28352,2,0,P|258:325|247:361,1,66.1499979812623,2|8,2:2|2:2,0:0:0:0:
166,320,28711,6,0,P|132:314|84:307,2,66.1499979812623,2|0|10,2:2|1:1|2:2,0:0:0:0:
251,291,29250,1,2,2:2:0:0:
311,357,29429,2,0,P|349:349|387:342,1,66.1499979812623,0|0,1:1|1:1,0:0:0:0:
443,285,29789,2,0,P|456:236|426:187,1,99.2249969718934,10|0,2:2|0:0,0:0:0:0:
396,168,30148,6,0,P|329:181|251:196,2,132.299995962525,2|10|2,1:2|2:2|1:2,0:0:0:0:
454,96,31046,1,0,1:1:0:0:
370,54,31226,2,0,P|364:14|371:-19,1,66.1499979812623,2|10,2:2|2:2,0:0:0:0:
454,96,31585,6,0,B|442:150|442:150|450:170|450:170|437:240,1,132.299995962525,2|8,2:2|2:2,0:0:0:0:
370,286,32124,1,0,0:0:0:0:
441,345,32304,2,0,P|477:336|515:329,1,66.1499979812623,2|2,1:2|1:2,0:0:0:0:
370,286,32663,2,0,P|326:265|264:296,1,99.2249969718934,10|0,2:2|0:0,0:0:0:0:
247,312,33022,6,0,P|236:238|225:174,1,132.299995962525,4|8,1:2|2:2,0:0:0:0:
276,102,33561,1,2,2:2:0:0:
206,40,33741,2,0,P|169:47|133:54,1,66.1499979812623,0|0,1:1|1:1,0:0:0:0:
276,102,34100,2,0,P|313:109|349:116,1,66.1499979812623,2|10,2:2|2:2,0:0:0:0:
425,152,34459,6,0,P|407:178|403:226,1,66.1499979812623,2|0,2:2|1:1,0:0:0:0:
325,282,34819,2,0,P|318:250|309:213,1,66.1499979812623,10|0,2:2|0:0,0:0:0:0:
247,148,35178,1,2,1:2:0:0:
247,148,35358,1,0,1:1:0:0:
195,224,35537,2,0,P|149:215|78:204,1,99.2249969718934,10|0,2:2|0:0,0:0:0:0:
50,203,35897,6,0,P|9:258|47:335,2,132.299995962525,2|8|2,1:2|2:2|1:2,0:0:0:0:
140,169,36795,1,2,3:2:0:0:
203,236,36974,1,8,2:2:0:0:
280,163,37154,6,0,B|356:188|356:188|376:168|406:144,1,132.299995962525,4|0,1:2|1:1,0:0:0:0:
467,211,37693,2,0,L|453:290,1,66.1499979812623,10|2,2:2|2:2,0:0:0:0:
452,284,37962,1,8,2:2:0:0:
447,292,38052,1,8,2:2:0:0:
367,243,38232,1,0,3:3:0:0:
299,305,38411,2,0,P|265:299|218:290,1,66.1499979812623,0|2,3:3|3:2,0:0:0:0:
166,245,38771,6,0,B|197:206|197:206|173:130,1,117.6,4|0,1:2|0:0,0:0:0:0:
107,96,39310,1,0,1:1:0:0:
155,29,39489,2,0,B|211:33|211:33|224:46|224:46|289:52,1,117.6,8|2,2:2|2:2,0:0:0:0:
342,16,40028,6,0,P|351:68|365:145,1,117.6,2|10,1:2|2:2,0:0:0:0:
333,214,40567,2,0,P|308:199|258:204,1,58.8,2|0,2:2|1:1,0:0:0:0:
219,253,40926,1,8,2:2:0:0:
219,253,41106,1,2,1:2:0:0:
146,187,41286,2,0,P|168:152|144:92,1,88.2,10|0,2:2|0:0,0:0:0:0:
129,79,41645,6,0,B|58:60|58:60|29:90|54:123,1,117.6,4|2,1:2|2:2,0:0:0:0:
61,180,42184,1,2,1:2:0:0:
15,249,42364,2,0,P|-5:303|16:374,1,117.6,8|0,2:2|0:0,0:0:0:0:
88,349,42903,6,0,B|129:337|168:325|168:325|211:363,2,117.6,2|10|2,1:2|2:2|1:2,0:0:0:0:
31,288,43801,2,0,P|38:253|48:206,1,58.8,10|2,2:2|1:2,0:0:0:0:
74,140,44160,1,8,2:2:0:0:
74,140,44519,6,0,B|139:125|128:164|215:140,1,117.6,4|0,1:2|0:0,0:0:0:0:
248,88,45058,1,0,1:1:0:0:
322,123,45238,2,0,P|311:171|295:248,1,117.6,8|2,2:2|2:2,0:0:0:0:
355,301,45777,6,0,B|323:333|323:333|232:309,1,117.6,2|10,1:2|2:2,0:0:0:0:
176,362,46316,2,0,P|170:329|164:301,1,58.8,2|0,2:2|1:1,0:0:0:0:
92,258,46675,1,8,2:2:0:0:
92,258,46855,1,0,1:1:0:0:
147,181,47034,2,0,P|179:186|224:192,1,58.8,10|8,2:2|2:2,0:0:0:0:
212,196,47304,1,8,2:2:0:0:
217,201,47394,6,0,B|235:127|235:127|191:98|191:52,1,147,4|10,1:2|2:2,0:0:0:0:
290,39,47932,1,2,2:2:0:0:
364,110,48112,2,0,P|422:97|470:88,1,73.5,2|0,1:2|1:1,0:0:0:0:
290,39,48471,2,0,P|232:26|184:17,1,73.5,10|0,2:2|0:0,0:0:0:0:
125,69,48831,6,0,B|156:107|156:107|140:145|112:215,1,147,2|8,1:2|2:2,0:0:0:0:
178,281,49370,1,0,0:0:0:0:
99,347,49549,2,0,P|72:327|21:331,1,73.5,2|2,1:2|1:2,0:0:0:0:
178,281,49908,2,0,P|239:271|303:261,1,110.25,10|0,2:2|0:0,0:0:0:0:
332,238,50268,6,0,B|306:324|306:324|351:372,2,147,4|10|2,1:2|2:2|1:2,0:0:0:0:
421,186,51166,1,0,1:1:0:0:
356,105,51346,2,0,P|319:113|264:125,1,73.5,10|0,2:2|0:0,0:0:0:0:
217,198,51705,6,0,P|165:188|82:172,1,110.25,4|0,1:2|0:0,0:0:0:0:
61,197,52064,2,0,P|55:162|46:113,1,73.5,8|2,2:2|3:2,0:0:0:0:
45,118,52334,1,0,3:3:0:0:
40,112,52423,1,10,2:2:0:0:
113,40,52603,1,8,2:2:0:0:
192,105,52783,1,8,2:2:0:0:
265,33,52963,1,8,2:2:0:0:
265,33,53861,6,0,P|348:10|334:108,1,205.8,6|0,1:2|0:0,0:0:0:0:
311,131,54579,6,0,P|321:184|336:259,1,121.275003701019,4|0,1:2|0:0,0:0:0:0:
345,305,54938,2,0,P|294:295|235:285,1,80.8500024673463,10|0,2:2|0:0,0:0:0:0:
197,208,55298,1,2,1:2:0:0:
197,208,55477,1,0,1:1:0:0:
121,280,55657,2,0,P|100:317|112:377,1,80.8500024673463,10|0,2:2|0:0,0:0:0:0:
197,208,56016,6,0,P|187:164|176:120,1,80.8500024673463,2|0,1:2|0:0,0:0:0:0:
116,43,56376,2,0,P|160:33|204:22,1,80.8500024673463,10|0,2:2|0:0,0:0:0:0:
276,90,56735,1,2,1:2:0:0:
276,90,56914,1,0,1:1:0:0:
362,29,57094,2,0,P|381:68|372:127,1,80.8500024673463,10|0,2:2|0:0,0:0:0:0:
456,177,57453,6,0,B|425:140|425:140|381:152|311:172,1,161.700004934693,2|10,1:2|2:2,0:0:0:0:
235,102,57992,1,2,2:2:0:0:
164,179,58172,1,0,1:1:0:0:
164,179,58352,1,2,1:2:0:0:
81,114,58531,2,0,P|90:74|100:35,1,80.8500024673463,10|0,2:2|0:0,0:0:0:0:
164,179,58891,6,0,P|212:227|179:318,1,161.700004934693,0|8,1:1|2:2,0:0:0:0:
111,380,59429,1,2,2:2:0:0:
57,289,59609,2,0,P|21:275|-27:289,2,80.8500024673463,2|0|10,1:2|1:1|2:2,0:0:0:0:
111,380,60148,6,0,B|173:363|173:363|190:331|190:331|270:311,1,161.700004934693,4|2,1:2|1:2,0:0:0:0:
342,365,60687,2,0,P|350:316|359:268,1,80.8500024673463,8|2,2:2|2:2,0:0:0:0:
352,279,60956,1,0,0:0:0:0:
348,272,61046,1,2,1:2:0:0:
424,199,61226,1,0,1:1:0:0:
353,121,61405,1,10,2:2:0:0:
444,69,61585,6,0,P|395:77|274:97,1,161.700004934693,4|2,1:2|1:2,0:0:0:0:
200,31,62124,2,0,P|181:70|185:125,1,80.8500024673463,8|0,2:2|0:0,0:0:0:0:
87,157,62483,2,0,P|106:196|102:251,1,80.8500024673463,0|2,1:1|1:2,0:0:0:0:
177,311,62843,1,10,2:2:0:0:
177,311,63022,1,2,2:2:0:0:
249,235,63202,6,0,P|295:243|351:256,1,80.8500024673463,0|0,1:1|0:0,0:0:0:0:
385,338,63561,2,0,P|424:329|464:322,1,80.8500024673463,8|2,2:2|2:2,0:0:0:0:
512,232,63920,1,2,1:2:0:0:
512,232,64100,1,0,1:1:0:0:
420,190,64280,1,10,2:2:0:0:
420,190,64459,1,0,1:0:0:0:
328,250,64639,5,10,3:2:0:0:
328,250,64998,6,0,B|297:205|233:214|233:214|217:242|184:254,1,161.700004934693,12|0,0:2|1:1,0:0:0:0:
99,203,65537,1,2,3:2:0:0:
99,203,65627,1,8,2:2:0:0:
99,203,65717,2,0,L|84:267,3,40.4250012336731,10|8|10|8,2:2|2:2|2:2|2:2,0:0:0:0:
79,294,66076,6,0,P|127:330|200:309,1,121.275003701019,4|0,1:2|0:0,0:0:0:0:
232,299,66435,2,0,P|277:310|337:326,1,80.8500024673463,10|0,2:2|0:0,0:0:0:0:
385,244,66795,1,2,1:2:0:0:
385,244,66974,1,0,1:1:0:0:
465,311,67154,2,0,P|480:348|470:390,1,80.8500024673463,10|0,2:2|0:0,0:0:0:0:
385,244,67513,6,0,P|394:199|405:147,1,80.8500024673463,2|0,1:2|0:0,0:0:0:0:
495,117,67873,2,0,P|486:72|475:20,1,80.8500024673463,10|0,2:2|0:0,0:0:0:0:
384,4,68232,1,2,1:2:0:0:
384,4,68411,1,0,1:1:0:0:
301,69,68591,2,0,P|257:60|194:50,1,80.8500024673463,10|0,2:2|0:0,0:0:0:0:
122,16,68950,6,0,P|176:67|156:154,1,161.700004934693,2|10,1:2|2:2,0:0:0:0:
93,226,69489,1,2,2:2:0:0:
166,300,69669,1,0,1:1:0:0:
166,300,69849,1,2,1:2:0:0:
91,374,70028,2,0,P|52:364|8:358,1,80.8500024673463,10|0,2:2|0:0,0:0:0:0:
166,300,70388,6,0,P|211:264|281:286,1,121.275003701019,0|0,1:1|0:0,0:0:0:0:
312,305,70747,2,0,P|326:259|312:209,1,80.8500024673463,12|0,2:2|0:0,0:0:0:0:
254,165,71106,1,2,1:2:0:0:
254,165,71196,1,0,3:3:0:0:
254,165,71286,2,0,L|269:107,3,40.4250012336731,0|8|10|8,3:3|2:2|2:2|2:2,0:0:0:0:
301,89,71645,6,0,B|316:115|344:127|344:127|389:83|452:110,1,161.700004934693,4|2,1:2|1:2,0:0:0:0:
491,191,72184,2,0,P|512:236|509:282,1,80.8500024673463,8|2,2:2|2:2,0:0:0:0:
508,273,72453,1,0,0:0:0:0:
503,280,72543,1,2,1:2:0:0:
419,344,72723,1,0,1:1:0:0:
341,273,72903,1,10,2:2:0:0:
263,343,73082,6,0,B|219:328|168:315|168:315|112:364,1,161.700004934693,4|2,1:2|1:2,0:0:0:0:
28,306,73621,2,0,P|17:257|36:217,1,80.8500024673463,8|0,2:2|0:0,0:0:0:0:
97,151,73980,2,0,P|140:160|195:174,1,80.8500024673463,0|2,1:1|1:2,0:0:0:0:
237,254,74340,1,10,2:2:0:0:
237,254,74519,1,2,2:2:0:0:
311,179,74699,6,0,P|302:130|295:87,1,80.8500024673463,0|0,1:1|0:0,0:0:0:0:
205,47,75058,2,0,P|198:86|191:126,1,80.8500024673463,8|2,2:2|2:2,0:0:0:0:
111,195,75417,1,2,1:2:0:0:
111,195,75597,1,0,1:1:0:0:
185,268,75777,1,10,2:2:0:0:
185,268,75956,1,0,1:0:0:0:
112,344,76136,5,10,3:2:0:0:
112,344,76495,6,0,P|153:305|227:328,1,121.275003701019,12|0,0:2|0:0,0:0:0:0:
254,347,76855,2,0,P|299:337|355:327,1,80.8500024673463,2|0,1:2|3:3,0:0:0:0:
341,334,77124,1,0,3:3:0:0:
348,340,77214,2,0,L|337:399,3,40.4250012336731,2|0|0|0,3:2|3:3|1:1|1:1,0:0:0:0:
381,316,77573,6,0,P|370:252|353:157,2,147,4|10|2,1:2|2:2|1:2,0:0:0:0:
294,372,78471,1,0,1:1:0:0:
221,299,78651,2,0,P|187:305|139:315,1,73.5,10|0,2:2|0:0,0:0:0:0:
71,380,79010,6,0,B|105:341|105:341|79:248,1,147,2|10,1:2|2:2,0:0:0:0:
10,172,79549,1,2,2:2:0:0:
88,104,79729,1,0,1:1:0:0:
88,104,79908,1,2,1:2:0:0:
171,163,80088,2,0,P|216:152|265:143,1,73.5,10|0,2:2|3:3,0:0:0:0:
282,51,80447,6,0,P|351:64|419:79,1,110.25,4|0,1:2|0:0,0:0:0:0:
435,46,80807,2,0,P|440:75|454:144,1,73.5,10|2,2:2|2:2,0:0:0:0:
385,199,81166,1,2,1:2:0:0:
385,199,81346,1,0,1:1:0:0:
440,285,81525,2,0,P|475:277|533:269,1,73.5,10|0,2:2|0:0,0:0:0:0:
385,199,81885,6,0,P|336:162|241:199,1,147,2|10,1:2|2:2,0:0:0:0:
173,239,82423,1,2,2:2:0:0:
97,169,82603,2,0,P|104:132|112:97,1,73.5,0|2,1:1|1:2,0:0:0:0:
173,239,82962,2,0,P|143:296|165:352,1,110.25,12|0,2:2|0:0,0:0:0:0:
186,378,83322,6,0,P|229:366|282:353,1,73.5,4|2,1:2|2:2,0:0:0:0:
284,263,83681,2,0,P|316:271|350:279,1,73.5,10|2,2:2|2:2,0:0:0:0:
415,356,84040,1,0,1:1:0:0:
415,356,84220,1,2,3:2:0:0:
491,303,84400,2,0,P|482:267|472:223,1,73.5,2|2,3:2|2:2,0:0:0:0:
473,141,84759,5,10,2:2:0:0:
473,141,86196,6,0,P|436:181|334:154,1,147,4|10,1:2|2:2,0:0:0:0:
264,114,86735,2,0,B|176:144|176:144|199:128|214:93,1,147,4|0,1:2|3:3,0:0:0:0:
117,57,87274,1,0,3:3:0:0:
47,142,87453,6,0,B|58:203|111:228|111:228|81:277|21:287|21:287|26:348|90:364|90:364|56:353|30:362,1,396.899987887574,4|0,1:2|0:0,0:0:0:0:
