osu file format v14

[General]
AudioFilename: audio.mp3
AudioLeadIn: 0
PreviewTime: 84286
Countdown: 0
SampleSet: Soft
StackLeniency: 0.7
Mode: 2
LetterboxInBreaks: 0
WidescreenStoryboard: 1

[Editor]
Bookmarks: 20181,25234,35339,45444,55549,64392,65655,75760,85865,89497,95971,106076,116181,126602,133392
DistanceSpacing: 1
BeatDivisor: 2
GridSize: 16
TimelineZoom: 2.000006

[Metadata]
Title:Angelica
TitleUnicode:Angelica
Artist:awfuless x yusi.
ArtistUnicode:awfuless × yusi.
Creator:zerokt
Version:Salad
Source:音灵 INVAXION
Tags:PayneTrain electronic instrumental rhythm video game soundtrack edm vgm drumstep hardcore artcore yin ling sound spirit
BeatmapID:3258195
BeatmapSetID:1588038

[Difficulty]
HPDrainRate:3
CircleSize:3
OverallDifficulty:7
ApproachRate:7
SliderMultiplier:1.4
SliderTickRate:1

[Events]
//Background and Video events
0,0,"bg.jpg",0,0
//Break Periods
2,65855,82439
//Storyboard Layer 0 (Background)
//Storyboard Layer 1 (Fail)
//Storyboard Layer 2 (Pass)
//Storyboard Layer 3 (Foreground)
//Storyboard Layer 4 (Overlay)
//Storyboard Sound Samples

[TimingPoints]
-29,315.789473684211,4,2,69,40,1,0
21444,-100,4,2,69,50,0,0
22707,-100,4,2,69,60,0,0
23971,-100,4,2,69,70,0,0
25234,-100,4,2,69,80,0,0
26971,-100,4,2,69,80,0,0
27128,-100,4,2,69,80,0,0
27760,-100,4,2,69,80,0,0
28155,-100,4,2,69,80,0,0
29023,-100,4,2,69,80,0,0
29181,-100,4,2,69,80,0,0
30286,-100,4,2,69,80,0,0
30918,-100,4,2,69,80,0,0
32023,-100,4,2,69,80,0,0
32339,-100,4,2,69,80,0,0
33444,-100,4,2,69,80,0,0
33602,-100,4,2,69,80,0,0
37865,-100,4,2,69,80,0,0
38181,-100,4,2,69,80,0,0
40392,-100,4,2,69,80,0,0
41497,-100,4,2,69,40,0,0
41536,-100,4,2,69,50,0,0
41576,-100,4,2,69,60,0,0
41615,-100,4,2,69,70,0,0
41655,-100,4,2,69,80,0,0
42128,-100,4,2,69,80,0,0
42286,-100,4,2,69,80,0,0
42918,-100,4,2,69,80,0,0
43313,-100,4,2,69,80,0,0
45286,-100,4,2,69,80,0,0
45444,-100,4,2,69,80,0,0
45760,-100,4,2,69,80,0,0
55549,-100,4,2,69,80,0,0
55786,-100,4,2,69,5,0,0
55865,-100,4,2,69,80,0,0
60602,-100,4,2,69,80,0,0
64392,-100,4,2,69,60,0,0
64707,-100,4,2,69,65,0,0
65023,-100,4,2,69,70,0,0
65339,-100,4,2,69,75,0,0
65655,-100,4,2,69,80,0,0
83339,-100,4,2,69,50,0,0
84839,-100,4,2,69,55,0,0
85076,-100,4,2,69,60,0,0
85234,-100,4,2,69,70,0,0
85865,-100,4,2,69,80,0,1
106076,-100,4,2,69,80,0,0
106313,-100,4,2,69,5,0,0
106392,-100,4,2,69,80,0,0
113655,-100,4,2,69,80,0,0
114444,-100,4,2,69,80,0,0
115549,-100,4,2,69,80,0,0
115786,-100,4,2,69,80,0,0
116023,-100,4,2,69,80,0,0
116142,-100,4,2,69,5,0,0
116260,-100,4,2,69,80,0,0
116497,-100,4,2,69,80,0,0
125023,-100,4,2,69,80,0,0
127549,-100,4,2,69,50,0,0
128813,-100,4,2,69,40,0,0
130076,-100,4,2,69,30,0,0
131339,-100,4,2,69,20,0,0
132602,-100,4,2,69,10,0,0

[Colours]
Combo1 : 170,78,64
Combo2 : 255,208,202
Combo3 : 255,134,117
Combo4 : 255,88,64

[HitObjects]
256,192,20181,12,2,25234,0:2:0:0:
187,303,25865,6,0,P|144:247|212:210,1,140,14|2,3:1|0:2,0:0:0:0:
254,205,26339,1,0,3:2:0:0:
324,207,26497,6,0,P|367:151|299:114,1,140,2|2,3:2|3:2,0:0:0:0:
186,106,27128,1,10,3:2:0:0:
116,106,27285,1,0,3:2:0:0:
46,106,27443,1,2,3:2:0:0:
329,104,27760,6,0,P|399:150|399:212,1,140,2|2,3:2|3:2,0:0:0:0:
262,212,28392,1,10,3:2:0:0:
193,209,28549,1,0,3:2:0:0:
144,255,28707,1,2,3:2:0:0:
142,323,28865,1,8,3:2:0:0:
209,345,29023,5,2,3:2:0:0:
486,350,29339,1,2,3:2:0:0:
485,280,29496,1,0,0:0:0:0:
485,210,29654,1,10,3:2:0:0:
486,205,29971,1,10,3:2:0:0:
207,88,30286,6,0,L|207:239,1,140,6|2,3:1|3:2,0:0:0:0:
346,280,30918,2,0,P|389:224|321:187,1,140,10|2,3:2|0:2,0:0:0:0:
279,182,31392,1,0,3:2:0:0:
209,184,31550,6,0,P|166:128|234:91,1,140,2|2,3:2|3:2,0:0:0:0:
345,72,32181,1,10,3:2:0:0:
415,72,32339,1,0,3:2:0:0:
415,67,32497,1,2,3:2:0:0:
134,80,32813,6,0,L|136:267,1,140,2|2,3:2|3:2,0:0:0:0:
418,276,33444,6,0,L|179:276,2,210,10|8|10,3:2|3:2|3:2,0:0:0:0:
277,274,34707,1,2,3:2:0:0:
208,276,34865,1,10,3:2:0:0:
208,270,35023,1,2,0:2:0:0:
277,267,35181,1,0,3:2:0:0:
424,311,35339,6,0,L|422:171,1,140,6|2,3:1|0:2,0:0:0:0:
351,171,35813,1,2,0:2:0:0:
281,174,35971,2,0,L|279:34,1,140,10|2,3:2|0:2,0:0:0:0:
417,52,36602,6,0,L|418:223,1,140,2|2,3:2|3:2,0:0:0:0:
277,180,37234,1,10,3:2:0:0:
347,180,37391,1,0,3:2:0:0:
417,180,37549,1,2,3:2:0:0:
137,29,37865,6,0,P|67:75|67:137,1,140,2|2,3:2|3:2,0:0:0:0:
204,137,38497,1,10,3:2:0:0:
272,131,38654,1,0,3:2:0:0:
332,166,38812,1,2,3:2:0:0:
361,229,38970,1,8,3:2:0:0:
349,297,39128,5,2,3:2:0:0:
71,263,39444,1,2,3:2:0:0:
71,193,39601,1,0,0:0:0:0:
71,123,39759,1,10,3:2:0:0:
71,118,40076,1,10,3:2:0:0:
351,76,40392,5,2,3:2:0:0:
217,112,41339,1,14,3:1:0:0:
357,305,41655,6,0,P|400:249|332:212,1,140,2|2,3:2|3:2,0:0:0:0:
290,207,42129,1,2,3:2:0:0:
220,209,42287,2,0,P|177:153|245:116,1,140,10|2,3:2|3:2,0:0:0:0:
358,108,42918,5,2,3:2:0:0:
428,108,43075,1,0,0:0:0:0:
498,108,43233,1,2,3:2:0:0:
217,264,43549,6,0,L|427:264,2,210,10|8|10,3:2|3:2|3:2,0:0:0:0:
491,192,44813,1,2,3:2:0:0:
496,260,44970,1,0,0:0:0:0:
454,313,45128,1,0,0:0:0:0:
386,322,45286,1,0,0:0:0:0:
239,330,45444,5,2,0:2:0:0:
99,342,45760,2,0,L|101:162,1,140,6|2,3:1|3:2,0:0:0:0:
170,192,46234,1,2,0:2:0:0:
240,192,46392,6,0,L|242:12,1,140,2|0,3:2|3:2,0:0:0:0:
171,54,46865,1,2,0:2:0:0:
31,59,47181,1,2,0:2:0:0:
6,124,47338,1,0,3:2:0:0:
36,187,47496,1,2,0:2:0:0:
106,193,47655,1,2,3:2:0:0:
246,194,47971,5,2,3:2:0:0:
385,194,48286,1,2,3:2:0:0:
426,246,48443,1,0,0:0:0:0:
405,310,48601,1,2,3:2:0:0:
340,327,48759,1,2,0:2:0:0:
269,329,48918,1,2,3:2:0:0:
338,325,49075,1,2,0:2:0:0:
197,208,49392,5,2,0:2:0:0:
197,199,49549,1,0,3:2:0:0:
266,196,49707,1,2,0:2:0:0:
333,187,49864,1,2,3:2:0:0:
373,133,50022,1,2,0:2:0:0:
361,66,50180,1,2,3:2:0:0:
304,29,50338,1,2,0:2:0:0:
238,45,50496,5,2,0:2:0:0:
495,339,50813,2,0,L|493:159,1,140,6|2,3:1|3:2,0:0:0:0:
424,189,51287,1,2,0:2:0:0:
354,189,51445,6,0,L|352:9,1,140,2|0,3:2|3:2,0:0:0:0:
423,50,51918,1,2,0:2:0:0:
284,183,52234,1,2,0:2:0:0:
232,225,52391,1,2,3:2:0:0:
246,290,52549,1,2,0:2:0:0:
311,307,52707,1,2,3:2:0:0:
32,298,53023,5,2,3:2:0:0:
32,287,53181,1,0,0:0:0:0:
101,290,53339,1,2,3:2:0:0:
241,286,53655,2,0,L|365:284,1,70,10|2,3:2|0:2,0:0:0:0:
242,269,53971,1,2,0:2:0:0:
102,262,54286,5,2,3:2:0:0:
39,230,54444,1,2,3:2:0:0:
39,159,54602,1,2,3:2:0:0:
106,141,54760,1,2,3:2:0:0:
253,283,54918,2,0,L|253:140,1,140,10|2,3:2|0:2,0:0:0:0:
113,149,55549,5,2,0:2:0:0:
397,333,55865,2,0,L|395:153,1,140,6|2,3:1|3:2,0:0:0:0:
326,183,56339,1,2,0:2:0:0:
256,183,56497,6,0,L|254:3,1,140,2|0,3:2|3:2,0:0:0:0:
325,43,56970,1,2,0:2:0:0:
181,49,57286,1,2,0:2:0:0:
156,114,57443,1,0,3:2:0:0:
186,177,57601,1,2,0:2:0:0:
256,183,57760,1,2,3:2:0:0:
397,186,58076,5,2,3:2:0:0:
256,183,58392,1,2,3:2:0:0:
187,184,58549,1,0,0:0:0:0:
257,176,58707,1,2,3:2:0:0:
324,155,58865,1,2,0:2:0:0:
324,84,59023,1,2,3:2:0:0:
260,57,59181,1,0,0:0:0:0:
115,310,59497,5,2,0:2:0:0:
115,301,59654,1,0,3:2:0:0:
184,298,59812,1,2,0:2:0:0:
251,289,59971,1,2,3:2:0:0:
291,235,60127,1,0,0:0:0:0:
279,168,60285,1,2,3:2:0:0:
222,131,60443,1,0,0:0:0:0:
74,54,60602,6,0,L|73:219,1,140,6|2,3:1|3:2,0:0:0:0:
143,205,61076,1,0,3:2:0:0:
214,196,61234,1,2,3:2:0:0:
214,206,61392,1,2,3:2:0:0:
143,195,61549,1,2,3:2:0:0:
283,167,61865,5,0,3:2:0:0:
352,160,62023,1,2,3:2:0:0:
284,142,62181,1,0,3:2:0:0:
220,167,62338,1,2,3:2:0:0:
187,227,62496,1,2,3:2:0:0:
200,294,62654,1,2,3:2:0:0:
253,338,62812,1,2,3:2:0:0:
321,337,62970,1,0,3:2:0:0:
470,286,63128,5,2,3:2:0:0:
256,192,63444,12,6,65655,0:1:0:0:
256,192,83339,12,2,85234,0:2:0:0:
156,94,85865,6,0,P|88:157|99:254,1,140,6|8,3:2|3:2,0:0:0:0:
151,208,86339,1,2,0:2:0:0:
220,203,86497,2,0,L|359:201,1,140,2|8,3:2|3:2,0:0:0:0:
221,109,87128,6,0,L|40:111,1,140,2|8,3:2|3:2,0:0:0:0:
150,101,87602,1,2,0:2:0:0:
219,95,87760,2,0,L|352:93,2,105,2|2|2,3:2|3:2|3:2,0:0:0:0:
148,98,88392,5,2,0:2:0:0:
428,106,88707,1,10,3:2:0:0:
428,116,89023,1,10,3:2:0:0:
322,116,89260,1,10,3:2:0:0:
322,126,89497,1,10,3:2:0:0:
427,249,89734,5,10,3:2:0:0:
321,251,89971,2,0,L|161:249,2,140,10|10|10,3:2|3:2|3:2,0:0:0:0:
251,247,90760,1,2,3:2:0:0:
104,50,90918,6,0,L|100:223,1,140,6|8,3:2|3:2,0:0:0:0:
171,194,91392,1,2,0:2:0:0:
240,188,91550,2,0,L|100:189,1,140,2|8,3:2|3:2,0:0:0:0:
240,177,92181,6,0,L|404:174,1,140,2|8,3:2|3:2,0:0:0:0:
309,177,92655,1,2,0:2:0:0:
379,174,92813,2,0,P|439:235|431:303,1,140,2|10,3:2|3:2,0:0:0:0:
159,274,93444,6,0,L|28:276,2,105,2|2|2,3:2|0:2|0:2,0:0:0:0:
230,61,94076,2,0,L|361:63,2,105,2|2|2,3:2|0:2|0:2,0:0:0:0:
159,165,94707,6,0,L|28:167,2,105,2|2|2,3:2|0:2|0:2,0:0:0:0:
314,160,95339,1,2,3:2:0:0:
370,195,95496,1,2,0:2:0:0:
366,262,95654,1,10,3:2:0:0:
306,291,95812,1,2,0:2:0:0:
150,95,95971,6,0,L|148:255,1,140,6|8,3:2|3:2,0:0:0:0:
217,242,96444,1,2,0:2:0:0:
287,244,96602,2,0,L|285:404,1,140,2|8,3:2|3:2,0:0:0:0:
145,181,97234,6,0,L|334:178,1,140,2|8,3:2|3:2,0:0:0:0:
354,184,97707,1,2,0:2:0:0:
286,163,97866,2,0,L|181:164,2,105,2|2|2,3:2|3:2|3:2,0:0:0:0:
356,159,98498,5,2,0:2:0:0:
77,90,98813,1,10,3:2:0:0:
77,100,99129,1,10,3:2:0:0:
183,100,99366,1,10,3:2:0:0:
183,110,99603,1,10,3:2:0:0:
78,233,99840,5,10,3:2:0:0:
286,296,100076,2,0,L|446:294,2,140,10|10|10,3:2|3:2|3:2,0:0:0:0:
356,292,100865,1,2,3:2:0:0:
503,95,101023,6,0,L|507:268,1,140,6|8,3:2|3:2,0:0:0:0:
436,239,101497,1,2,0:2:0:0:
367,233,101655,2,0,L|507:234,1,140,2|8,3:2|3:2,0:0:0:0:
364,81,102286,6,0,L|200:78,1,140,2|8,3:2|3:2,0:0:0:0:
295,81,102760,1,2,0:2:0:0:
224,78,102918,2,0,L|69:78,1,140,2|8,3:2|3:2,0:0:0:0:
364,291,103549,5,2,3:2:0:0:
428,284,103706,1,0,3:2:0:0:
438,219,103864,1,10,3:2:0:0:
378,194,104022,1,2,3:2:0:0:
230,173,104181,1,2,3:2:0:0:
165,166,104338,1,0,3:2:0:0:
155,101,104496,1,10,3:2:0:0:
215,76,104654,1,2,3:2:0:0:
363,74,104813,5,2,3:2:0:0:
375,140,104970,1,0,3:2:0:0:
334,195,105128,1,8,3:2:0:0:
267,201,105286,1,2,3:2:0:0:
120,61,105444,1,0,3:2:0:0:
60,96,105601,1,0,3:2:0:0:
23,154,105759,1,10,3:2:0:0:
15,223,105917,1,2,3:2:0:0:
40,288,106075,5,2,0:2:0:0:
322,298,106392,2,0,L|322:139,1,140,14|0,3:1|3:2,0:0:0:0:
183,179,107023,6,0,L|183:20,1,140,10|0,3:2|3:2,0:0:0:0:
323,50,107655,1,8,3:2:0:0:
392,48,107812,1,2,0:2:0:0:
323,50,107971,1,0,3:2:0:0:
278,103,108128,1,2,0:2:0:0:
278,173,108286,1,8,3:2:0:0:
333,215,108444,1,2,0:2:0:0:
481,314,108602,6,0,L|479:162,1,140,2|10,3:2|3:2,0:0:0:0:
409,165,109076,1,2,0:2:0:0:
338,165,109234,2,0,L|336:13,1,140,2|10,3:2|3:2,0:0:0:0:
194,346,109865,6,0,L|196:194,1,140,2|8,3:2|3:2,0:0:0:0:
266,197,110339,1,2,0:2:0:0:
337,197,110497,2,0,L|156:198,1,140,0|10,3:2|3:2,0:0:0:0:
477,121,111128,5,2,3:2:0:0:
476,115,111286,1,2,0:2:0:0:
329,50,111444,2,0,L|176:110,1,140,14|2,3:2|3:2,0:0:0:0:
235,161,111918,1,2,0:2:0:0:
305,161,112076,6,0,L|452:158,1,140,10|2,3:2|3:2,0:0:0:0:
305,173,112707,2,0,L|148:164,1,140,10|2,3:2|3:2,0:0:0:0:
232,145,113181,1,2,0:2:0:0:
301,134,113339,1,10,3:2:0:0:
23,42,113655,6,0,L|24:343,1,280,6|8,3:2|3:2,0:0:0:0:
163,312,114602,1,0,3:2:0:0:
198,311,114681,1,0,3:2:0:0:
233,310,114760,1,10,3:2:0:0:
163,206,114918,5,2,0:2:0:0:
161,136,115076,1,0,3:2:0:0:
230,130,115234,1,8,3:2:0:0:
300,127,115392,1,2,3:2:0:0:
154,61,115549,2,0,L|33:55,2,105,10|10|10,3:2|3:2|3:2,0:0:0:0:
496,89,116497,6,0,L|480:276,1,140,14|0,3:1|3:2,0:0:0:0:
343,227,117128,2,0,L|327:414,1,140,10|0,3:2|3:2,0:0:0:0:
192,76,117760,1,8,3:2:0:0:
123,74,117917,1,2,0:2:0:0:
192,76,118076,1,2,3:2:0:0:
237,129,118233,1,2,0:2:0:0:
237,199,118391,1,10,3:2:0:0:
182,241,118549,1,2,0:2:0:0:
34,340,118707,6,0,L|36:188,1,140,2|10,3:2|3:2,0:0:0:0:
106,191,119181,1,2,0:2:0:0:
177,191,119339,2,0,L|179:39,1,140,2|10,3:2|3:2,0:0:0:0:
321,372,119970,6,0,L|319:220,1,140,0|8,3:2|3:2,0:0:0:0:
381,219,120444,1,2,0:2:0:0:
440,198,120602,2,0,L|444:44,1,140,2|10,3:2|3:2,0:0:0:0:
161,178,121234,5,6,3:2:0:0:
93,177,121392,1,2,3:2:0:0:
67,159,121549,1,10,3:2:0:0:
91,137,121707,1,2,3:2:0:0:
160,138,121865,1,2,3:2:0:0:
248,146,122023,1,2,3:2:0:0:
178,143,122180,1,10,3:2:0:0:
39,142,122497,5,2,3:2:0:0:
109,143,122655,1,2,3:2:0:0:
257,234,122813,1,10,3:2:0:0:
327,236,122971,1,2,3:2:0:0:
327,228,123128,1,2,3:2:0:0:
257,229,123286,1,2,3:2:0:0:
112,236,123444,1,10,3:2:0:0:
234,156,123760,6,0,L|331:156,1,70,10|0,3:2|3:2,0:0:0:0:
234,142,124076,1,10,3:2:0:0:
95,61,124392,2,0,L|-2:61,1,70,10|0,3:2|3:2,0:0:0:0:
95,47,124708,1,10,3:2:0:0:
374,65,125023,6,0,L|376:176,1,105,10|10,3:2|3:2,0:0:0:0:
166,179,125497,2,0,L|168:290,1,105,10|10,3:2|3:2,0:0:0:0:
167,283,125971,1,10,3:2:0:0:
313,283,126128,1,10,3:2:0:0:
213,157,126602,5,6,3:1:0:0:
256,192,126918,12,0,133392,0:0:0:0:
