osu file format v14

[General]
AudioFilename: audio.mp3
AudioLeadIn: 0
PreviewTime: 84286
Countdown: 0
SampleSet: Soft
StackLeniency: 0.7
Mode: 2
LetterboxInBreaks: 0
WidescreenStoryboard: 1

[Editor]
Bookmarks: 20181,25234,35339,45444,55549,64392,65655,75760,85865,89497,95971,106076,116181,126602,133392
DistanceSpacing: 1
BeatDivisor: 4
GridSize: 16
TimelineZoom: 2.100006

[Metadata]
Title:Angelica
TitleUnicode:Angelica
Artist:awfuless x yusi.
ArtistUnicode:awfuless × yusi.
Creator:zerokt
Version:Rain
Source:音灵 INVAXION
Tags:PayneTrain electronic instrumental rhythm video game soundtrack edm vgm drumstep hardcore artcore yin ling sound spirit
BeatmapID:3258194
BeatmapSetID:1588038

[Difficulty]
HPDrainRate:5
CircleSize:4
OverallDifficulty:9
ApproachRate:9
SliderMultiplier:1.66
SliderTickRate:2

[Events]
//Background and Video events
0,0,"bg.jpg",0,0
//Break Periods
2,65855,83686
//Storyboard Layer 0 (Background)
//Storyboard Layer 1 (Fail)
//Storyboard Layer 2 (Pass)
//Storyboard Layer 3 (Foreground)
//Storyboard Layer 4 (Overlay)
//Storyboard Sound Samples

[TimingPoints]
-29,315.789473684211,4,2,69,40,1,0
21444,-100,4,2,69,50,0,0
22707,-100,4,2,69,60,0,0
23971,-100,4,2,69,70,0,0
25234,-100,4,2,69,80,0,0
26971,-100,4,2,69,80,0,0
27128,-100,4,2,69,80,0,0
27760,-100,4,2,69,80,0,0
28155,-100,4,2,69,80,0,0
29023,-100,4,2,69,80,0,0
29181,-100,4,2,69,80,0,0
30286,-100,4,2,69,80,0,0
30918,-100,4,2,69,80,0,0
32023,-100,4,2,69,80,0,0
32339,-100,4,2,69,80,0,0
33444,-100,4,2,69,80,0,0
33602,-100,4,2,69,80,0,0
37865,-100,4,2,69,80,0,0
38181,-100,4,2,69,80,0,0
40392,-100,4,2,69,80,0,0
41497,-100,4,2,69,40,0,0
41536,-100,4,2,69,50,0,0
41576,-100,4,2,69,60,0,0
41615,-100,4,2,69,70,0,0
41655,-100,4,2,69,80,0,0
42128,-100,4,2,69,80,0,0
42286,-100,4,2,69,80,0,0
42918,-100,4,2,69,80,0,0
43313,-100,4,2,69,80,0,0
45286,-100,4,2,69,80,0,0
45444,-100,4,2,69,80,0,0
45760,-100,4,2,69,80,0,0
55549,-100,4,2,69,80,0,0
55786,-100,4,2,69,5,0,0
55865,-100,4,2,69,80,0,0
60602,-100,4,2,69,80,0,0
64392,-100,4,2,69,60,0,0
64707,-100,4,2,69,65,0,0
65023,-100,4,2,69,70,0,0
65339,-100,4,2,69,75,0,0
65655,-100,4,2,69,80,0,0
83339,-100,4,2,69,50,0,0
84839,-100,4,2,69,55,0,0
85076,-100,4,2,69,60,0,0
85234,-100,4,2,69,70,0,0
85865,-100,4,2,69,80,0,1
106076,-100,4,2,69,80,0,0
106313,-100,4,2,69,5,0,0
106392,-100,4,2,69,80,0,0
113655,-100,4,2,69,80,0,0
114444,-100,4,2,69,80,0,0
115549,-100,4,2,69,80,0,0
115786,-100,4,2,69,80,0,0
116023,-100,4,2,69,80,0,0
116142,-100,4,2,69,55,0,0
116260,-100,4,2,69,80,0,0
116497,-100,4,2,69,80,0,0
125023,-100,4,2,69,80,0,0
127549,-100,4,2,69,50,0,0
128813,-100,4,2,69,40,0,0
130076,-100,4,2,69,30,0,0
131339,-100,4,2,69,20,0,0
132602,-100,4,2,69,10,0,0

[Colours]
Combo1 : 170,78,64
Combo2 : 255,208,202
Combo3 : 255,134,117
Combo4 : 255,88,64

[HitObjects]
256,192,20181,12,0,24918,0:0:0:0:
220,99,25234,5,2,0:2:0:0:
261,107,25312,1,0,0:0:0:0:
289,136,25391,1,0,0:0:0:0:
294,177,25470,1,0,0:0:0:0:
276,213,25549,1,0,0:0:0:0:
240,232,25628,1,0,0:0:0:0:
199,227,25707,1,0,0:0:0:0:
414,210,25865,5,14,3:1:0:0:
453,220,25943,1,0,0:0:0:0:
477,252,26022,1,2,0:2:0:0:
474,293,26101,1,2,0:2:0:0:
306,318,26181,1,2,0:2:0:0:
265,322,26259,1,0,0:0:0:0:
235,296,26338,1,0,3:2:0:0:
386,54,26497,6,0,L|386:112,3,41.5,2|2|2|2,3:2|0:2|3:2|0:2,0:0:0:0:
302,128,26813,2,0,L|303:185,1,41.5,2|2,3:2|0:2,0:0:0:0:
389,220,26971,2,0,L|390:277,1,41.5,2|2,3:2|3:2,0:0:0:0:
210,312,27128,6,0,P|144:301|132:203,1,166,10|2,3:2|3:2,0:0:0:0:
166,212,27523,1,2,3:2:0:0:
207,210,27602,1,2,3:2:0:0:
424,75,27760,6,0,L|424:207,1,124.5,2|0,3:2|0:0,0:0:0:0:
382,204,28076,1,2,3:2:0:0:
351,229,28154,1,2,0:0:0:0:
357,269,28233,1,2,3:2:0:0:
393,286,28312,1,2,3:2:0:0:
237,320,28392,2,0,L|139:322,1,83,10|0,3:2|3:2,0:0:0:0:
234,303,28707,1,2,3:2:0:0:
383,57,28865,2,0,L|460:58,1,41.5,8|0,3:2|0:0,0:0:0:0:
250,60,29023,6,0,L|173:60,1,41.5,2|0,3:2|0:0,0:0:0:0:
166,60,29181,1,0,3:2:0:0:
145,62,29221,1,0,3:2:0:0:
165,59,29260,1,0,0:0:0:0:
318,151,29339,1,2,3:2:0:0:
358,156,29417,1,0,0:0:0:0:
383,188,29496,1,0,0:0:0:0:
379,228,29575,1,0,0:0:0:0:
211,243,29655,5,10,3:2:0:0:
169,243,29734,1,0,0:0:0:0:
210,239,29813,1,0,3:2:0:0:
251,236,29892,1,0,3:2:0:0:
407,83,29971,2,0,L|460:78,1,41.5,10|0,3:2|0:0,0:0:0:0:
283,52,30128,2,0,L|217:48,1,41.5,8|0,3:2|0:0,0:0:0:0:
397,152,30286,5,6,3:1:0:0:
430,175,30364,1,0,0:0:0:0:
452,210,30443,1,0,0:0:0:0:
458,251,30522,1,0,0:0:0:0:
447,290,30601,1,2,3:2:0:0:
421,322,30680,1,2,0:2:0:0:
384,341,30759,1,2,0:2:0:0:
166,348,30918,1,10,3:2:0:0:
159,307,30996,1,0,0:0:0:0:
187,277,31075,1,2,0:2:0:0:
228,268,31155,1,2,0:2:0:0:
315,104,31234,1,2,0:2:0:0:
315,104,31313,1,0,0:0:0:0:
315,104,31392,1,0,3:2:0:0:
100,70,31549,5,2,3:2:0:0:
63,86,31627,1,2,0:2:0:0:
50,124,31706,1,2,3:2:0:0:
70,159,31785,1,2,0:2:0:0:
109,168,31864,1,2,3:2:0:0:
260,182,32023,2,0,L|261:239,1,41.5,2|0,3:2|0:0,0:0:0:0:
218,226,32181,1,10,3:2:0:0:
435,162,32339,2,0,P|472:216|394:265,1,166,0|2,3:2|3:2,0:0:0:0:
364,272,32733,1,2,3:2:0:0:
200,60,32813,6,0,L|59:58,1,124.5,2|0,3:2|0:0,0:0:0:0:
116,53,33128,1,2,3:2:0:0:
134,88,33206,1,2,0:2:0:0:
119,126,33285,1,2,0:2:0:0:
81,140,33364,1,2,0:2:0:0:
257,116,33444,1,10,3:2:0:0:
339,151,33601,1,0,3:2:0:0:
361,186,33680,1,0,3:2:0:0:
368,227,33759,1,2,3:2:0:0:
181,281,33918,1,8,3:2:0:0:
92,252,34075,5,2,3:2:0:0:
68,218,34154,1,0,3:2:0:0:
60,178,34233,1,0,3:2:0:0:
246,128,34392,1,10,3:2:0:0:
241,146,34549,1,2,3:2:0:0:
200,148,34627,1,0,0:0:0:0:
170,175,34706,1,2,3:2:0:0:
165,216,34785,1,2,0:2:0:0:
331,295,34865,1,10,3:2:0:0:
402,269,35022,1,2,0:2:0:0:
237,209,35181,1,0,3:2:0:0:
195,208,35260,1,0,0:0:0:0:
366,37,35339,5,6,3:1:0:0:
405,47,35417,1,0,0:0:0:0:
429,79,35496,1,0,0:0:0:0:
426,120,35575,1,0,0:0:0:0:
258,145,35655,1,2,0:2:0:0:
217,149,35733,1,2,0:2:0:0:
187,123,35812,1,2,0:2:0:0:
339,42,35971,6,0,L|339:100,3,41.5,10|0|2|0,3:2|0:0|0:2|0:0,0:0:0:0:
256,117,36287,2,0,L|245:191,1,41.5,2|0,0:2|0:0,0:0:0:0:
318,204,36445,2,0,L|310:264,1,41.5,0|0,3:2|0:0,0:0:0:0:
81,31,36602,6,0,L|81:89,3,41.5,2|2|2|2,3:2|0:2|3:2|0:2,0:0:0:0:
165,105,36918,2,0,L|164:162,1,41.5,2|2,3:2|0:2,0:0:0:0:
78,197,37076,2,0,L|77:254,1,41.5,2|2,3:2|3:2,0:0:0:0:
257,289,37233,2,0,P|323:278|335:180,1,166,10|2,3:2|3:2,0:0:0:0:
301,189,37628,1,2,3:2:0:0:
260,187,37707,1,2,3:2:0:0:
42,85,37865,6,0,L|42:217,1,124.5,2|0,3:2|0:0,0:0:0:0:
84,214,38181,1,2,3:2:0:0:
115,239,38259,1,2,0:2:0:0:
109,279,38338,1,2,3:2:0:0:
73,296,38417,1,2,3:2:0:0:
229,330,38497,2,0,L|327:332,1,83,10|0,3:2|3:2,0:0:0:0:
228,305,38813,1,2,3:2:0:0:
79,59,38971,2,0,L|80:135,1,41.5,8|0,3:2|0:0,0:0:0:0:
248,93,39129,6,0,L|325:93,1,41.5,2|0,3:2|0:0,0:0:0:0:
332,93,39287,1,0,3:2:0:0:
353,95,39327,1,0,3:2:0:0:
333,92,39366,1,0,3:2:0:0:
180,184,39445,1,2,3:2:0:0:
140,189,39523,1,0,0:0:0:0:
115,221,39602,1,0,0:0:0:0:
119,261,39681,1,0,0:0:0:0:
287,276,39761,1,10,3:2:0:0:
329,276,39840,1,0,0:0:0:0:
288,272,39919,1,0,3:2:0:0:
247,269,39998,1,0,3:2:0:0:
91,116,40077,2,0,L|38:111,1,41.5,10|0,3:2|0:0,0:0:0:0:
215,85,40234,2,0,L|281:81,1,41.5,8|0,3:2|0:0,0:0:0:0:
68,218,40392,5,2,3:2:0:0:
256,192,40549,12,2,41181,0:2:0:0:
195,116,41339,5,14,3:1:0:0:
394,136,41655,5,2,3:2:0:0:
431,152,41733,1,2,0:2:0:0:
444,190,41812,1,2,3:2:0:0:
424,225,41891,1,2,0:2:0:0:
385,234,41970,1,2,3:2:0:0:
234,248,42129,2,0,L|233:305,1,41.5,2|0,3:2|3:2,0:0:0:0:
276,292,42287,1,10,3:2:0:0:
59,228,42445,2,0,P|22:282|100:331,1,166,0|0,0:0|0:0,0:0:0:0:
130,338,42839,1,2,3:2:0:0:
294,126,42919,6,0,L|435:124,1,124.5,2|0,3:2|0:0,0:0:0:0:
376,316,43234,1,2,3:2:0:0:
212,104,43313,2,0,L|145:103,1,41.5,2|2,0:2|0:2,0:0:0:0:
212,97,43471,1,2,0:2:0:0:
381,111,43550,1,10,3:2:0:0:
417,130,43627,1,0,0:0:0:0:
443,162,43706,1,0,3:2:0:0:
454,201,43785,1,0,3:2:0:0:
448,242,43864,1,2,3:2:0:0:
427,277,43943,1,0,0:0:0:0:
256,203,44023,2,0,L|195:201,1,41.5,8|0,3:2|0:0,0:0:0:0:
378,246,44181,5,2,3:2:0:0:
419,243,44260,1,0,3:2:0:0:
377,236,44339,1,0,3:2:0:0:
160,98,44497,1,10,3:2:0:0:
119,95,44576,1,0,0:0:0:0:
161,88,44655,1,0,3:2:0:0:
383,157,44813,1,2,3:2:0:0:
421,173,44891,1,0,0:0:0:0:
440,209,44970,1,0,0:0:0:0:
435,249,45049,1,0,0:0:0:0:
406,278,45128,1,0,0:0:0:0:
365,283,45207,1,0,0:0:0:0:
199,286,45286,2,0,L|157:287,1,41.5,0|0,0:0|0:0,0:0:0:0:
336,304,45444,6,0,L|402:301,1,41.5,2|0,0:2|0:0,0:0:0:0:
207,126,45602,1,0,0:0:0:0:
185,125,45642,1,0,0:0:0:0:
205,121,45681,1,0,0:0:0:0:
390,59,45760,2,0,L|481:60,1,83,6|0,3:1|0:0,0:0:0:0:
322,143,46076,2,0,L|321:234,1,83,2|2,3:2|0:2,0:0:0:0:
472,235,46392,2,0,L|395:284,1,83,2|0,3:2|0:0,0:0:0:0:
253,335,46707,5,0,3:2:0:0:
471,317,46865,2,0,L|472:235,1,83,2|0,0:2|3:2,0:0:0:0:
322,69,47181,2,0,L|426:69,1,83,2|0,0:2|3:2,0:0:0:0:
184,290,47497,2,0,L|99:292,1,83,2|2,0:2|3:2,0:0:0:0:
183,276,47813,1,0,0:0:0:0:
400,213,47971,6,0,L|400:84,1,83,2|0,3:2|0:0,0:0:0:0:
250,123,48286,2,0,L|250:-6,1,83,2|0,3:2|0:0,0:0:0:0:
400,213,48602,2,0,L|400:296,1,83,2|2,3:2|0:2,0:0:0:0:
183,279,48918,2,0,L|100:279,1,83,2|2,3:2|0:2,0:0:0:0:
179,254,49234,5,0,3:2:0:0:
396,215,49392,2,0,L|397:78,1,83,2|0,0:2|3:2,0:0:0:0:
248,61,49707,1,2,0:2:0:0:
331,60,49865,1,2,3:2:0:0:
414,60,50023,1,2,0:2:0:0:
263,314,50181,2,0,L|264:191,1,83,2|2,3:2|0:2,0:0:0:0:
483,263,50497,6,0,L|486:162,1,83,2|0,0:2|0:0,0:0:0:0:
263,313,50813,2,0,L|172:313,1,83,6|0,3:1|0:0,0:0:0:0:
330,250,51128,2,0,L|331:144,1,83,2|2,3:2|0:2,0:0:0:0:
179,163,51444,2,0,L|275:97,1,83,2|0,3:2|0:0,0:0:0:0:
399,82,51760,5,0,3:2:0:0:
180,161,51918,2,0,L|181:262,1,83,2|0,0:2|3:2,0:0:0:0:
332,275,52234,2,0,L|333:368,1,83,2|2,0:2|3:2,0:0:0:0:
116,347,52549,2,0,L|25:349,1,83,2|2,0:2|3:2,0:0:0:0:
115,337,52865,1,0,0:0:0:0:
332,301,53023,5,2,3:2:0:0:
372,297,53101,1,0,0:0:0:0:
396,265,53180,1,0,0:0:0:0:
389,225,53259,1,0,0:0:0:0:
346,225,53339,2,0,L|241:224,1,83,2|2,3:2|0:2,0:0:0:0:
46,224,53655,2,0,L|46:106,1,83,10|2,3:2|0:2,0:0:0:0:
196,106,53971,1,2,0:2:0:0:
154,106,54049,1,2,0:2:0:0:
112,106,54128,1,2,3:2:0:0:
329,113,54286,5,2,3:2:0:0:
350,113,54326,1,0,0:0:0:0:
329,108,54365,1,0,0:0:0:0:
167,192,54444,1,2,3:2:0:0:
126,194,54522,1,2,3:2:0:0:
96,222,54601,1,2,3:2:0:0:
91,263,54680,1,0,0:0:0:0:
260,285,54760,2,0,L|336:284,1,41.5,2|0,3:2|0:0,0:0:0:0:
137,132,54918,1,10,3:2:0:0:
139,91,54996,1,0,0:0:0:0:
167,61,55075,1,2,0:2:0:0:
208,56,55154,1,0,0:0:0:0:
371,63,55234,1,2,0:2:0:0:
412,63,55312,1,0,0:0:0:0:
454,63,55391,1,0,0:0:0:0:
205,266,55549,6,0,P|149:209|180:144,1,124.5,2|0,0:2|0:0,0:0:0:0:
339,164,55865,2,0,L|433:164,1,83,6|0,3:1|0:0,0:0:0:0:
272,55,56181,2,0,L|161:56,1,83,2|2,3:2|0:2,0:0:0:0:
406,241,56497,6,0,P|446:302|367:338,1,166,2|0,3:2|3:2,0:0:0:0:
232,351,56971,2,0,L|232:241,1,83,2|0,0:2|3:2,0:0:0:0:
383,274,57286,1,2,0:2:0:0:
299,276,57444,1,0,3:2:0:0:
215,274,57602,1,2,0:2:0:0:
432,191,57760,2,0,L|433:104,1,83,2|0,3:2|0:0,0:0:0:0:
214,103,58076,6,0,L|127:88,1,83,2|0,3:2|0:0,0:0:0:0:
282,156,58392,2,0,L|282:260,1,83,2|0,3:2|0:0,0:0:0:0:
133,234,58707,1,2,3:2:0:0:
215,239,58865,1,2,0:2:0:0:
432,202,59023,6,0,P|494:157|423:132,1,166,2|0,3:2|3:2,0:0:0:0:
289,178,59497,2,0,L|402:178,1,83,2|0,0:2|3:2,0:0:0:0:
220,326,59813,1,2,0:2:0:0:
304,328,59971,1,2,3:2:0:0:
388,326,60129,1,2,0:2:0:0:
171,243,60287,2,0,L|170:156,1,83,2|0,3:2|0:0,0:0:0:0:
389,92,60602,5,6,3:1:0:0:
389,92,60759,1,0,3:2:0:0:
239,182,60918,1,2,3:2:0:0:
239,182,61075,1,0,3:2:0:0:
389,297,61234,1,2,3:2:0:0:
389,297,61391,1,2,3:2:0:0:
173,305,61549,1,2,3:2:0:0:
90,309,61707,1,2,3:2:0:0:
308,184,61865,5,0,3:2:0:0:
91,102,62023,1,2,3:2:0:0:
91,102,62180,1,0,3:2:0:0:
241,181,62339,1,2,3:2:0:0:
241,181,62496,1,2,3:2:0:0:
90,309,62655,1,2,3:2:0:0:
307,310,62813,2,0,L|452:310,1,83,2|0,3:2|3:2,0:0:0:0:
172,50,63128,5,2,3:2:0:0:
132,60,63206,1,0,3:2:0:0:
106,91,63285,1,0,3:2:0:0:
101,132,63364,1,0,0:0:0:0:
269,184,63444,2,0,L|338:183,1,41.5,2|0,3:2|3:2,0:0:0:0:
271,167,63602,1,0,3:2:0:0:
251,131,63680,1,0,0:0:0:0:
267,95,63759,1,2,3:2:0:0:
306,86,63838,1,0,3:2:0:0:
470,95,63918,5,0,3:2:0:0:
480,134,63996,1,0,3:2:0:0:
459,168,64075,1,2,3:2:0:0:
420,178,64154,1,0,3:2:0:0:
252,309,64234,1,0,3:2:0:0:
210,310,64313,1,0,3:2:0:0:
379,297,64392,5,2,3:2:0:0:
399,294,64431,1,0,0:0:0:0:
419,295,64471,1,0,0:0:0:0:
252,99,64549,1,0,0:0:0:0:
232,96,64588,1,0,0:0:0:0:
212,97,64628,1,0,0:0:0:0:
380,55,64707,5,2,0:0:0:0:
417,71,64785,1,0,0:0:0:0:
439,106,64864,1,2,0:0:0:0:
439,147,64943,1,0,0:0:0:0:
271,206,65023,1,0,0:0:0:0:
233,222,65101,1,0,0:0:0:0:
211,257,65180,1,2,0:0:0:0:
211,298,65259,1,0,0:0:0:0:
379,297,65339,1,2,0:0:0:0:
420,295,65417,1,0,0:0:0:0:
446,263,65496,1,0,0:0:0:0:
446,220,65576,1,0,0:0:0:0:
211,298,65655,5,6,0:1:0:0:
240,88,84286,5,2,0:2:0:0:
200,97,84364,1,2,0:2:0:0:
174,129,84443,1,2,0:2:0:0:
171,169,84522,1,2,0:2:0:0:
256,194,84602,5,2,0:2:0:0:
297,194,84681,1,0,0:0:0:0:
256,184,84760,1,0,0:0:0:0:
172,265,84839,1,2,0:2:0:0:
130,265,84918,1,0,0:0:0:0:
170,258,84997,1,0,0:0:0:0:
326,308,85076,2,0,L|393:308,1,41.5,2|0,0:2|0:0,0:0:0:0:
201,72,85234,2,0,L|53:74,2,124.5,2|2|2,0:2|0:2|0:2,0:0:0:0:
419,84,85865,6,0,L|306:153,1,124.5,6|2,3:2|0:2,0:0:0:0:
270,172,86181,1,8,3:2:0:0:
353,174,86339,1,2,0:2:0:0:
203,225,86497,2,0,L|312:289,1,124.5,2|2,3:2|0:2,0:0:0:0:
353,318,86813,1,8,3:2:0:0:
353,318,86971,1,2,0:2:0:0:
135,310,87128,6,0,L|274:233,1,124.5,2|2,3:2|0:2,0:0:0:0:
287,216,87444,1,8,3:2:0:0:
370,213,87602,1,2,0:2:0:0:
155,151,87760,2,0,L|25:151,2,124.5,2|2|2,3:2|3:2|3:2,0:0:0:0:
196,155,88313,1,2,0:2:0:0:
359,329,88392,5,2,0:2:0:0:
467,244,88707,2,0,L|506:243,1,20.75,10|0,3:2|0:0,0:0:0:0:
283,240,89023,2,0,L|244:239,1,20.75,10|0,3:2|0:0,0:0:0:0:
409,58,89260,2,0,L|448:57,1,20.75,10|0,3:2|0:0,0:0:0:0:
285,59,89497,2,0,L|246:58,1,20.75,10|0,3:2|0:0,0:0:0:0:
410,142,89734,6,0,L|449:141,1,20.75,10|0,3:2|0:0,0:0:0:0:
295,138,89971,1,10,3:2:0:0:
256,151,90049,1,0,0:0:0:0:
289,175,90128,1,2,0:2:0:0:
329,184,90207,1,0,0:0:0:0:
369,183,90285,1,10,3:2:0:0:
404,205,90364,1,2,0:2:0:0:
421,242,90443,1,2,0:2:0:0:
416,282,90522,1,0,0:0:0:0:
251,297,90602,1,10,3:2:0:0:
229,296,90642,1,0,0:0:0:0:
249,291,90681,1,2,0:2:0:0:
405,62,90760,2,0,L|475:61,1,41.5,2|2,3:2|3:2,0:0:0:0:
269,72,90918,6,0,L|300:218,1,124.5,6|2,3:2|0:2,0:0:0:0:
337,79,91234,1,8,3:2:0:0:
337,79,91392,1,2,0:2:0:0:
188,162,91549,2,0,L|305:218,1,124.5,2|2,3:2|0:2,0:0:0:0:
343,230,91865,1,8,3:2:0:0:
426,231,92023,1,2,0:2:0:0:
210,319,92181,6,0,L|242:171,1,124.5,2|2,3:2|0:2,0:0:0:0:
279,168,92496,1,8,3:2:0:0:
362,167,92654,1,2,0:2:0:0:
140,177,92813,2,0,L|35:190,1,83,2|0,3:2|0:0,0:0:0:0:
179,39,93128,1,10,3:2:0:0:
137,40,93207,1,2,0:2:0:0:
112,73,93286,1,2,0:2:0:0:
142,99,93364,1,2,0:2:0:0:
300,96,93444,6,0,L|274:220,1,124.5,2|2,3:2|0:2,0:0:0:0:
232,103,93760,1,8,3:2:0:0:
232,103,93918,1,2,0:2:0:0:
372,205,94076,2,0,P|363:274|315:324,1,124.5,2|2,3:2|0:2,0:0:0:0:
277,309,94391,1,8,3:2:0:0:
323,281,94549,1,2,0:2:0:0:
93,243,94707,6,0,L|72:100,1,124.5,2|2,3:2|0:2,0:0:0:0:
116,114,95022,1,10,3:2:0:0:
198,105,95180,1,2,0:2:0:0:
429,184,95339,1,2,3:2:0:0:
468,197,95417,1,2,0:2:0:0:
435,221,95496,1,2,0:2:0:0:
395,230,95575,1,2,0:2:0:0:
355,229,95655,1,10,3:2:0:0:
320,251,95734,1,2,0:2:0:0:
316,292,95813,1,2,0:2:0:0:
356,302,95892,1,2,0:2:0:0:
206,305,95971,6,0,L|235:159,1,124.5,6|2,3:2|0:2,0:0:0:0:
272,133,96286,1,8,3:2:0:0:
355,131,96444,1,2,0:2:0:0:
204,346,96602,2,0,L|327:273,1,124.5,2|2,3:2|0:2,0:0:0:0:
354,225,96918,1,8,3:2:0:0:
270,223,97076,1,2,0:2:0:0:
52,187,97234,6,0,L|190:106,1,124.5,2|2,3:2|0:2,0:0:0:0:
201,36,97549,1,8,3:2:0:0:
118,39,97707,1,2,0:2:0:0:
336,222,97865,2,0,L|466:222,2,124.5,2|2|2,3:2|3:2|3:2,0:0:0:0:
295,226,98418,1,0,0:0:0:0:
142,312,98497,5,2,0:2:0:0:
34,227,98812,2,0,L|-5:226,1,20.75,10|0,3:2|0:0,0:0:0:0:
218,223,99128,2,0,L|257:222,1,20.75,10|0,3:2|0:0,0:0:0:0:
92,41,99365,2,0,L|53:40,1,20.75,10|0,3:2|0:0,0:0:0:0:
216,42,99602,2,0,L|255:41,1,20.75,10|0,3:2|0:0,0:0:0:0:
91,125,99839,6,0,L|52:124,1,20.75,10|0,3:2|0:0,0:0:0:0:
208,158,100076,1,10,3:2:0:0:
247,171,100154,1,0,0:0:0:0:
214,195,100233,1,2,0:2:0:0:
174,204,100312,1,2,0:2:0:0:
134,203,100392,1,10,3:2:0:0:
99,225,100471,1,2,0:2:0:0:
82,262,100548,1,2,0:2:0:0:
87,302,100627,1,2,0:2:0:0:
252,317,100707,1,10,3:2:0:0:
274,316,100747,1,0,0:0:0:0:
254,311,100786,1,2,0:2:0:0:
98,82,100865,2,0,L|28:81,1,41.5,2|2,3:2|3:2,0:0:0:0:
219,32,101023,6,0,L|189:177,1,124.5,6|2,3:2|0:2,0:0:0:0:
151,39,101339,1,8,3:2:0:0:
151,39,101497,1,2,0:2:0:0:
300,122,101655,2,0,L|183:173,1,124.5,2|2,3:2|0:2,0:0:0:0:
145,190,101970,1,8,3:2:0:0:
62,191,102128,1,2,0:2:0:0:
278,279,102286,6,0,L|246:128,1,124.5,2|2,3:2|0:2,0:0:0:0:
209,128,102601,1,8,3:2:0:0:
126,127,102759,1,2,0:2:0:0:
348,137,102918,2,0,L|455:139,1,83,2|0,3:2|0:0,0:0:0:0:
281,55,103234,1,8,3:2:0:0:
323,56,103313,1,0,0:0:0:0:
348,89,103392,1,2,0:2:0:0:
318,115,103470,1,2,0:2:0:0:
160,112,103549,5,2,3:2:0:0:
76,114,103707,1,0,3:2:0:0:
226,266,103865,1,10,3:2:0:0:
307,282,104023,1,2,3:2:0:0:
157,225,104181,1,2,3:2:0:0:
73,227,104339,1,0,3:2:0:0:
223,45,104497,1,10,3:2:0:0:
264,46,104576,1,2,0:2:0:0:
305,48,104655,1,2,3:2:0:0:
89,79,104813,5,2,3:2:0:0:
67,114,104891,1,0,3:2:0:0:
65,155,104970,1,0,3:2:0:0:
83,192,105049,1,2,3:2:0:0:
115,217,105128,1,8,3:2:0:0:
156,223,105207,1,0,3:2:0:0:
312,217,105286,2,0,L|379:216,1,41.5,2|0,3:2|3:2,0:0:0:0:
310,158,105444,2,0,L|234:154,1,41.5,0|2,3:2|3:2,0:0:0:0:
312,71,105602,2,0,L|388:67,1,41.5,0|0,3:2|3:2,0:0:0:0:
184,65,105760,5,10,3:2:0:0:
163,64,105799,1,0,0:0:0:0:
183,61,105839,1,0,3:2:0:0:
340,146,105918,1,2,3:2:0:0:
361,145,105957,1,0,0:0:0:0:
341,142,105997,1,0,3:2:0:0:
191,265,106076,6,0,L|52:265,1,124.5,2|0,0:2|0:0,0:0:0:0:
241,200,106392,2,0,L|345:202,1,83,14|0,3:1|0:0,0:0:0:0:
173,346,106707,2,0,L|174:241,1,83,0|0,3:2|0:0,0:0:0:0:
323,253,107023,2,0,L|323:157,1,83,10|0,3:2|0:0,0:0:0:0:
105,167,107339,6,0,L|10:169,2,83,0|0|8,3:2|0:0|3:2,0:0:0:0:
256,49,107813,2,0,L|258:146,1,83,2|0,0:2|3:2,0:0:0:0:
108,78,108128,1,2,0:2:0:0:
24,78,108286,1,8,3:2:0:0:
106,67,108444,1,2,0:2:0:0:
322,113,108602,6,0,L|416:112,1,83,2|0,3:2|0:0,0:0:0:0:
254,186,108918,1,10,3:2:0:0:
170,186,109076,1,2,0:2:0:0:
252,176,109234,1,2,3:2:0:0:
401,180,109392,1,2,0:2:0:0:
182,337,109549,2,0,L|182:199,1,83,10|2,3:2|0:2,0:0:0:0:
401,215,109865,6,0,L|269:146,1,124.5,2|2,3:2|0:2,0:0:0:0:
248,107,110181,1,8,3:2:0:0:
164,106,110339,1,2,0:2:0:0:
382,223,110497,1,0,3:2:0:0:
382,223,110576,1,2,0:2:0:0:
382,223,110655,1,0,0:0:0:0:
162,241,110813,2,0,L|55:242,1,83,10|2,3:2|0:2,0:0:0:0:
297,65,111128,5,2,3:2:0:0:
335,79,111206,1,2,0:2:0:0:
357,113,111285,1,2,0:2:0:0:
354,154,111364,1,2,0:2:0:0:
193,153,111444,2,0,L|88:153,1,83,14|2,3:2|0:2,0:0:0:0:
259,219,111760,1,2,3:2:0:0:
300,214,111838,1,2,0:2:0:0:
331,239,111917,1,2,0:2:0:0:
336,280,111996,1,0,0:0:0:0:
336,280,112076,2,0,L|235:280,1,83,10|2,3:2|0:2,0:0:0:0:
403,48,112392,5,2,3:2:0:0:
443,43,112470,1,2,0:2:0:0:
474,68,112549,1,2,0:2:0:0:
479,109,112628,1,0,0:0:0:0:
479,109,112708,2,0,L|378:109,1,83,10|2,3:2|0:2,0:0:0:0:
164,127,113023,1,2,3:2:0:0:
124,132,113101,1,2,0:2:0:0:
95,161,113180,1,2,0:2:0:0:
90,201,113259,1,0,0:0:0:0:
90,201,113339,2,0,L|173:201,1,83,10|2,3:2|0:2,0:0:0:0:
398,303,113655,6,0,L|397:29,1,249,6|0,3:2|0:0,0:0:0:0:
178,59,114286,2,0,L|49:59,1,83,8|0,3:2|0:0,0:0:0:0:
245,149,114602,1,0,3:2:0:0:
266,149,114642,1,0,3:2:0:0:
246,144,114681,1,0,3:2:0:0:
92,318,114760,1,10,3:2:0:0:
91,313,114839,1,2,0:2:0:0:
251,308,114918,5,2,0:2:0:0:
291,306,114996,1,0,0:0:0:0:
318,277,115075,1,0,3:2:0:0:
316,236,115154,1,0,3:2:0:0:
158,204,115234,1,8,3:2:0:0:
118,202,115312,1,0,0:0:0:0:
91,173,115391,1,2,3:2:0:0:
93,132,115470,1,0,0:0:0:0:
247,121,115549,2,0,L|330:115,1,83,10|0,3:2|0:0,0:0:0:0:
168,75,115786,2,0,L|75:68,1,83,10|0,3:2|0:0,0:0:0:0:
249,123,116023,1,10,3:2:0:0:
286,138,116101,1,0,0:0:0:0:
305,174,116181,5,0,0:0:0:0:
87,310,116339,1,0,0:0:0:0:
304,303,116497,2,0,L|406:303,1,83,14|2,3:1|0:2,0:0:0:0:
236,226,116813,1,0,3:2:0:0:
236,226,116971,1,0,0:0:0:0:
384,177,117128,2,0,L|384:78,1,83,10|2,3:2|0:2,0:0:0:0:
166,67,117444,6,0,L|64:67,1,83,0|0,3:2|0:0,0:0:0:0:
234,272,117760,1,8,3:2:0:0:
234,272,117918,1,2,0:2:0:0:
85,277,118076,2,0,L|85:177,1,83,2|2,3:2|0:2,0:0:0:0:
235,134,118392,2,0,L|124:135,1,83,10|2,3:2|0:2,0:0:0:0:
367,233,118707,5,2,3:2:0:0:
330,190,118865,1,2,0:2:0:0:
296,165,118944,1,0,0:2:0:0:
249,51,119023,2,0,L|211:144,1,83,10|2,3:2|0:2,0:0:0:0:
437,152,119339,2,0,L|439:246,1,83,2|2,3:2|0:2,0:0:0:0:
289,132,119655,1,10,3:2:0:0:
372,132,119813,1,2,0:2:0:0:
153,66,119971,6,0,L|153:160,1,83,0|2,3:2|0:2,0:0:0:0:
303,254,120286,2,0,L|303:353,1,83,8|2,3:2|0:2,0:0:0:0:
153,337,120602,1,2,3:2:0:0:
111,332,120681,1,0,0:2:0:0:
152,325,120760,1,0,0:2:0:0:
193,319,120839,1,0,0:0:0:0:
230,301,120917,1,10,3:2:0:0:
258,271,120996,1,0,0:2:0:0:
271,232,121075,1,0,0:2:0:0:
269,191,121154,1,0,0:0:0:0:
108,166,121234,6,0,L|17:168,1,83,6|2,3:2|3:2,0:0:0:0:
175,46,121549,1,10,3:2:0:0:
103,76,121706,1,2,3:2:0:0:
114,152,121864,1,2,3:2:0:0:
190,163,122022,1,2,3:2:0:0:
342,157,122181,1,10,3:2:0:0:
258,156,122339,1,2,3:2:0:0:
474,233,122497,5,2,3:2:0:0:
474,233,122655,1,2,3:2:0:0:
324,78,122813,1,10,3:2:0:0:
396,108,122970,1,2,3:2:0:0:
385,184,123128,1,2,3:2:0:0:
309,195,123286,1,2,3:2:0:0:
159,207,123444,1,10,3:2:0:0:
75,207,123602,1,2,3:2:0:0:
292,321,123760,5,10,3:2:0:0:
332,325,123838,1,0,3:2:0:0:
361,297,123917,1,0,3:2:0:0:
359,257,123996,1,0,0:0:0:0:
196,134,124076,1,10,3:2:0:0:
155,138,124154,1,0,3:2:0:0:
126,110,124233,1,0,3:2:0:0:
128,70,124312,1,0,0:0:0:0:
285,63,124392,5,10,3:2:0:0:
325,56,124470,1,0,3:2:0:0:
362,73,124549,1,0,3:2:0:0:
384,107,124628,1,0,3:2:0:0:
224,277,124707,1,10,3:2:0:0:
182,277,124785,1,0,3:2:0:0:
141,278,124864,1,0,3:2:0:0:
99,278,124943,1,0,3:2:0:0:
273,206,125023,6,0,L|393:199,1,83,10|0,3:2|3:2,0:0:0:0:
193,129,125260,2,0,L|86:116,1,83,10|0,3:2|3:2,0:0:0:0:
271,123,125497,2,0,L|378:110,1,83,10|0,3:2|3:2,0:0:0:0:
184,252,125734,2,0,L|98:251,1,83,10|0,3:2|3:2,0:0:0:0:
141,239,125971,1,10,3:2:0:0:
356,217,126128,1,10,3:2:0:0:
256,192,126602,5,6,3:1:0:0:
256,192,126760,12,0,133392,0:0:0:0:
