osu file format v14

[General]
AudioFilename: audio.mp3
AudioLeadIn: 0
PreviewTime: 84286
Countdown: 0
SampleSet: Soft
StackLeniency: 0.7
Mode: 2
LetterboxInBreaks: 0
WidescreenStoryboard: 1

[Editor]
Bookmarks: 20181,25234,35339,45444,55549,64392,65655,75760,85865,95971,106076,116181,126602,133392
DistanceSpacing: 1
BeatDivisor: 1
GridSize: 16
TimelineZoom: 1.900006

[Metadata]
Title:Angelica
TitleUnicode:Angelica
Artist:awfuless x yusi.
ArtistUnicode:awfuless × yusi.
Creator:zerokt
Version:Overdose
Source:音灵 INVAXION
Tags:PayneTrain electronic instrumental rhythm video game soundtrack edm vgm drumstep hardcore artcore yin ling sound spirit
BeatmapID:3249296
BeatmapSetID:1588038

[Difficulty]
HPDrainRate:5.5
CircleSize:4.2
OverallDifficulty:9.4
ApproachRate:9.4
SliderMultiplier:1.87
SliderTickRate:2

[Events]
//Background and Video events
0,0,"bg.jpg",0,0
//Break Periods
2,65855,83716
//Storyboard Layer 0 (Background)
//Storyboard Layer 1 (Fail)
//Storyboard Layer 2 (Pass)
//Storyboard Layer 3 (Foreground)
//Storyboard Layer 4 (Overlay)
//Storyboard Sound Samples

[TimingPoints]
-29,315.789473684211,4,2,69,40,1,0
21444,-100,4,2,69,50,0,0
22707,-100,4,2,69,60,0,0
23971,-100,4,2,69,70,0,0
25234,-100,4,2,69,80,0,0
26971,-100,4,2,69,80,0,0
27128,-100,4,2,69,80,0,0
27760,-100,4,2,69,80,0,0
28155,-100,4,2,69,80,0,0
29023,-100,4,2,69,80,0,0
29181,-100,4,2,69,80,0,0
30286,-100,4,2,69,80,0,0
30918,-100,4,2,69,80,0,0
32023,-100,4,2,69,80,0,0
32339,-100,4,2,69,80,0,0
33444,-100,4,2,69,80,0,0
33602,-100,4,2,69,80,0,0
37865,-100,4,2,69,80,0,0
38181,-100,4,2,69,80,0,0
40392,-100,4,2,69,80,0,0
41497,-100,4,2,69,40,0,0
41536,-100,4,2,69,50,0,0
41576,-100,4,2,69,60,0,0
41615,-100,4,2,69,70,0,0
41655,-100,4,2,69,80,0,0
42128,-100,4,2,69,80,0,0
42286,-100,4,2,69,80,0,0
42918,-100,4,2,69,80,0,0
43313,-100,4,2,69,80,0,0
45286,-100,4,2,69,80,0,0
45444,-100,4,2,69,80,0,0
45760,-100,4,2,69,80,0,0
55549,-100,4,2,69,80,0,0
55786,-100,4,2,69,5,0,0
55865,-100,4,2,69,80,0,0
60602,-100,4,2,69,80,0,0
64392,-100,4,2,69,60,0,0
64707,-100,4,2,69,65,0,0
65023,-100,4,2,69,70,0,0
65339,-100,4,2,69,75,0,0
65655,-100,4,2,69,80,0,0
83339,-100,4,2,69,50,0,0
84839,-100,4,2,69,55,0,0
85076,-100,4,2,69,60,0,0
85234,-100,4,2,69,70,0,0
85865,-100,4,2,69,80,0,1
106076,-100,4,2,69,80,0,0
106313,-100,4,2,69,5,0,0
106392,-100,4,2,69,80,0,0
113655,-100,4,2,69,80,0,0
114444,-100,4,2,69,80,0,0
115549,-100,4,2,69,80,0,0
115786,-86.9565217391304,4,2,69,80,0,0
116023,-66.6666666666667,4,2,69,80,0,0
116142,-100,4,2,69,55,0,0
116260,-100,4,2,69,80,0,0
116497,-100,4,2,69,80,0,0
125023,-100,4,2,69,80,0,0
127549,-100,4,2,69,50,0,0
128813,-100,4,2,69,40,0,0
130076,-100,4,2,69,30,0,0
131339,-100,4,2,69,20,0,0
132602,-100,4,2,69,10,0,0

[Colours]
Combo1 : 170,78,64
Combo2 : 255,208,202
Combo3 : 255,134,117
Combo4 : 255,88,64

[HitObjects]
256,192,20181,12,0,24918,0:0:0:0:
161,82,25234,5,2,0:2:0:0:
117,91,25312,1,0,0:0:0:0:
89,128,25391,1,0,0:0:0:0:
92,173,25470,1,0,0:0:0:0:
245,28,25549,1,0,0:0:0:0:
289,37,25627,1,0,0:0:0:0:
317,74,25706,1,0,0:0:0:0:
314,119,25785,1,0,0:0:0:0:
145,329,25865,5,14,3:1:0:0:
121,329,25904,1,0,0:0:0:0:
99,321,25943,1,0,0:0:0:0:
82,305,25983,1,0,0:0:0:0:
71,285,26022,1,2,0:2:0:0:
68,262,26062,1,0,0:0:0:0:
74,239,26101,1,2,0:2:0:0:
214,235,26181,2,0,L|288:234,1,46.75,2|0,0:2|0:0,0:0:0:0:
116,126,26339,2,0,L|55:125,1,46.75,0|0,3:2|0:0,0:0:0:0:
219,44,26497,5,2,3:2:0:0:
263,53,26575,1,2,0:2:0:0:
291,90,26654,1,2,3:2:0:0:
288,135,26733,1,2,0:2:0:0:
146,216,26813,2,0,L|79:216,1,46.75,2|2,3:2|0:2,0:0:0:0:
252,277,26971,2,0,L|205:276,1,46.75,2|2,3:2|3:2,0:0:0:0:
349,210,27128,1,10,3:2:0:0:
349,210,27286,1,0,3:2:0:0:
134,65,27444,1,2,3:2:0:0:
87,66,27523,1,2,3:2:0:0:
133,66,27602,1,2,3:2:0:0:
352,72,27760,6,0,B|414:83|414:83|457:174,1,140.25,2|0,3:2|0:0,0:0:0:0:
283,202,28076,1,2,3:2:0:0:
236,210,28154,1,2,0:0:0:0:
332,30,28233,1,2,3:2:0:0:
352,72,28312,1,2,3:2:0:0:
186,143,28392,2,0,L|72:144,1,93.5,10|0,3:2|3:2,0:0:0:0:
186,144,28707,1,2,3:2:0:0:
407,253,28865,1,8,3:2:0:0:
409,300,28944,1,0,0:0:0:0:
233,329,29023,6,0,L|148:330,1,46.75,2|0,3:2|0:0,0:0:0:0:
331,142,29181,1,0,3:2:0:0:
354,145,29221,1,0,3:2:0:0:
371,160,29260,1,0,0:0:0:0:
205,113,29339,1,2,3:2:0:0:
181,113,29378,1,0,0:0:0:0:
159,105,29417,1,0,0:0:0:0:
141,90,29457,1,0,0:0:0:0:
129,70,29496,1,0,0:0:0:0:
125,48,29536,1,0,0:0:0:0:
129,25,29575,1,0,0:0:0:0:
285,39,29655,6,0,L|373:39,1,46.75,10|0,3:2|0:0,0:0:0:0:
379,39,29813,1,0,3:2:0:0:
236,292,29892,1,0,3:2:0:0:
379,291,29971,2,0,L|376:211,1,46.75,10|0,3:2|0:0,0:0:0:0:
236,292,30128,2,0,L|157:291,1,46.75,8|0,3:2|0:0,0:0:0:0:
362,125,30286,5,6,3:1:0:0:
407,139,30364,1,0,0:0:0:0:
440,171,30443,1,0,0:0:0:0:
457,214,30522,1,0,0:0:0:0:
454,260,30601,1,2,3:2:0:0:
431,301,30680,1,2,0:2:0:0:
393,328,30759,1,2,0:2:0:0:
347,336,30838,1,0,0:0:0:0:
201,334,30918,6,0,L|128:334,1,46.75,10|0,3:2|0:0,0:0:0:0:
250,247,31076,2,0,L|323:247,1,46.75,2|2,0:2|0:2,0:0:0:0:
448,112,31234,1,2,0:2:0:0:
448,158,31312,1,0,0:0:0:0:
410,185,31391,1,0,3:2:0:0:
363,183,31470,1,0,0:0:0:0:
201,53,31549,6,0,L|154:53,1,46.75,2|2,3:2|0:2,0:0:0:0:
247,114,31707,2,0,L|293:114,1,46.75,2|2,3:2|0:2,0:0:0:0:
198,166,31865,2,0,L|198:240,1,46.75,2|2,3:2|3:2,0:0:0:0:
366,262,32023,2,0,L|480:262,1,93.5,2|10,3:2|3:2,0:0:0:0:
221,293,32339,2,0,L|175:292,1,46.75,0|0,3:2|0:0,0:0:0:0:
269,135,32497,1,2,3:2:0:0:
314,140,32575,1,2,3:2:0:0:
345,174,32654,1,2,3:2:0:0:
346,219,32733,1,2,3:2:0:0:
162,127,32813,6,0,B|100:138|100:138|57:229,1,140.25,2|0,3:2|0:0,0:0:0:0:
231,257,33129,1,2,3:2:0:0:
278,265,33207,1,2,0:2:0:0:
182,85,33286,1,2,0:2:0:0:
162,127,33365,1,2,0:2:0:0:
352,63,33444,5,10,3:2:0:0:
328,66,33483,1,0,0:0:0:0:
308,76,33522,1,0,0:0:0:0:
292,93,33562,1,0,0:0:0:0:
283,115,33601,1,0,3:2:0:0:
281,138,33641,1,0,0:0:0:0:
288,160,33680,1,0,3:2:0:0:
301,179,33720,1,0,0:0:0:0:
320,192,33759,1,2,3:2:0:0:
343,198,33799,1,0,0:0:0:0:
366,196,33838,1,0,0:0:0:0:
197,312,33918,2,0,L|128:313,1,46.75,8|0,3:2|0:0,0:0:0:0:
305,236,34076,6,0,L|373:236,1,46.75,2|0,3:2|3:2,0:0:0:0:
257,54,34234,2,0,L|188:54,1,46.75,0|0,3:2|0:0,0:0:0:0:
67,330,34392,2,0,L|-1:330,1,46.75,10|0,3:2|0:0,0:0:0:0:
115,148,34550,2,0,L|184:148,1,46.75,2|2,3:2|3:2,0:0:0:0:
67,205,34707,2,0,L|69:280,1,46.75,2|2,3:2|0:2,0:0:0:0:
232,268,34865,5,10,3:2:0:0:
254,274,34904,1,0,0:0:0:0:
277,272,34943,1,0,0:0:0:0:
298,262,34983,1,0,0:0:0:0:
315,245,35022,1,2,0:2:0:0:
325,224,35062,1,0,0:0:0:0:
327,201,35101,1,0,0:0:0:0:
161,148,35181,2,0,L|94:148,1,46.75,0|0,3:2|0:0,0:0:0:0:
318,123,35339,6,0,P|382:159|378:237,1,140.25,6|0,3:1|0:0,0:0:0:0:
221,192,35655,1,2,0:2:0:0:
174,193,35733,1,2,0:2:0:0:
221,192,35812,1,2,0:2:0:0:
267,189,35891,1,0,0:0:0:0:
123,344,35971,1,10,3:2:0:0:
123,344,36129,1,2,0:2:0:0:
344,76,36287,1,2,0:2:0:0:
391,77,36366,1,0,0:0:0:0:
345,77,36445,1,0,3:2:0:0:
130,86,36602,5,2,3:2:0:0:
86,97,36680,1,2,0:2:0:0:
58,134,36759,1,2,3:2:0:0:
61,179,36838,1,2,0:2:0:0:
207,273,36919,1,2,3:2:0:0:
254,281,36997,1,2,0:2:0:0:
85,233,37076,1,2,3:2:0:0:
40,246,37155,1,2,3:2:0:0:
227,191,37234,1,10,3:2:0:0:
258,192,37392,1,0,3:2:0:0:
39,109,37550,1,2,3:2:0:0:
15,118,37628,1,2,3:2:0:0:
39,109,37707,1,2,3:2:0:0:
88,101,37786,1,2,3:2:0:0:
283,95,37866,6,0,B|345:106|345:106|388:197,1,140.25,2|0,3:2|0:0,0:0:0:0:
214,225,38181,1,2,3:2:0:0:
167,233,38259,1,2,0:2:0:0:
263,53,38338,1,2,3:2:0:0:
283,95,38417,1,2,3:2:0:0:
140,141,38497,1,10,3:2:0:0:
93,143,38576,1,0,0:0:0:0:
186,96,38655,1,0,3:2:0:0:
232,96,38734,1,0,0:0:0:0:
377,289,38813,1,2,3:2:0:0:
423,293,38892,1,0,0:0:0:0:
249,208,38971,1,8,3:2:0:0:
203,212,39050,1,0,0:0:0:0:
358,175,39128,5,2,3:2:0:0:
358,175,39207,1,0,0:0:0:0:
217,303,39286,1,0,3:2:0:0:
193,302,39326,1,0,3:2:0:0:
169,302,39365,1,0,3:2:0:0:
358,175,39444,5,2,3:2:0:0:
336,182,39483,1,0,0:0:0:0:
321,200,39522,1,0,0:0:0:0:
317,222,39562,1,0,0:0:0:0:
325,244,39601,1,0,0:0:0:0:
343,258,39641,1,0,0:0:0:0:
366,262,39680,1,0,0:0:0:0:
208,139,39760,1,10,3:2:0:0:
161,137,39839,1,0,0:0:0:0:
325,102,39918,1,0,3:2:0:0:
278,100,39997,1,0,3:2:0:0:
130,91,40076,1,10,3:2:0:0:
83,89,40155,1,0,0:0:0:0:
255,251,40234,1,8,3:2:0:0:
302,249,40313,1,0,0:0:0:0:
97,242,40392,5,2,3:2:0:0:
256,192,40471,12,2,41181,0:2:0:0:
215,313,41339,6,0,L|138:313,1,46.75,14|0,3:1|0:0,0:0:0:0:
324,80,41497,1,0,3:2:0:0:
347,79,41536,1,0,3:2:0:0:
323,77,41576,1,0,3:2:0:0:
178,137,41655,5,2,3:2:0:0:
131,138,41734,1,2,0:2:0:0:
225,229,41813,1,2,3:2:0:0:
259,256,41891,1,2,0:2:0:0:
251,300,41970,1,2,3:2:0:0:
209,312,42049,1,2,0:2:0:0:
66,311,42128,2,0,L|-20:311,1,46.75,2|0,3:2|3:2,0:0:0:0:
195,92,42286,1,10,3:2:0:0:
270,116,42443,5,0,3:2:0:0:
288,159,42522,1,0,0:0:0:0:
143,165,42602,1,2,3:2:0:0:
97,164,42680,1,2,3:2:0:0:
59,189,42759,1,2,3:2:0:0:
41,232,42838,1,2,3:2:0:0:
195,274,42918,6,0,L|369:273,1,140.25,2|0,3:2|0:0,0:0:0:0:
190,137,43234,1,2,3:2:0:0:
143,137,43312,1,2,0:2:0:0:
190,137,43391,1,2,0:2:0:0:
236,137,43470,1,2,0:2:0:0:
85,66,43549,1,10,3:2:0:0:
48,93,43627,1,0,0:0:0:0:
30,136,43706,5,0,3:2:0:0:
32,160,43747,1,0,0:0:0:0:
36,182,43785,1,0,3:2:0:0:
47,203,43826,1,0,0:0:0:0:
64,218,43864,1,2,3:2:0:0:
113,235,43943,1,0,0:0:0:0:
263,244,44023,2,0,L|336:244,1,46.75,8|0,3:2|0:0,0:0:0:0:
162,146,44181,5,2,3:2:0:0:
138,148,44221,1,0,0:0:0:0:
161,148,44260,1,0,3:2:0:0:
207,146,44339,1,0,3:2:0:0:
253,145,44418,1,0,0:0:0:0:
403,219,44497,1,10,3:2:0:0:
402,242,44536,1,0,0:0:0:0:
381,253,44576,1,0,0:0:0:0:
334,256,44655,1,0,3:2:0:0:
310,257,44694,1,0,0:0:0:0:
286,258,44734,1,0,3:2:0:0:
139,302,44813,5,2,3:2:0:0:
101,305,44833,1,0,0:0:0:0:
115,304,44852,1,0,0:0:0:0:
79,300,44873,1,0,0:0:0:0:
93,299,44892,1,0,0:0:0:0:
58,289,44912,1,0,0:0:0:0:
72,288,44931,1,0,0:0:0:0:
42,273,44951,1,0,0:0:0:0:
56,272,44971,1,0,0:0:0:0:
30,252,44991,1,0,0:0:0:0:
44,251,45010,1,0,0:0:0:0:
25,230,45031,1,0,0:0:0:0:
39,229,45050,1,0,0:0:0:0:
27,207,45070,1,0,0:0:0:0:
41,206,45089,1,0,0:0:0:0:
34,185,45110,1,0,0:0:0:0:
48,184,45129,1,0,0:0:0:0:
48,166,45149,1,0,0:0:0:0:
62,165,45168,1,0,0:0:0:0:
66,152,45188,1,0,0:0:0:0:
80,151,45207,1,0,0:0:0:0:
231,55,45286,6,0,L|298:54,1,46.75,0|0,0:0|0:0,0:0:0:0:
119,58,45444,1,2,0:2:0:0:
72,58,45523,1,0,0:0:0:0:
227,173,45602,1,0,0:0:0:0:
251,174,45642,1,0,0:0:0:0:
274,175,45681,1,0,0:0:0:0:
15,150,45760,6,0,L|15:270,1,93.5,6|0,3:1|0:0,0:0:0:0:
165,132,46076,2,0,L|166:31,1,93.5,2|2,3:2|0:2,0:0:0:0:
392,107,46392,2,0,L|394:218,1,93.5,2|0,3:2|0:0,0:0:0:0:
176,222,46707,5,0,3:2:0:0:
393,200,46865,2,0,L|392:107,1,93.5,2|0,0:2|3:2,0:0:0:0:
241,103,47181,2,0,L|138:103,1,93.5,2|0,0:2|3:2,0:0:0:0:
365,293,47497,2,0,L|468:293,1,93.5,2|2,0:2|3:2,0:0:0:0:
237,297,47813,1,0,0:0:0:0:
454,74,47971,6,0,L|454:182,1,93.5,2|0,3:2|0:0,0:0:0:0:
302,172,48286,2,0,L|301:292,1,93.5,2|0,3:2|0:0,0:0:0:0:
147,255,48602,2,0,L|145:361,1,93.5,2|2,3:2|0:2,0:0:0:0:
367,252,48918,2,0,L|473:252,1,93.5,2|2,3:2|0:2,0:0:0:0:
366,241,49234,5,0,3:2:0:0:
147,255,49392,2,0,L|146:93,1,93.5,2|0,0:2|3:2,0:0:0:0:
297,149,49707,1,2,0:2:0:0:
203,150,49865,1,2,3:2:0:0:
109,150,50023,1,2,0:2:0:0:
325,300,50181,2,0,L|325:164,1,93.5,2|2,3:2|0:2,0:0:0:0:
37,181,50497,6,0,L|37:88,1,93.5,2|0,0:2|0:0,0:0:0:0:
263,84,50813,2,0,L|376:85,1,93.5,6|0,3:1|0:0,0:0:0:0:
207,308,51128,2,0,L|207:206,1,93.5,2|2,3:2|0:2,0:0:0:0:
425,223,51444,2,0,L|425:121,1,93.5,2|0,3:2|0:0,0:0:0:0:
208,64,51760,5,0,3:2:0:0:
425,129,51918,2,0,L|425:223,1,93.5,2|0,0:2|3:2,0:0:0:0:
273,253,52234,2,0,L|388:252,1,93.5,2|2,0:2|3:2,0:0:0:0:
149,250,52549,2,0,L|34:249,1,93.5,2|2,0:2|3:2,0:0:0:0:
272,255,52865,1,0,0:0:0:0:
55,249,53023,5,2,3:2:0:0:
92,225,53101,1,0,0:0:0:0:
89,181,53180,1,0,0:0:0:0:
49,164,53259,1,0,0:0:0:0:
196,72,53339,2,0,L|267:72,1,46.75,2|2,3:2|0:2,0:0:0:0:
87,65,53497,1,2,0:2:0:0:
63,66,53536,1,0,0:0:0:0:
86,66,53576,1,0,0:0:0:0:
244,306,53655,6,0,L|352:307,1,93.5,10|2,3:2|0:2,0:0:0:0:
120,219,53971,1,2,0:2:0:0:
96,219,54010,1,0,0:0:0:0:
73,219,54049,1,2,0:2:0:0:
232,63,54128,1,2,3:2:0:0:
255,63,54167,1,0,0:0:0:0:
232,63,54206,1,2,0:2:0:0:
76,72,54286,5,2,3:2:0:0:
77,96,54326,1,0,0:0:0:0:
99,98,54365,1,0,0:0:0:0:
240,249,54444,1,2,3:2:0:0:
285,250,54522,1,2,3:2:0:0:
322,278,54601,1,2,3:2:0:0:
335,322,54680,1,0,0:0:0:0:
174,328,54760,2,0,L|98:329,1,46.75,2|0,3:2|0:0,0:0:0:0:
293,82,54918,5,10,3:2:0:0:
256,108,54996,1,0,0:0:0:0:
259,153,55075,1,2,0:2:0:0:
298,175,55154,1,0,0:0:0:0:
136,55,55234,1,2,0:2:0:0:
113,49,55273,1,0,0:0:0:0:
90,52,55312,1,0,0:0:0:0:
70,64,55352,1,0,0:0:0:0:
56,82,55391,1,0,0:0:0:0:
50,104,55431,1,0,0:0:0:0:
54,127,55470,1,0,0:0:0:0:
216,279,55549,6,0,L|397:276,1,140.25,2|0,0:2|0:0,0:0:0:0:
169,122,55865,2,0,L|169:223,1,93.5,6|0,3:1|0:0,0:0:0:0:
319,213,56181,2,0,L|321:336,1,93.5,2|2,3:2|0:2,0:0:0:0:
98,167,56497,6,0,P|44:133|125:61,1,187,2|0,3:2|3:2,0:0:0:0:
253,137,56971,2,0,L|254:250,1,93.5,2|0,0:2|3:2,0:0:0:0:
104,138,57286,1,2,0:2:0:0:
253,137,57444,1,0,3:2:0:0:
403,138,57602,1,2,0:2:0:0:
169,161,57760,2,0,L|170:278,1,93.5,2|0,3:2|0:0,0:0:0:0:
389,239,58076,6,0,L|390:356,1,93.5,2|0,3:2|0:0,0:0:0:0:
169,340,58392,2,0,L|75:340,1,93.5,2|0,3:2|0:0,0:0:0:0:
225,60,58707,1,2,3:2:0:0:
131,60,58865,1,2,0:2:0:0:
354,185,59023,6,0,P|417:239|344:278,1,187,2|0,3:2|3:2,0:0:0:0:
128,273,59497,1,2,0:2:0:0:
128,273,59655,1,0,3:2:0:0:
352,281,59813,1,2,0:2:0:0:
128,273,59971,2,0,L|24:272,1,93.5,2|2,3:2|0:2,0:0:0:0:
251,128,60286,2,0,L|355:127,1,93.5,2|0,3:2|0:0,0:0:0:0:
115,142,60602,5,6,3:1:0:0:
39,206,60759,1,0,3:2:0:0:
191,239,60918,1,2,3:2:0:0:
281,255,61075,1,0,3:2:0:0:
131,143,61233,1,2,3:2:0:0:
113,54,61391,1,2,3:2:0:0:
331,97,61549,1,2,3:2:0:0:
420,79,61707,1,2,3:2:0:0:
170,239,61865,5,0,3:2:0:0:
386,245,62023,1,2,3:2:0:0:
475,227,62181,1,0,3:2:0:0:
324,183,62339,1,2,3:2:0:0:
306,94,62497,1,2,3:2:0:0:
455,92,62655,1,2,3:2:0:0:
234,287,62813,1,2,3:2:0:0:
140,285,62971,1,0,3:2:0:0:
359,88,63128,5,2,3:2:0:0:
404,93,63206,1,0,3:2:0:0:
436,125,63285,1,0,3:2:0:0:
440,170,63364,1,0,0:0:0:0:
298,286,63444,2,0,L|296:230,1,46.75,2|0,3:2|3:2,0:0:0:0:
382,206,63602,2,0,L|379:145,1,46.75,0|0,3:2|0:0,0:0:0:0:
295,110,63760,2,0,L|248:110,1,46.75,2|0,3:2|3:2,0:0:0:0:
103,118,63918,5,0,3:2:0:0:
98,163,63996,1,0,3:2:0:0:
129,196,64075,1,2,3:2:0:0:
174,196,64154,1,0,3:2:0:0:
331,285,64234,1,0,3:2:0:0:
378,286,64313,1,0,3:2:0:0:
208,345,64392,5,2,3:2:0:0:
186,344,64431,1,0,0:0:0:0:
167,331,64470,1,0,0:0:0:0:
160,309,64510,1,0,0:0:0:0:
167,287,64549,1,0,0:0:0:0:
186,273,64589,1,0,0:0:0:0:
209,274,64628,1,0,0:0:0:0:
368,83,64707,5,2,0:0:0:0:
391,83,64747,1,0,0:0:0:0:
391,106,64786,1,0,0:0:0:0:
222,122,64865,1,2,0:0:0:0:
199,122,64905,1,0,0:0:0:0:
199,145,64944,1,0,0:0:0:0:
377,239,65023,1,0,0:0:0:0:
400,240,65063,1,0,0:0:0:0:
376,239,65102,1,0,0:0:0:0:
188,229,65181,1,2,0:0:0:0:
165,230,65221,1,0,0:0:0:0:
189,229,65260,1,0,0:0:0:0:
390,205,65339,5,2,0:0:0:0:
405,200,65359,1,0,0:0:0:0:
413,206,65378,1,0,0:0:0:0:
428,201,65398,1,0,0:0:0:0:
433,195,65417,1,0,0:0:0:0:
448,190,65437,1,0,0:0:0:0:
445,176,65457,1,0,0:0:0:0:
460,171,65477,1,0,0:0:0:0:
445,153,65496,1,0,0:0:0:0:
460,148,65516,1,0,0:0:0:0:
433,133,65536,1,0,0:0:0:0:
448,128,65556,1,0,0:0:0:0:
413,122,65575,1,0,0:0:0:0:
149,56,65655,5,6,0:1:0:0:
170,113,84286,5,2,0:2:0:0:
201,145,84364,1,2,0:2:0:0:
191,188,84443,1,2,0:2:0:0:
149,204,84522,1,2,0:2:0:0:
292,68,84602,6,0,L|367:68,1,46.75,2|0,0:2|0:0,0:0:0:0:
194,69,84760,1,0,0:0:0:0:
148,72,84839,1,2,0:2:0:0:
114,103,84917,1,0,0:0:0:0:
108,148,84996,1,0,0:0:0:0:
257,298,85076,2,0,L|166:296,1,46.75,2|0,0:2|0:0,0:0:0:0:
356,179,85234,6,0,L|475:171,1,93.5,2|0,0:2|0:0,0:0:0:0:
300,81,85471,2,0,L|181:73,1,93.5,2|0,0:2|0:0,0:0:0:0:
356,176,85707,2,0,L|357:235,1,46.75,2|0,0:2|0:0,0:0:0:0:
189,251,85865,6,0,L|88:250,1,93.5,6|0,3:2|0:0,0:0:0:0:
133,221,86102,1,2,0:2:0:0:
225,202,86181,2,0,L|228:123,1,46.75,8|0,3:2|0:0,0:0:0:0:
131,134,86339,2,0,L|131:69,1,46.75,2|0,0:2|0:0,0:0:0:0:
283,333,86497,2,0,L|384:332,1,93.5,2|0,3:2|0:0,0:0:0:0:
339,303,86734,1,2,0:2:0:0:
247,284,86813,2,0,L|244:205,1,46.75,8|0,3:2|0:0,0:0:0:0:
341,216,86971,2,0,L|410:217,1,46.75,2|0,0:2|0:0,0:0:0:0:
239,64,87128,6,0,L|122:67,1,93.5,2|0,3:2|0:0,0:0:0:0:
190,79,87365,1,2,0:2:0:0:
284,147,87444,2,0,L|351:145,1,46.75,8|0,3:2|0:0,0:0:0:0:
235,208,87602,2,0,L|188:206,1,46.75,2|0,0:2|0:0,0:0:0:0:
333,305,87760,2,0,P|389:284|390:244,1,93.5,2|0,3:2|0:0,0:0:0:0:
248,254,87997,2,0,P|192:233|191:193,1,93.5,2|0,3:2|0:0,0:0:0:0:
394,256,88234,1,2,3:2:0:0:
440,254,88313,1,2,0:2:0:0:
248,254,88392,5,2,0:2:0:0:
432,124,88707,2,0,L|475:125,1,23.375,10|0,3:2|0:0,0:0:0:0:
242,123,89023,2,0,L|199:124,1,23.375,10|0,3:2|0:0,0:0:0:0:
359,258,89260,2,0,L|402:259,1,23.375,10|0,3:2|0:0,0:0:0:0:
207,317,89497,2,0,L|164:318,1,23.375,10|0,3:2|0:0,0:0:0:0:
358,162,89734,6,0,L|401:163,1,23.375,10|0,3:2|0:0,0:0:0:0:
194,148,89971,1,10,3:2:0:0:
240,146,90049,1,0,0:0:0:0:
273,178,90128,1,2,0:2:0:0:
272,223,90207,1,0,0:0:0:0:
121,241,90286,1,10,3:2:0:0:
74,240,90364,1,2,0:2:0:0:
121,241,90443,1,2,0:2:0:0:
167,240,90522,1,0,0:0:0:0:
320,63,90602,1,10,3:2:0:0:
343,63,90642,1,0,0:0:0:0:
319,62,90681,1,2,0:2:0:0:
174,57,90760,1,2,3:2:0:0:
127,57,90839,1,2,3:2:0:0:
294,325,90918,6,0,L|402:324,1,93.5,6|0,3:2|0:0,0:0:0:0:
342,311,91155,1,2,0:2:0:0:
249,284,91234,2,0,L|249:204,1,46.75,8|0,3:2|0:0,0:0:0:0:
344,212,91392,2,0,L|344:147,1,46.75,2|2,0:2|0:2,0:0:0:0:
199,210,91549,2,0,L|91:209,1,93.5,2|0,3:2|0:0,0:0:0:0:
151,196,91786,1,2,0:2:0:0:
244,169,91865,2,0,L|244:89,1,46.75,8|0,3:2|0:0,0:0:0:0:
149,97,92023,2,0,L|66:100,1,46.75,2|0,0:2|0:0,0:0:0:0:
248,126,92181,6,0,L|299:215,1,93.5,2|0,3:2|0:0,0:0:0:0:
248,218,92418,1,2,0:2:0:0:
155,221,92497,2,0,L|77:220,1,46.75,8|0,3:2|0:0,0:0:0:0:
204,306,92655,2,0,L|250:306,1,46.75,2|0,0:2|0:0,0:0:0:0:
396,300,92813,2,0,P|436:271|422:232,1,93.5,2|0,3:2|0:0,0:0:0:0:
378,225,93049,1,2,0:2:0:0:
229,219,93128,1,10,3:2:0:0:
183,218,93206,1,2,0:2:0:0:
153,184,93285,1,2,0:2:0:0:
157,139,93364,1,2,0:2:0:0:
317,131,93444,6,0,L|441:130,1,93.5,2|0,3:2|0:0,0:0:0:0:
363,127,93681,1,2,0:2:0:0:
269,107,93760,2,0,L|269:55,1,46.75,8|0,3:2|0:0,0:0:0:0:
363,55,93918,2,0,L|363:2,1,46.75,2|0,0:2|0:0,0:0:0:0:
212,297,94076,2,0,L|88:296,1,93.5,2|0,3:2|0:0,0:0:0:0:
166,293,94313,1,2,0:2:0:0:
260,273,94392,2,0,L|260:221,1,46.75,8|0,3:2|0:0,0:0:0:0:
166,221,94550,2,0,L|166:168,1,46.75,2|0,0:2|0:0,0:0:0:0:
311,143,94707,6,0,L|422:141,1,93.5,2|0,3:2|0:0,0:0:0:0:
357,140,94944,1,2,0:2:0:0:
261,96,95023,2,0,L|170:99,1,46.75,10|2,3:2|0:2,0:0:0:0:
310,36,95181,2,0,L|401:39,1,46.75,2|0,0:2|0:0,0:0:0:0:
214,176,95339,1,2,3:2:0:0:
170,188,95417,1,2,0:2:0:0:
150,229,95496,1,2,0:2:0:0:
167,271,95575,1,2,0:2:0:0:
319,289,95655,1,10,3:2:0:0:
277,275,95733,1,2,0:2:0:0:
275,231,95812,1,2,0:2:0:0:
315,215,95891,1,2,0:2:0:0:
164,93,95971,6,0,L|53:71,1,93.5,6|0,3:2|0:0,0:0:0:0:
117,62,96207,1,2,0:2:0:0:
211,55,96286,2,0,L|294:56,1,46.75,8|0,3:2|0:0,0:0:0:0:
162,154,96444,2,0,L|164:232,1,46.75,2|0,0:2|0:0,0:0:0:0:
313,161,96602,2,0,L|424:139,1,93.5,2|0,3:2|0:0,0:0:0:0:
360,130,96838,1,2,0:2:0:0:
264,119,96918,2,0,L|208:119,1,46.75,8|0,3:2|0:0,0:0:0:0:
312,230,97076,2,0,L|314:299,1,46.75,2|2,0:2|0:2,0:0:0:0:
157,302,97234,6,0,L|76:249,1,93.5,2|0,3:2|0:0,0:0:0:0:
126,248,97471,1,2,0:2:0:0:
218,242,97549,2,0,L|137:239,1,46.75,8|0,3:2|0:0,0:0:0:0:
75,171,97707,2,0,L|28:171,1,46.75,2|2,0:2|0:2,0:0:0:0:
177,52,97865,2,0,L|66:52,1,93.5,2|0,3:2|0:0,0:0:0:0:
236,92,98102,2,0,L|347:92,1,93.5,2|0,3:2|0:0,0:0:0:0:
184,171,98339,1,2,3:2:0:0:
137,172,98418,1,0,0:0:0:0:
349,270,98497,5,2,0:2:0:0:
115,126,98813,2,0,L|115:95,1,23.375,10|0,3:2|0:0,0:0:0:0:
327,261,99128,2,0,L|372:262,1,23.375,10|0,3:2|0:0,0:0:0:0:
187,60,99365,2,0,L|142:61,1,23.375,10|0,3:2|0:0,0:0:0:0:
340,96,99602,2,0,L|385:97,1,23.375,10|0,3:2|0:0,0:0:0:0:
188,185,99839,6,0,L|143:186,1,23.375,10|0,3:2|0:0,0:0:0:0:
440,271,100076,2,0,L|511:269,1,46.75,10|0,3:2|0:0,0:0:0:0:
320,61,100234,2,0,L|237:62,1,46.75,2|2,0:2|0:2,0:0:0:0:
419,91,100392,1,10,3:2:0:0:
375,100,100470,1,2,0:2:0:0:
375,146,100549,1,2,0:2:0:0:
421,150,100628,1,2,0:2:0:0:
274,241,100707,1,10,3:2:0:0:
250,241,100747,1,0,0:0:0:0:
250,217,100786,1,2,0:2:0:0:
393,299,100865,1,2,3:2:0:0:
417,299,100905,1,0,0:0:0:0:
417,275,100944,1,2,3:2:0:0:
259,231,101023,6,0,L|151:230,1,93.5,6|0,3:2|0:0,0:0:0:0:
211,217,101260,1,2,0:2:0:0:
304,190,101339,2,0,L|304:110,1,46.75,8|0,3:2|0:0,0:0:0:0:
209,118,101497,2,0,L|209:53,1,46.75,2|2,0:2|0:2,0:0:0:0:
354,116,101655,2,0,L|462:115,1,93.5,2|2,3:2|0:2,0:0:0:0:
402,102,101891,1,2,0:2:0:0:
309,75,101970,2,0,L|309:-5,1,46.75,8|0,3:2|0:0,0:0:0:0:
404,3,102128,2,0,L|487:6,1,46.75,2|0,0:2|0:0,0:0:0:0:
305,32,102286,6,0,L|254:121,1,93.5,2|0,3:2|0:0,0:0:0:0:
305,124,102523,1,2,0:2:0:0:
398,127,102602,2,0,L|476:126,1,46.75,8|0,3:2|0:0,0:0:0:0:
349,212,102760,2,0,L|303:212,1,46.75,2|0,0:2|0:0,0:0:0:0:
157,206,102918,2,0,P|117:177|131:138,1,93.5,2|0,3:2|0:0,0:0:0:0:
175,131,103155,1,2,0:2:0:0:
324,125,103233,1,8,3:2:0:0:
370,124,103313,1,0,0:0:0:0:
400,90,103392,1,2,0:2:0:0:
396,45,103471,1,2,0:2:0:0:
236,37,103549,5,2,3:2:0:0:
142,35,103707,1,0,3:2:0:0:
360,226,103865,1,10,3:2:0:0:
453,228,104023,1,2,3:2:0:0:
304,147,104181,1,2,3:2:0:0:
210,147,104339,1,0,3:2:0:0:
426,77,104497,1,10,3:2:0:0:
469,86,104575,1,2,0:2:0:0:
469,133,104654,1,2,3:2:0:0:
220,238,104813,5,2,3:2:0:0:
265,238,104891,1,0,3:2:0:0:
295,204,104970,1,0,3:2:0:0:
291,159,105049,1,2,3:2:0:0:
255,132,105128,1,8,3:2:0:0:
210,141,105207,1,0,3:2:0:0:
44,134,105286,6,0,L|42:215,1,46.75,2|0,3:2|3:2,0:0:0:0:
138,249,105444,2,0,L|138:332,1,46.75,0|2,3:2|3:2,0:0:0:0:
43,307,105602,2,0,L|42:367,1,46.75,0|0,3:2|3:2,0:0:0:0:
220,74,105760,1,10,3:2:0:0:
220,98,105799,1,0,0:0:0:0:
195,99,105839,1,0,3:2:0:0:
16,135,105918,1,2,3:2:0:0:
16,159,105957,1,0,0:0:0:0:
40,159,105997,1,0,3:2:0:0:
202,164,106076,6,0,L|360:166,1,140.25,2|0,0:2|0:0,0:0:0:0:
172,261,106392,2,0,L|47:264,1,93.5,14|0,3:1|0:0,0:0:0:0:
228,140,106707,2,0,L|228:24,1,93.5,0|0,3:2|0:0,0:0:0:0:
77,54,107023,2,0,P|78:125|144:146,1,140.25,10|0,3:2|0:0,0:0:0:0:
283,274,107339,6,0,L|383:275,2,93.5,0|0|8,3:2|0:0|3:2,0:0:0:0:
63,283,107813,2,0,L|61:155,1,93.5,2|0,0:2|3:2,0:0:0:0:
212,220,108128,1,2,0:2:0:0:
183,134,108285,1,8,3:2:0:0:
98,101,108443,1,2,0:2:0:0:
337,233,108602,6,0,P|336:304|270:325,1,140.25,2|0,3:2|0:0,0:0:0:0:
129,260,108918,1,10,3:2:0:0:
122,169,109076,1,2,0:2:0:0:
188,106,109233,1,2,3:2:0:0:
409,101,109392,1,2,0:2:0:0:
188,106,109549,2,0,L|188:217,1,93.5,10|2,3:2|0:2,0:0:0:0:
406,286,109865,6,0,L|528:271,1,93.5,2|0,3:2|0:0,0:0:0:0:
451,267,110102,1,2,0:2:0:0:
354,253,110181,2,0,L|284:254,1,46.75,8|0,3:2|0:0,0:0:0:0:
402,204,110339,2,0,L|448:203,1,46.75,2|0,0:2|0:0,0:0:0:0:
291,59,110497,1,0,3:2:0:0:
245,62,110576,2,0,L|357:58,1,93.5,2|0,0:2|0:0,0:0:0:0:
193,121,110813,2,0,L|109:121,1,46.75,10|0,3:2|0:0,0:0:0:0:
292,172,110971,2,0,L|338:172,1,46.75,2|0,0:2|0:0,0:0:0:0:
174,259,111128,5,2,3:2:0:0:
128,266,111206,1,2,0:2:0:0:
100,302,111285,1,2,0:2:0:0:
104,348,111364,1,2,0:2:0:0:
275,346,111444,6,0,L|348:347,1,46.75,14|0,3:2|0:0,0:0:0:0:
227,170,111602,2,0,L|154:171,1,46.75,2|0,0:2|0:0,0:0:0:0:
331,60,111760,2,0,L|408:60,1,46.75,2|2,3:2|0:2,0:0:0:0:
283,109,111918,2,0,L|236:109,1,46.75,2|0,0:2|0:0,0:0:0:0:
384,253,112076,2,0,L|384:315,1,46.75,10|0,3:2|0:0,0:0:0:0:
290,307,112234,2,0,L|218:307,1,46.75,2|0,0:2|0:0,0:0:0:0:
395,65,112392,6,0,L|459:65,1,46.75,2|2,3:2|0:2,0:0:0:0:
348,26,112549,2,0,L|281:26,1,46.75,2|0,0:2|0:0,0:0:0:0:
158,77,112707,2,0,L|159:139,1,46.75,10|0,3:2|0:0,0:0:0:0:
253,221,112865,2,0,L|179:219,1,46.75,2|0,0:2|0:0,0:0:0:0:
356,302,113023,2,0,L|421:302,1,46.75,2|2,3:2|0:2,0:0:0:0:
309,265,113181,2,0,L|262:265,1,46.75,2|0,0:2|0:0,0:0:0:0:
452,87,113339,5,10,3:2:0:0:
464,130,113417,1,2,0:2:0:0:
439,167,113496,1,2,0:2:0:0:
395,171,113575,1,2,0:2:0:0:
226,176,113655,6,0,P|156:175|53:366,1,280.5,6|0,3:2|0:0,0:0:0:0:
262,333,114286,2,0,L|381:334,1,93.5,8|0,3:2|0:0,0:0:0:0:
116,89,114602,1,0,3:2:0:0:
92,89,114642,1,0,3:2:0:0:
115,87,114681,1,0,3:2:0:0:
256,91,114760,1,10,3:2:0:0:
302,91,114839,1,2,0:2:0:0:
160,186,114918,5,2,0:2:0:0:
114,191,114996,1,0,0:0:0:0:
82,224,115075,1,0,3:2:0:0:
77,269,115154,1,0,3:2:0:0:
240,277,115234,2,0,L|292:277,1,46.75,8|0,3:2|0:0,0:0:0:0:
141,80,115392,2,0,L|94:80,1,46.75,2|0,3:2|0:0,0:0:0:0:
249,172,115549,2,0,L|356:161,1,93.5,10|0,3:2|0:0,0:0:0:0:
180,229,115786,2,0,L|44:204,1,107.525002050877,10|0,3:2|0:0,0:0:0:0:
299,92,116023,2,0,L|384:89,1,70.1250026750566,10|0,3:2|0:0,0:0:0:0:
401,123,116181,5,0,0:0:0:0:
381,165,116260,1,0,0:0:0:0:
219,314,116339,1,0,0:0:0:0:
196,313,116378,1,0,0:0:0:0:
220,310,116418,1,0,0:0:0:0:
448,308,116497,5,14,3:1:0:0:
448,308,116655,1,2,0:2:0:0:
298,273,116813,2,0,L|297:158,1,93.5,0|0,3:2|0:0,0:0:0:0:
449,180,117128,1,10,3:2:0:0:
449,180,117286,1,2,0:2:0:0:
231,92,117444,6,0,L|232:205,1,93.5,0|0,3:2|0:0,0:0:0:0:
383,185,117760,1,8,3:2:0:0:
383,185,117918,1,2,0:2:0:0:
167,295,118076,2,0,L|166:178,1,93.5,2|2,3:2|0:2,0:0:0:0:
320,184,118392,2,0,L|319:70,1,93.5,10|2,3:2|0:2,0:0:0:0:
103,91,118707,5,2,3:2:0:0:
9,92,118865,2,0,L|16:166,1,46.75,2|0,0:2|0:2,0:0:0:0:
180,194,119023,2,0,L|191:292,1,93.5,10|2,3:2|0:2,0:0:0:0:
37,280,119339,2,0,L|56:380,1,93.5,2|2,3:2|0:2,0:0:0:0:
206,59,119655,2,0,L|106:78,1,93.5,10|2,3:2|0:2,0:0:0:0:
350,344,119971,6,0,L|463:345,1,93.5,0|2,3:2|0:2,0:0:0:0:
268,153,120286,2,0,L|145:150,1,93.5,8|2,3:2|0:2,0:0:0:0:
392,75,120602,1,2,3:2:0:0:
434,91,120680,1,0,0:2:0:0:
461,129,120759,1,0,0:2:0:0:
463,175,120838,1,0,0:0:0:0:
314,213,120918,1,10,3:2:0:0:
271,229,120996,1,0,0:2:0:0:
244,267,121075,1,0,0:2:0:0:
242,313,121154,1,0,0:0:0:0:
397,99,121234,5,6,3:2:0:0:
490,97,121392,1,2,3:2:0:0:
273,103,121549,1,10,3:2:0:0:
222,181,121706,1,2,3:2:0:0:
375,199,121865,1,2,3:2:0:0:
407,285,122022,1,2,3:2:0:0:
187,306,122181,1,10,3:2:0:0:
94,304,122339,1,2,3:2:0:0:
244,65,122497,5,2,3:2:0:0:
150,66,122655,1,2,3:2:0:0:
373,138,122813,1,10,3:2:0:0:
373,138,122971,1,2,3:2:0:0:
224,300,123128,1,2,3:2:0:0:
317,294,123286,1,2,3:2:0:0:
96,309,123444,2,0,L|97:215,1,93.5,10|2,3:2|3:2,0:0:0:0:
327,110,123760,5,10,3:2:0:0:
372,121,123838,1,0,3:2:0:0:
396,160,123917,1,0,3:2:0:0:
387,205,123996,1,0,0:0:0:0:
234,220,124076,5,10,3:2:0:0:
188,213,124154,1,0,3:2:0:0:
150,238,124233,1,0,3:2:0:0:
138,282,124312,1,0,0:0:0:0:
284,70,124392,5,10,3:2:0:0:
238,70,124470,1,0,3:2:0:0:
191,71,124549,1,0,3:2:0:0:
144,71,124628,1,0,3:2:0:0:
293,144,124707,2,0,L|358:145,1,46.75,10|0,3:2|3:2,0:0:0:0:
244,247,124865,2,0,L|176:246,1,46.75,0|0,3:2|3:2,0:0:0:0:
53,207,125023,6,0,L|165:201,1,93.5,10|0,3:2|3:2,0:0:0:0:
291,175,125260,2,0,L|175:169,1,93.5,10|0,3:2|3:2,0:0:0:0:
47,147,125497,2,0,L|146:118,1,93.5,10|0,3:2|3:2,0:0:0:0:
304,80,125734,2,0,L|188:74,1,93.5,10|0,3:2|3:2,0:0:0:0:
50,146,125971,1,10,3:2:0:0:
297,79,126128,1,10,3:2:0:0:
256,192,126602,5,6,3:1:0:0:
256,192,126760,12,0,133392,0:0:0:0:
