osu file format v14

[General]
AudioFilename: audio.mp3
AudioLeadIn: 0
PreviewTime: 84286
Countdown: 0
SampleSet: Soft
StackLeniency: 0.7
Mode: 0
LetterboxInBreaks: 0
WidescreenStoryboard: 1

[Editor]
Bookmarks: 20181,65655,65971,66286,66602,66918,67234,67549,67865,68181,68497,68813,69128,69444,69760,70076,70392,70707,71023,71339,71655,71971,72286,72602,72918,73234,73549,73865,74181,74497,74813,75128,75444,75760,76076,76392,76707,77023,77339,77655,77971,78286,78602,78918,79234,79549,79865,80181,80497,80813,81128,81444,81760,82076,82392,82707,83023,133392
DistanceSpacing: 1
BeatDivisor: 2
GridSize: 32
TimelineZoom: 1.5

[Metadata]
Title:Angelica
TitleUnicode:Angelica
Artist:awfuless x yusi.
ArtistUnicode:awfuless × yusi.
Creator:PayneTrain
Version:Normal
Source:音灵 INVAXION
Tags:electronic instrumental technical bilibili rhythm video game soundtrack nanjing aquatrax
BeatmapID:2884147
BeatmapSetID:1115124

[Difficulty]
HPDrainRate:3
CircleSize:3
OverallDifficulty:4
ApproachRate:5.5
SliderMultiplier:1
SliderTickRate:1

[Events]
//Background and Video events
0,0,"bg.jpg",0,0
//Break Periods
2,65855,82214
//Storyboard Layer 0 (Background)
//Storyboard Layer 1 (Fail)
//Storyboard Layer 2 (Pass)
//Storyboard Layer 3 (Foreground)
//Storyboard Layer 4 (Overlay)
//Storyboard Sound Samples

[TimingPoints]
-29,315.789473684211,4,2,1,40,1,0
21444,-100,4,2,1,50,0,0
22707,-100,4,2,1,60,0,0
23971,-100,4,2,1,70,0,0
25234,-95.2380952380952,4,2,1,80,0,0
40392,-100,4,2,1,80,0,0
41497,-100,4,2,1,40,0,0
41536,-100,4,2,1,50,0,0
41576,-100,4,2,1,60,0,0
41615,-100,4,2,1,70,0,0
41655,-95.2380952380952,4,2,1,80,0,0
45760,-100,4,2,1,80,0,0
55865,-95.2380952380952,4,2,1,80,0,0
60602,-90.9090909090909,4,2,1,80,0,0
64392,-90.9090909090909,4,2,1,60,0,0
64707,-90.9090909090909,4,2,1,65,0,0
65023,-90.9090909090909,4,2,1,70,0,0
65339,-90.9090909090909,4,2,1,75,0,0
65655,-90.9090909090909,4,2,1,80,0,0
83339,-100,4,2,1,50,0,0
84839,-100,4,2,1,55,0,0
85076,-100,4,2,1,60,0,0
85234,-100,4,2,1,70,0,0
85865,-90.9090909090909,4,2,1,80,0,0
113655,-100,4,2,1,80,0,0
116497,-90.9090909090909,4,2,1,80,0,0
127549,-90.9090909090909,4,2,1,50,0,0
128813,-90.9090909090909,4,2,1,40,0,0
130076,-90.9090909090909,4,2,1,30,0,0
131339,-90.9090909090909,4,2,1,20,0,0
132602,-90.9090909090909,4,2,1,10,0,0

[Colours]
Combo1 : 170,78,64
Combo2 : 255,208,202
Combo3 : 255,134,117
Combo4 : 255,88,64

[HitObjects]
256,192,20181,12,2,25234,0:2:0:0:
235,243,25865,6,0,P|190:268|139:263,1,104.999996795654,14|2,3:1|0:2,0:0:0:0:
103,234,26339,1,0,3:2:0:0:
103,234,26497,2,0,L|84:130,1,104.999996795654,2|2,3:2|3:2,0:0:0:0:
157,55,27128,2,0,L|176:164,1,104.999996795654,10|2,3:2|3:2,0:0:0:0:
193,261,27760,2,0,P|237:286|288:282,1,104.999996795654,2|2,3:2|3:2,0:0:0:0:
347,196,28392,2,0,L|358:141,1,52.4999983978272,10|0,3:2|3:2,0:0:0:0:
398,111,28707,2,0,L|409:56,1,52.4999983978272,2|8,3:2|3:2,0:0:0:0:
448,25,29023,5,2,3:2:0:0:
512,109,29339,2,0,P|504:160|470:199,1,104.999996795654,2|10,3:2|3:2,0:0:0:0:
370,217,29971,1,10,3:2:0:0:
267,236,30286,2,0,B|163:254,1,104.999996795654,6|2,3:1|3:2,0:0:0:0:
137,356,30918,2,0,L|245:336,1,104.999996795654,10|2,3:2|0:2,0:0:0:0:
295,328,31392,1,0,3:2:0:0:
295,328,31549,6,0,L|403:308,1,104.999996795654,2|2,3:2|3:2,0:0:0:0:
501,288,32181,1,10,3:2:0:0:
512,185,32497,2,0,P|512:133|483:90,1,104.999996795654,2|2,3:2|3:2,0:0:0:0:
378,87,33128,1,2,3:2:0:0:
329,180,33444,6,0,L|173:207,2,157.499995193482,10|8|10,3:2|3:2|3:2,0:0:0:0:
312,288,34707,1,2,3:2:0:0:
312,288,34865,2,0,L|208:305,1,104.999996795654,10|0,3:2|3:2,0:0:0:0:
157,319,35339,6,0,P|106:328|56:313,1,104.999996795654,6|2,3:1|0:2,0:0:0:0:
110,221,35971,2,0,L|214:202,1,104.999996795654,10|2,3:2|0:2,0:0:0:0:
266,188,36444,1,0,3:2:0:0:
266,188,36602,2,0,P|299:148|312:98,1,104.999996795654,2|2,3:2|3:2,0:0:0:0:
210,100,37234,2,0,P|158:90|108:104,1,104.999996795654,10|2,3:2|3:2,0:0:0:0:
71,202,37865,6,0,P|88:251|125:287,1,104.999996795654,2|2,3:2|3:2,0:0:0:0:
224,250,38497,2,0,L|276:242,1,52.4999983978272,10|0,3:2|3:2,0:0:0:0:
311,203,38813,2,0,L|366:194,1,52.4999983978272,2|8,3:2|3:2,0:0:0:0:
397,154,39128,1,2,3:2:0:0:
498,125,39444,2,0,P|498:177|476:223,1,104.999996795654,2|10,3:2|3:2,0:0:0:0:
387,281,40076,1,10,3:2:0:0:
289,260,40392,6,0,B|205:245|205:245|182:212|182:212|149:235|149:235|66:220,1,250,2|2,3:2|0:2,0:0:0:0:
11,214,41339,1,14,3:1:0:0:
30,317,41655,6,0,P|78:336|129:331,1,104.999996795654,2|2,3:2|3:2,0:0:0:0:
223,284,42286,1,10,3:2:0:0:
311,218,42602,2,0,P|359:198|410:203,1,104.999996795654,2|2,3:2|3:2,0:0:0:0:
494,267,43234,1,2,3:2:0:0:
503,370,43549,2,0,L|347:342,2,157.499995193482,10|8|10,3:2|3:2|3:2,0:0:0:0:
494,267,44813,2,0,B|510:212|478:165|478:165|445:118|463:68,1,209.999993591309,2|2,3:2|0:2,0:0:0:0:
388,2,45760,6,0,P|338:0|292:17,1,100,6|2,3:1|3:2,0:0:0:0:
256,51,46234,1,2,0:2:0:0:
256,51,46392,2,0,L|271:154,1,100,2|0,3:2|3:2,0:0:0:0:
280,198,46865,1,2,0:2:0:0:
201,260,47181,2,0,L|69:279,1,100,2|2,0:2|0:2,0:0:0:0:
52,281,47655,1,2,3:2:0:0:
7,195,47971,6,0,P|1:145|22:101,1,100,2|2,3:2|3:2,0:0:0:0:
95,31,48602,2,0,L|145:23,1,50,2|2,3:2|0:2,0:0:0:0:
190,45,48918,2,0,L|291:27,1,100,2|0,3:2|3:2,0:0:0:0:
337,19,49392,1,2,0:2:0:0:
393,101,49707,2,0,L|444:110,2,50,2|2|2,0:2|3:2|0:2,0:0:0:0:
352,130,50181,2,0,L|301:140,2,50,2|2|2,3:2|0:2|0:2,0:0:0:0:
429,200,50813,6,0,L|412:304,1,100,6|2,3:1|3:2,0:0:0:0:
374,329,51286,1,2,0:2:0:0:
374,329,51444,2,0,P|325:339|277:328,1,100,2|0,3:2|3:2,0:0:0:0:
231,307,51918,1,2,0:2:0:0:
174,224,52234,2,0,L|155:93,1,100,2|2,0:2|0:2,0:0:0:0:
152,75,52707,1,2,3:2:0:0:
49,80,53023,6,0,P|39:132|53:183,1,100,2|2,3:2|3:2,0:0:0:0:
124,244,53655,2,0,L|175:253,1,50,10|2,3:2|0:2,0:0:0:0:
212,285,53971,1,2,0:2:0:0:
311,300,54286,2,0,L|362:291,1,50,2|2,3:2|3:2,0:0:0:0:
393,253,54602,2,0,L|442:244,1,50,2|2,3:2|3:2,0:0:0:0:
476,207,54918,2,0,L|493:108,2,100,10|2|2,3:2|0:2|0:2,0:0:0:0:
393,253,55865,6,0,P|341:246|297:218,1,104.999996795654,6|2,3:1|3:2,0:0:0:0:
277,175,56339,1,2,0:2:0:0:
277,175,56497,2,0,L|257:71,1,104.999996795654,2|0,3:2|3:2,0:0:0:0:
248,20,56971,1,2,0:2:0:0:
353,47,57286,1,2,0:2:0:0:
353,47,57444,2,0,L|407:56,1,52.4999983978272,0|2,3:2|0:2,0:0:0:0:
439,96,57760,1,2,3:2:0:0:
487,189,58076,6,0,P|437:206|386:200,1,104.999996795654,2|2,3:2|3:2,0:0:0:0:
284,177,58707,2,0,L|232:167,1,52.4999983978272,2|2,3:2|0:2,0:0:0:0:
195,130,59023,2,0,L|91:111,1,104.999996795654,2|0,3:2|3:2,0:0:0:0:
39,103,59497,1,2,0:2:0:0:
31,211,59813,1,2,0:2:0:0:
31,211,59971,2,0,L|21:266,1,52.4999983978272,2|2,3:2|0:2,0:0:0:0:
29,314,60286,1,2,3:2:0:0:
120,376,60602,6,0,P|175:378|222:351,1,110.000003356934,6|2,3:1|3:2,0:0:0:0:
264,317,61076,1,0,3:2:0:0:
264,317,61234,2,0,L|275:263,1,55.2383350118003,2|2,3:2|3:2,0:0:0:0:
308,221,61549,1,2,3:2:0:0:
328,113,61865,1,0,3:2:0:0:
328,113,62023,2,0,P|274:114|229:143,1,110.000003356934,2|2,3:2|3:2,0:0:0:0:
188,182,62497,2,0,L|134:192,1,55.2383350118003,2|2,3:2|3:2,0:0:0:0:
92,225,62813,2,0,L|37:236,1,55.2383350118003,2|0,3:2|3:2,0:0:0:0:
1,268,63128,1,2,3:2:0:0:
256,192,63286,12,6,65655,0:1:0:0:
256,192,83339,12,2,85234,0:2:0:0:
256,208,85865,6,0,L|274:99,1,110.000003356934,6|8,3:2|3:2,0:0:0:0:
284,45,86339,1,2,0:2:0:0:
284,45,86497,2,0,P|245:6|192:-1,1,110.000003356934,2|8,3:2|3:2,0:0:0:0:
87,8,87128,2,0,L|108:127,1,110.000003356934,2|8,3:2|3:2,0:0:0:0:
115,170,87602,1,2,0:2:0:0:
115,170,87760,2,0,B|95:173|95:173|56:154|56:154|38:157,2,82.5000025177003,2|2|2,3:2|3:2|3:2,0:0:0:0:
169,161,88392,5,2,0:2:0:0:
190,273,88707,1,10,3:2:0:0:
271,346,89023,6,0,B|309:359|309:359|349:346,1,82.5000025177003,10|10,3:2|3:2,0:0:0:0:
428,320,89497,6,0,B|441:281|441:281|428:242,1,82.5000025177003,10|10,3:2|3:2,0:0:0:0:
402,163,89971,6,0,B|293:143,2,110.000003356934,10|10|10,3:2|3:2|3:2,0:0:0:0:
510,146,90918,6,0,P|516:92|497:41,1,110.000003356934,6|8,3:2|3:2,0:0:0:0:
449,18,91392,1,2,0:2:0:0:
449,18,91549,2,0,P|398:37|344:31,1,110.000003356934,2|8,3:2|3:2,0:0:0:0:
235,26,92181,2,0,P|184:7|130:13,1,110.000003356934,2|8,3:2|3:2,0:0:0:0:
85,33,92655,1,2,0:2:0:0:
85,33,92813,2,0,L|104:141,1,110.000003356934,2|10,3:2|3:2,0:0:0:0:
123,249,93444,6,0,L|32:233,2,82.5000025177003,2|2|2,3:2|0:2|0:2,0:0:0:0:
149,298,94076,2,0,L|239:282,2,82.5000025177003,2|2|2,3:2|0:2|0:2,0:0:0:0:
122,347,94707,2,0,L|34:331,2,82.5000025177003,2|2|0,3:2|0:2|0:0,0:0:0:0:
177,356,95339,2,0,L|285:376,1,110.000003356934,2|10,3:2|3:2,0:0:0:0:
341,284,95971,6,0,L|449:264,1,110.000003356934,6|8,3:2|3:2,0:0:0:0:
499,252,96444,1,2,0:2:0:0:
499,252,96602,2,0,P|519:202|513:148,1,110.128336690268,2|8,3:2|3:2,0:0:0:0:
427,77,97234,2,0,P|373:78|327:108,1,110.000003356934,2|8,3:2|3:2,0:0:0:0:
294,150,97707,1,2,0:2:0:0:
294,150,97865,2,0,B|262:138|262:138|249:147|249:147|219:136,2,82.5000025177003,2|2|2,3:2|3:2|3:2,0:0:0:0:
347,165,98497,5,2,0:2:0:0:
310,269,98813,1,10,3:2:0:0:
205,300,99128,6,0,B|163:305|163:305|127:286,1,82.5000025177003,10|10,3:2|3:2,0:0:0:0:
163,211,99602,6,0,B|204:205|204:205|240:225,1,82.5000025177003,10|10,3:2|3:2,0:0:0:0:
310,269,100076,6,0,L|290:378,2,110.000003356934,10|10|10,3:2|3:2|3:2,0:0:0:0:
389,192,101023,6,0,P|380:138|344:97,1,110.128336690268,6|8,3:2|3:2,0:0:0:0:
293,74,101497,1,2,0:2:0:0:
293,74,101655,2,0,L|182:54,1,110.128336690268,2|8,3:2|3:2,0:0:0:0:
75,46,102286,2,0,P|63:98|80:150,1,110.128336690268,2|8,3:2|3:2,0:0:0:0:
125,192,102760,1,2,0:2:0:0:
125,192,102918,2,0,P|136:244|119:296,1,110.128336690268,2|8,3:2|3:2,0:0:0:0:
209,357,103549,6,0,L|318:338,1,110.128336690268,2|10,3:2|3:2,0:0:0:0:
391,256,104181,2,0,L|283:237,1,110.128336690268,2|10,3:2|3:2,0:0:0:0:
213,151,104813,6,0,B|172:144|172:144|143:114,1,82.5000025177003,2|2,3:2|3:2,0:0:0:0:
213,70,105286,6,0,B|239:37|239:37|279:28,1,82.5000025177003,2|2,3:2|3:2,0:0:0:0:
361,18,105760,6,0,B|469:-1,1,110.000003356934,10|2,3:2|0:2,0:0:0:0:
441,108,106392,6,0,P|455:161|441:213,1,110.000003356934,14|0,3:1|3:2,0:0:0:0:
446,324,107023,2,0,P|393:315|351:279,1,110.128336690268,10|0,3:2|3:2,0:0:0:0:
245,278,107655,1,8,3:2:0:0:
245,278,107813,2,0,L|190:288,1,55.2383350118003,2|0,0:2|3:2,0:0:0:0:
155,330,108128,2,0,L|165:385,2,55.0000016784668,2|8|2,0:2|3:2|0:2,0:0:0:0:
107,301,108602,5,2,3:2:0:0:
38,213,108918,2,0,L|29:157,1,55.2383350118003,10|2,3:2|0:2,0:0:0:0:
52,106,109234,2,0,L|43:50,1,55.2383350118003,2|2,3:2|0:2,0:0:0:0:
66,0,109549,1,10,3:2:0:0:
176,10,109865,2,0,P|230:19|272:53,1,110.000003356934,2|8,3:2|3:2,0:0:0:0:
285,106,110339,1,2,0:2:0:0:
285,106,110497,2,0,L|159:128,1,110.000003356934,0|10,3:2|3:2,0:0:0:0:
108,212,111128,5,2,3:2:0:0:
193,282,111444,2,0,L|319:305,1,110.000003356934,14|2,3:2|3:2,0:0:0:0:
355,312,111918,1,2,0:2:0:0:
355,312,112076,2,0,L|374:204,1,110.128336690268,10|2,3:2|3:2,0:0:0:0:
394,94,112707,2,0,L|257:70,1,110.000003356934,10|2,3:2|3:2,0:0:0:0:
231,65,113181,1,2,0:2:0:0:
231,65,113339,1,10,3:2:0:0:
123,46,113655,6,0,P|149:137|240:174,1,200,6|8,3:2|3:2,0:0:0:0:
326,226,114602,2,0,L|375:217,1,50.2166666666668,0|10,3:2|3:2,0:0:0:0:
396,119,115076,2,0,L|347:110,1,50.2166666666668,0|8,3:2|3:2,0:0:0:0:
302,104,115392,1,2,3:2:0:0:
302,104,115549,2,0,B|283:101|283:101|248:118|248:118|232:115,2,75,10|10|10,3:2|3:2|3:2,0:0:0:0:
164,13,116497,6,0,P|111:19|68:53,1,110.128336690268,14|0,3:1|3:2,0:0:0:0:
17,150,117128,2,0,P|25:204|59:246,1,110.128336690268,10|0,3:2|3:2,0:0:0:0:
167,223,117760,2,0,L|223:212,1,55.2383350118003,8|2,3:2|0:2,0:0:0:0:
261,174,118076,2,0,L|317:163,1,55.2383350118003,2|2,3:2|0:2,0:0:0:0:
356,124,118392,1,10,3:2:0:0:
264,60,118707,6,0,P|213:39|159:48,1,110.128336690268,2|10,3:2|3:2,0:0:0:0:
119,84,119181,1,2,0:2:0:0:
119,84,119339,2,0,L|100:193,1,110.000003356934,2|10,3:2|3:2,0:0:0:0:
113,301,119971,2,0,L|222:282,1,110.000003356934,0|8,3:2|3:2,0:0:0:0:
270,273,120444,1,2,0:2:0:0:
270,273,120602,2,0,L|280:218,1,55.2383350118003,2|0,3:2|0:2,0:0:0:0:
287,164,120918,1,10,3:2:0:0:
320,59,121234,6,0,P|367:86|392:135,1,110.000003356934,6|10,3:2|3:2,0:0:0:0:
404,192,121707,1,2,3:2:0:0:
404,192,121865,2,0,L|414:247,1,55.2383350118003,2|2,3:2|3:2,0:0:0:0:
449,289,122181,1,10,3:2:0:0:
346,332,122497,2,0,L|237:352,1,110.000003356934,2|10,3:2|3:2,0:0:0:0:
191,325,122971,1,2,3:2:0:0:
191,325,123128,2,0,L|136:335,1,55.0000016784668,2|2,3:2|3:2,0:0:0:0:
84,314,123444,1,10,3:2:0:0:
64,206,123760,6,0,L|119:196,1,55.0000016784668,10|0,3:2|3:2,0:0:0:0:
173,208,124076,1,10,3:2:0:0:
282,229,124392,2,0,L|337:219,1,55.0000016784668,10|0,3:2|3:2,0:0:0:0:
384,247,124707,1,10,3:2:0:0:
459,167,125023,6,0,B|465:126|465:126|445:90,1,82.5000025177003,10|10,3:2|3:2,0:0:0:0:
365,114,125497,6,0,B|358:73|358:73|378:37,1,82.5000025177003,10|10,3:2|3:2,0:0:0:0:
458,8,125971,5,10,3:2:0:0:
458,8,126128,1,10,3:2:0:0:
292,13,126602,5,6,3:1:0:0:
256,192,126760,12,0,133392,0:0:0:0:
