osu file format v14

[General]
AudioFilename: audio.mp3
AudioLeadIn: 0
PreviewTime:84286
Countdown: 0
SampleSet: Soft
StackLeniency: 0.4
Mode: 0
LetterboxInBreaks: 0
WidescreenStoryboard: 0

[Editor]
Bookmarks:20181,65655,65971,66286,66602,66918,67234,67549,67865,68181,68497,68813,69128,69444,69760,70076,70392,70707,71023,71339,71655,71971,72286,72602,72918,73234,73549,73865,74181,74497,74813,75128,75444,75760,76076,76392,76707,77023,77339,77655,77971,78286,78602,78918,79234,79549,79865,80181,80497,80813,81128,81444,81760,82076,82392,82707,83023,83339,83655,83971,84286,133392
DistanceSpacing: 1.25
BeatDivisor: 4
GridSize: 16
TimelineZoom: 3.099999

[Metadata]
Title:Angelica
TitleUnicode:Angelica
Artist:awfuless x yusi.
ArtistUnicode:awfuless × yusi.
Creator:PayneTrain
Version:Extra
Source:音灵 INVAXION
Tags:electronic instrumental technical bilibili rhythm video game soundtrack nanjing aquatrax
BeatmapID:2563178
BeatmapSetID:1115124

[Difficulty]
HPDrainRate:5.5
CircleSize:4
OverallDifficulty:8.4
ApproachRate:9.2
SliderMultiplier:1.5
SliderTickRate:1

[Events]
//Background and Video events
0,0,"bg.jpg",0,0
//Break Periods
2,65855,83716
//Storyboard Layer 0 (Background)
//Storyboard Layer 1 (Fail)
//Storyboard Layer 2 (Pass)
//Storyboard Layer 3 (Foreground)
//Storyboard Layer 4 (Overlay)
//Storyboard Sound Samples

[TimingPoints]
-29,315.789473684211,4,2,1,40,1,0
21444,-100,4,2,1,50,0,0
22707,-100,4,2,1,60,0,0
23971,-100,4,2,1,70,0,0
25155,-100,4,2,1,5,0,0
25234,-100,4,2,1,80,0,0
25786,-100,4,2,1,5,0,0
25865,-66.6666666666667,4,2,1,80,0,0
41497,-83.3333333333333,4,2,1,40,0,0
41536,-83.3333333333333,4,2,1,50,0,0
41576,-83.3333333333333,4,2,1,60,0,0
41615,-83.3333333333333,4,2,1,70,0,0
41655,-66.6666666666667,4,2,1,80,0,0
44813,-100,4,2,1,80,0,0
45760,-80,4,2,1,80,0,0
55865,-71.4285714285714,4,2,1,80,0,0
64392,-71.4285714285714,4,2,1,60,0,0
64707,-71.4285714285714,4,2,1,65,0,0
65023,-71.4285714285714,4,2,1,70,0,0
65339,-71.4285714285714,4,2,1,75,0,0
65655,-71.4285714285714,4,2,1,80,0,0
83339,-71.4285714285714,4,2,1,50,0,0
84286,-100,4,2,1,50,0,0
84680,-100,4,2,1,5,0,0
84760,-100,4,2,1,50,0,0
84839,-95.2380952380952,4,2,1,55,0,0
84917,-95.2380952380952,4,2,1,5,0,0
84997,-95.2380952380952,4,2,1,55,0,0
85076,-90.9090909090909,4,2,1,60,0,0
85154,-90.9090909090909,4,2,1,5,0,0
85234,-90.9090909090909,4,2,1,70,0,0
85865,-66.6666666666667,4,2,1,80,0,0
86259,-66.6666666666667,4,2,1,5,0,0
86339,-66.6666666666667,4,2,1,80,0,0
86891,-66.6666666666667,4,2,1,5,0,0
86971,-66.6666666666667,4,2,1,80,0,0
87522,-66.6666666666667,4,2,1,5,0,0
87602,-66.6666666666667,4,2,1,80,0,0
88785,-66.6666666666667,4,2,1,5,0,0
89023,-66.6666666666667,4,2,1,80,0,0
89101,-66.6666666666667,4,2,1,5,0,0
89260,-66.6666666666667,4,2,1,80,0,0
89338,-66.6666666666667,4,2,1,5,0,0
89497,-66.6666666666667,4,2,1,80,0,0
89575,-66.6666666666667,4,2,1,5,0,0
89734,-66.6666666666667,4,2,1,80,0,0
89812,-66.6666666666667,4,2,1,5,0,0
89971,-66.6666666666667,4,2,1,80,0,0
91312,-66.6666666666667,4,2,1,5,0,0
91392,-66.6666666666667,4,2,1,80,0,0
91943,-66.6666666666667,4,2,1,5,0,0
92023,-66.6666666666667,4,2,1,80,0,0
92575,-66.6666666666667,4,2,1,5,0,0
92655,-66.6666666666667,4,2,1,80,0,0
93838,-66.6666666666667,4,2,1,5,0,0
93918,-66.6666666666667,4,2,1,80,0,0
94470,-66.6666666666667,4,2,1,5,0,0
94549,-66.6666666666667,4,2,1,80,0,0
96364,-66.6666666666667,4,2,1,5,0,0
96444,-66.6666666666667,4,2,1,80,0,0
96996,-66.6666666666667,4,2,1,5,0,0
97076,-66.6666666666667,4,2,1,80,0,0
97627,-66.6666666666667,4,2,1,5,0,0
97707,-66.6666666666667,4,2,1,80,0,0
98891,-66.6666666666667,4,2,1,5,0,0
99128,-66.6666666666667,4,2,1,80,0,0
99206,-66.6666666666667,4,2,1,5,0,0
99365,-66.6666666666667,4,2,1,80,0,0
99443,-66.6666666666667,4,2,1,5,0,0
99602,-66.6666666666667,4,2,1,80,0,0
99680,-66.6666666666667,4,2,1,5,0,0
99839,-66.6666666666667,4,2,1,80,0,0
99917,-66.6666666666667,4,2,1,5,0,0
100076,-66.6666666666667,4,2,1,80,0,0
101417,-66.6666666666667,4,2,1,5,0,0
101497,-66.6666666666667,4,2,1,80,0,0
102680,-66.6666666666667,4,2,1,5,0,0
102760,-66.6666666666667,4,2,1,80,0,0
106628,-66.6666666666667,4,2,1,5,0,0
106707,-66.6666666666667,4,2,1,80,0,0
107259,-66.6666666666667,4,2,1,5,0,0
107339,-66.6666666666667,4,2,1,80,0,0
108838,-66.6666666666667,4,2,1,5,0,0
108918,-66.6666666666667,4,2,1,80,0,0
110022,-66.6666666666667,4,2,1,5,0,0
110102,-66.6666666666667,4,2,1,80,0,0
113655,-74.0740740740741,4,2,1,80,0,0
116813,-66.6666666666667,4,2,1,80,0,0
117049,-66.6666666666667,4,2,1,5,0,0
117128,-66.6666666666667,4,2,1,80,0,0
117680,-66.6666666666667,4,2,1,5,0,0
117760,-66.6666666666667,4,2,1,80,0,0
127549,-66.6666666666667,4,2,1,50,0,0
128813,-66.6666666666667,4,2,1,40,0,0
130076,-66.6666666666667,4,2,1,30,0,0
131339,-66.6666666666667,4,2,1,20,0,0
132602,-66.6666666666667,4,2,1,10,0,0

[Colours]
Combo1 : 170,78,64
Combo2 : 255,208,202
Combo3 : 255,134,117
Combo4 : 255,88,64

[HitObjects]
256,192,20181,12,0,25155,0:0:0:0:
131,192,25234,6,0,B|194:170|194:170|256:192|256:192|318:212|318:212|380:192,1,262.5,2|0,0:2|0:0,0:0:0:0:
456,246,25865,6,0,L|402:263,1,56.8500021457676,14|0,3:1|0:0,0:0:0:0:
288,303,26023,1,2,0:2:0:0:
288,303,26102,1,2,0:2:0:0:
288,303,26181,1,2,0:2:0:0:
323,128,26339,1,0,3:2:0:0:
172,179,26497,5,2,3:2:0:0:
132,192,26576,1,2,0:2:0:0:
90,186,26655,1,2,3:2:0:0:
55,163,26734,1,2,0:2:0:0:
35,127,26813,2,0,L|45:71,1,56.8500021457676,2|2,3:2|0:2,0:0:0:0:
149,61,26971,1,2,3:2:0:0:
149,61,27049,1,2,3:2:0:0:
149,61,27128,1,10,3:2:0:0:
172,179,27286,5,0,3:2:0:0:
195,297,27444,1,2,3:2:0:0:
197,310,27523,1,2,3:2:0:0:
200,324,27602,1,2,3:2:0:0:
203,338,27681,1,2,3:2:0:0:
205,352,27760,6,0,P|156:377|102:367,1,112.987504291535,2|0,3:2|0:0,0:0:0:0:
0,288,28076,1,2,3:2:0:0:
0,288,28155,1,2,0:0:0:0:
0,288,28234,2,0,L|55:278,1,56.8500021457676,2|2,3:2|3:2,0:0:0:0:
139,264,28392,5,10,3:2:0:0:
222,250,28549,1,0,3:2:0:0:
305,236,28707,1,2,3:2:0:0:
388,222,28865,5,8,3:2:0:0:
402,219,28944,1,0,0:0:0:0:
416,217,29023,2,0,P|443:217|469:229,1,56.8500021457676,2|0,3:2|0:0,0:0:0:0:
373,348,29181,2,0,P|359:323|357:295,1,56.8500021457676,0|0,3:2|3:2,0:0:0:0:
378,137,29339,2,0,L|382:109,4,28.2468760728836,2|0|0|0|0,3:2|0:0|0:0|0:0|3:2,0:0:0:0:
469,229,29655,6,0,P|441:228|415:216,1,56.8500021457676,10|0,3:2|0:0,0:0:0:0:
385,144,29813,1,0,3:2:0:0:
385,144,29892,1,0,3:2:0:0:
384,143,29971,2,0,P|371:119|368:91,1,56.2500021457673,10|0,3:2|0:0,0:0:0:0:
493,54,30128,2,0,P|478:77|455:93,1,56.8500021457676,8|0,3:2|0:0,0:0:0:0:
276,82,30286,6,0,L|165:62,1,112.987504291535,6|0,3:1|0:0,0:0:0:0:
37,113,30602,1,2,3:2:0:0:
37,113,30681,1,2,0:2:0:0:
37,113,30760,2,0,L|92:123,1,56.8500021457676,2|0,0:2|0:0,0:0:0:0:
203,148,30918,1,10,3:2:0:0:
88,37,31076,1,2,0:2:0:0:
88,37,31155,1,2,0:2:0:0:
88,37,31234,1,2,0:2:0:0:
49,192,31392,1,0,3:2:0:0:
203,148,31549,5,2,3:2:0:0:
239,142,31628,1,2,0:2:0:0:
275,150,31707,1,2,3:2:0:0:
304,174,31786,1,2,0:2:0:0:
321,206,31865,1,2,3:2:0:0:
325,243,31944,1,2,3:2:0:0:
312,278,32023,1,2,3:2:0:0:
199,384,32181,1,10,3:2:0:0:
74,292,32339,5,0,3:2:0:0:
178,273,32497,1,2,3:2:0:0:
191,272,32576,1,2,3:2:0:0:
205,270,32655,1,2,3:2:0:0:
219,268,32734,1,2,3:2:0:0:
232,266,32813,6,0,L|342:247,1,112.987504291535,2|0,3:2|0:0,0:0:0:0:
495,222,33128,1,2,3:2:0:0:
498,263,33207,1,2,0:2:0:0:
482,303,33286,1,2,0:2:0:0:
452,331,33365,1,2,0:2:0:0:
413,342,33444,6,0,L|422:286,1,56.8500021457676,10|0,3:2|0:0,0:0:0:0:
398,195,33602,1,0,3:2:0:0:
398,195,33681,1,0,3:2:0:0:
398,195,33760,2,0,L|407:139,1,56.8500021457676,2|2,3:2|0:2,0:0:0:0:
296,60,33918,6,0,L|305:116,1,56.8500021457676,8|0,3:2|0:0,0:0:0:0:
281,207,34076,1,2,3:2:0:0:
281,207,34155,1,0,3:2:0:0:
281,207,34234,2,0,L|290:263,1,56.8500021457676,0|2,3:2|0:2,0:0:0:0:
179,342,34392,6,0,L|188:286,1,56.8500021457676,10|0,3:2|0:0,0:0:0:0:
164,195,34549,1,2,3:2:0:0:
164,195,34628,1,2,3:2:0:0:
164,195,34707,2,0,L|173:139,1,56.8500021457676,2|2,3:2|0:2,0:0:0:0:
191,27,34865,6,0,L|196:-1,8,28.1250010728836,10|0|0|0|2|0|0|0|0,3:2|0:0|0:0|0:0|0:2|0:0|0:0|0:0|3:2,0:0:0:0:
444,71,35339,6,0,L|333:52,1,112.987504291535,6|0,3:1|0:0,0:0:0:0:
310,179,35655,1,2,0:2:0:0:
310,179,35734,1,2,0:2:0:0:
310,179,35813,2,0,L|300:124,1,56.8500021457676,2|0,0:2|0:0,0:0:0:0:
275,0,35971,5,10,3:2:0:0:
407,184,36128,1,2,0:2:0:0:
407,184,36207,1,2,0:2:0:0:
407,183,36286,2,0,P|352:195|302:171,1,112.987504291535,2|0,0:2|3:2,0:0:0:0:
192,68,36602,5,2,3:2:0:0:
154,51,36681,1,2,0:2:0:0:
111,53,36760,1,2,3:2:0:0:
74,73,36839,1,2,0:2:0:0:
51,107,36918,2,0,L|60:162,1,56.8500021457676,2|2,3:2|0:2,0:0:0:0:
150,191,37076,1,2,3:2:0:0:
150,191,37155,1,2,3:2:0:0:
150,191,37234,1,10,3:2:0:0:
271,168,37392,5,0,3:2:0:0:
392,147,37549,1,2,3:2:0:0:
405,146,37628,1,2,3:2:0:0:
419,143,37707,1,2,3:2:0:0:
433,140,37786,1,2,3:2:0:0:
447,138,37865,6,0,P|493:165|512:217,1,112.987504291535,2|0,3:2|0:0,0:0:0:0:
469,324,38181,1,2,3:2:0:0:
469,324,38260,1,2,0:2:0:0:
469,324,38339,2,0,L|414:314,1,56.8500021457676,2|2,3:2|3:2,0:0:0:0:
330,300,38497,5,10,3:2:0:0:
247,286,38655,1,0,3:2:0:0:
164,272,38813,1,2,3:2:0:0:
81,258,38971,5,8,3:2:0:0:
67,255,39049,1,0,0:0:0:0:
53,253,39128,2,0,P|26:253|0:265,1,56.8500021457676,2|0,3:2|0:0,0:0:0:0:
96,383,39286,2,0,P|109:359|112:331,1,56.8500021457676,0|0,3:2|3:2,0:0:0:0:
91,173,39444,2,0,L|87:145,4,28.2468760728836,2|0|0|0|0,3:2|0:0|0:0|0:0|3:2,0:0:0:0:
0,265,39760,6,0,P|27:265|53:253,1,56.8500021457676,10|0,3:2|0:0,0:0:0:0:
98,180,39918,1,0,3:2:0:0:
98,180,39997,1,0,3:2:0:0:
98,180,40076,2,0,P|111:156|114:128,1,56.8500021457676,10|0,3:2|0:0,0:0:0:0:
9,17,40234,2,0,P|22:40|45:56,1,56.8500021457676,8|0,3:2|0:0,0:0:0:0:
207,72,40392,5,2,3:2:0:0:
256,192,40471,12,2,41181,0:2:0:0:
166,241,41339,5,14,3:1:0:0:
206,90,41497,6,0,L|183:91,1,22.7699993133545,0|0,3:2|3:2,0:0:0:0:
218,75,41576,2,0,L|195:77,1,22.7699993133545,0|0,3:2|3:2,0:0:0:0:
231,62,41655,1,2,3:2:0:0:
272,65,41734,1,2,0:2:0:0:
307,89,41813,1,2,3:2:0:0:
328,124,41892,1,2,0:2:0:0:
332,165,41971,2,0,L|321:221,1,56.2500021457673,2|2,3:2|0:2,0:0:0:0:
308,310,42128,1,2,3:2:0:0:
308,310,42207,1,0,3:2:0:0:
308,310,42286,1,10,3:2:0:0:
194,288,42444,5,0,3:2:0:0:
79,264,42602,1,2,3:2:0:0:
67,263,42681,1,2,3:2:0:0:
53,260,42760,1,2,3:2:0:0:
39,257,42839,1,2,3:2:0:0:
25,255,42918,6,0,P|1:304|13:358,1,112.987504291535,2|0,3:2|0:0,0:0:0:0:
157,380,43234,1,2,3:2:0:0:
198,383,43313,1,2,0:2:0:0:
238,367,43392,1,2,0:2:0:0:
266,337,43471,1,2,0:2:0:0:
277,298,43549,6,0,L|221:287,1,56.8500021457676,10|0,3:2|0:0,0:0:0:0:
143,233,43707,1,0,3:2:0:0:
143,233,43786,1,0,3:2:0:0:
143,233,43865,2,0,L|87:222,1,56.8500021457676,2|2,3:2|0:2,0:0:0:0:
228,191,44023,6,0,L|283:180,1,56.8500021457676,8|0,3:2|0:0,0:0:0:0:
362,126,44181,1,2,3:2:0:0:
362,126,44260,1,0,3:2:0:0:
362,126,44339,2,0,L|417:115,1,56.8500021457676,0|2,3:2|0:2,0:0:0:0:
277,84,44497,6,0,L|221:73,1,56.8500021457676,10|0,3:2|0:0,0:0:0:0:
143,19,44655,1,0,3:2:0:0:
143,19,44734,1,0,3:2:0:0:
143,19,44813,2,0,P|120:136|220:73,1,300,2|2,3:2|0:2,0:0:0:0:
220,73,45760,6,0,L|312:56,1,94.1562500000003,6|0,3:1|0:0,0:0:0:0:
450,29,46076,1,2,3:2:0:0:
480,170,46234,1,2,0:2:0:0:
342,196,46392,2,0,L|157:163,1,187.5,2|0,3:2|3:2,0:0:0:0:
63,43,46865,6,0,P|109:46|148:71,1,94.1562500000003,2|0,0:2|3:2,0:0:0:0:
196,247,47181,1,2,0:2:0:0:
196,247,47339,1,0,3:2:0:0:
53,132,47497,1,2,0:2:0:0:
222,136,47655,6,0,P|268:134|309:156,1,94.1562500000003,2|0,3:2|0:0,0:0:0:0:
358,319,47971,2,0,P|334:280|331:234,1,93.75,2|0,3:2|0:0,0:0:0:0:
450,110,48286,2,0,P|428:150|388:174,1,94.1562500000003,2|0,3:2|0:0,0:0:0:0:
256,236,48602,5,2,3:2:0:0:
434,240,48760,1,2,0:2:0:0:
241,253,48918,5,2,3:2:0:0:
445,257,49076,1,2,0:2:0:0:
445,257,49234,1,0,3:2:0:0:
240,252,49392,6,0,P|194:256|156:281,1,93.75,2|0,0:2|3:2,0:0:0:0:
97,384,49707,1,2,0:2:0:0:
97,384,49865,1,2,3:2:0:0:
57,248,50023,1,2,0:2:0:0:
225,331,50181,5,2,3:2:0:0:
12,366,50339,1,2,0:2:0:0:
185,190,50497,1,2,0:2:0:0:
185,190,50813,6,0,L|277:207,1,94.1562500000003,6|0,3:1|0:0,0:0:0:0:
415,232,51128,1,2,3:2:0:0:
445,90,51286,1,2,0:2:0:0:
308,65,51444,2,0,B|244:84|244:84|185:74|185:74|126:90,1,187.96875,2|0,3:2|3:2,0:0:0:0:
24,196,51918,6,0,P|70:193|109:168,1,94.1562500000003,2|0,0:2|3:2,0:0:0:0:
170,2,52234,1,2,0:2:0:0:
170,2,52392,1,2,3:2:0:0:
0,52,52549,1,2,0:2:0:0:
180,103,52707,6,0,P|225:113|269:98,1,94.1562500000003,2|0,3:2|0:0,0:0:0:0:
401,0,53023,2,0,P|369:33|360:79,1,94.1562500000003,2|0,3:2|0:0,0:0:0:0:
411,229,53339,1,2,3:2:0:0:
411,229,53418,1,2,0:2:0:0:
411,229,53497,1,2,0:2:0:0:
500,130,53655,6,0,L|453:139,1,47.3750000000003,10|0,3:2|0:0,0:0:0:0:
334,162,53813,1,2,0:2:0:0:
355,292,53971,1,2,0:2:0:0:
359,315,54049,1,2,0:2:0:0:
363,338,54128,1,2,3:2:0:0:
367,361,54207,1,2,0:2:0:0:
371,384,54286,6,0,L|418:375,1,47.3750000000003,2|0,3:2|0:0,0:0:0:0:
512,321,54444,1,2,3:2:0:0:
512,321,54523,1,2,3:2:0:0:
512,321,54602,2,0,L|465:312,1,47.3750000000003,2|0,3:2|0:0,0:0:0:0:
355,292,54760,1,2,3:2:0:0:
244,271,54918,5,10,3:2:0:0:
371,384,55076,1,2,0:2:0:0:
339,199,55234,2,0,B|324:136|324:136|349:92|349:92|338:21,1,187.5,2|2,0:2|0:2,0:0:0:0:
338,21,55865,6,0,L|235:38,1,105.454996795654,6|0,3:1|0:0,0:0:0:0:
77,63,56181,1,2,3:2:0:0:
103,223,56339,1,2,0:2:0:0:
260,199,56497,2,0,L|466:162,1,210.244993591309,2|0,3:2|3:2,0:0:0:0:
463,319,56971,6,0,P|416:299|383:259,1,104.999996795654,2|0,0:2|3:2,0:0:0:0:
341,66,57286,1,2,0:2:0:0:
341,66,57444,1,0,3:2:0:0:
466,161,57602,1,2,0:2:0:0:
255,183,57760,6,0,P|203:192|154:177,1,104.999996795654,2|0,3:2|0:0,0:0:0:0:
68,13,58076,2,0,P|101:51|113:102,1,105.454996795654,2|0,3:2|0:0,0:0:0:0:
15,259,58392,2,0,P|30:210|68:175,1,104.999996795654,2|0,3:2|0:0,0:0:0:0:
200,101,58707,5,2,3:2:0:0:
16,111,58865,1,2,0:2:0:0:
212,86,59023,5,2,3:2:0:0:
0,97,59181,1,2,0:2:0:0:
0,97,59339,1,0,3:2:0:0:
212,86,59497,6,0,P|264:94|306:127,1,105.454996795654,2|0,0:2|3:2,0:0:0:0:
375,272,59813,1,2,0:2:0:0:
375,272,59971,1,2,3:2:0:0:
422,97,60128,1,2,0:2:0:0:
221,175,60286,2,0,P|168:166|126:133,1,105.454996795654,2|0,3:2|0:0,0:0:0:0:
51,15,60602,5,6,3:1:0:0:
212,61,60760,1,0,3:2:0:0:
37,23,60918,5,2,3:2:0:0:
221,75,61076,1,0,3:2:0:0:
78,222,61234,5,2,3:2:0:0:
26,12,61392,1,2,3:2:0:0:
235,71,61549,5,2,3:2:0:0:
78,222,61707,1,2,3:2:0:0:
293,191,61865,5,0,3:2:0:0:
65,235,62023,1,2,3:2:0:0:
311,198,62181,5,0,3:2:0:0:
90,83,62339,1,2,3:2:0:0:
201,305,62497,5,2,3:2:0:0:
241,60,62655,1,2,3:2:0:0:
65,235,62813,5,2,3:2:0:0:
309,191,62971,1,0,3:2:0:0:
131,365,63128,6,0,L|79:374,3,52.6166650644941,2|0|0|0,3:2|3:2|3:2|3:2,0:0:0:0:
201,305,63444,2,0,L|252:314,3,52.6166650644941,2|0|0|0,3:2|3:2|3:2|3:2,0:0:0:0:
131,245,63760,5,2,3:2:0:0:
128,228,63839,1,0,3:2:0:0:
125,209,63918,1,0,3:2:0:0:
121,186,63997,1,0,3:2:0:0:
116,159,64076,1,2,3:2:0:0:
111,128,64155,1,0,3:2:0:0:
104,92,64234,1,0,3:2:0:0:
97,49,64313,1,0,3:2:0:0:
88,0,64392,6,0,L|63:4,30,26.2499991989136,2|0|0|0|0|0|0|0|2|0|0|0|2|0|0|0|0|0|0|0|2|0|0|0|2|0|0|0|0|0|0,3:2|0:0|0:0|0:0|0:0|0:0|0:0|0:0|0:0|0:0|0:0|0:0|0:0|0:0|0:0|0:0|0:0|0:0|0:0|0:0|0:0|0:0|0:0|0:0|0:0|0:0|0:0|0:0|0:0|0:0|0:0,0:0:0:0:
34,12,65655,5,6,0:1:0:0:
189,113,84286,5,2,0:2:0:0:
189,113,84365,1,2,0:2:0:0:
189,113,84444,1,2,0:2:0:0:
189,113,84523,1,2,0:2:0:0:
189,113,84602,6,0,L|195:149,1,37.9000000000003,2|0,0:2|0:0,0:0:0:0:
251,260,84760,1,0,0:0:0:0:
251,260,84839,2,0,L|258:222,1,39.7949987983707,2|0,0:2|0:0,0:0:0:0:
314,109,84997,1,0,0:0:0:0:
314,109,85076,2,0,L|321:149,1,41.6900012588504,2|0,0:2|0:0,0:0:0:0:
352,320,85234,5,2,0:2:0:0:
96,211,85471,5,2,0:2:0:0:
318,43,85707,5,2,0:2:0:0:
255,192,85865,6,0,P|179:223|96:210,1,169.125006437302,6|2,3:2|0:2,0:0:0:0:
18,97,86181,2,0,L|28:155,1,56.8500021457676,8|0,3:2|0:0,0:0:0:0:
52,290,86339,1,2,0:2:0:0:
162,78,86497,6,0,P|238:46|321:59,1,169.125006437302,2|2,3:2|0:2,0:0:0:0:
447,141,86813,2,0,L|389:151,1,56.8500021457676,8|0,3:2|0:0,0:0:0:0:
254,175,86971,1,2,0:2:0:0:
483,247,87128,6,0,P|407:279|324:266,1,169.125006437302,2|2,3:2|0:2,0:0:0:0:
198,184,87444,2,0,L|256:174,1,56.8500021457676,8|0,3:2|0:0,0:0:0:0:
391,150,87602,1,2,0:2:0:0:
161,78,87760,6,0,P|99:131|91:213,2,168.768756437302,2|2|2,3:2|3:2|3:2,0:0:0:0:
188,70,88313,1,2,0:2:0:0:
216,70,88392,1,2,0:2:0:0:
216,70,88707,6,0,L|271:79,1,56.8500021457676,10|0,3:2|0:0,0:0:0:0:
216,70,89023,6,0,L|271:79,1,56.8500021457676,10|0,3:2|0:0,0:0:0:0:
99,132,89260,6,0,L|43:141,1,56.8500021457676,10|0,3:2|0:0,0:0:0:0:
216,194,89497,6,0,L|271:203,1,56.8500021457676,10|0,3:2|0:0,0:0:0:0:
99,256,89734,6,0,L|43:265,1,56.8500021457676,10|0,3:2|0:0,0:0:0:0:
271,327,89971,6,0,L|216:318,1,56.2500021457673,10|0,3:2|0:0,0:0:0:0:
42,265,90128,2,0,L|97:256,1,56.8500021457676,2|0,0:2|0:0,0:0:0:0:
216,194,90286,1,10,3:2:0:0:
257,200,90365,1,2,0:2:0:0:
299,207,90444,1,2,0:2:0:0:
340,214,90523,1,2,0:2:0:0:
382,221,90602,2,0,L|409:225,2,28.4250010728836,10|0|2,3:2|0:0|0:2,0:0:0:0:
449,328,90760,5,2,3:2:0:0:
449,328,90839,1,2,3:2:0:0:
449,328,90918,2,0,P|367:344|293:308,1,169.125006437302,6|2,3:2|0:2,0:0:0:0:
247,172,91234,2,0,L|237:230,1,56.8500021457676,8|0,3:2|0:0,0:0:0:0:
213,365,91392,5,2,0:2:0:0:
213,365,91471,1,2,0:2:0:0:
213,365,91549,2,0,P|140:324|106:248,1,169.125006437302,2|2,3:2|0:2,0:0:0:0:
0,154,91865,2,0,L|57:164,1,56.8500021457676,8|0,3:2|0:0,0:0:0:0:
192,189,92023,5,2,0:2:0:0:
192,189,92102,1,0,0:0:0:0:
192,189,92181,2,0,P|273:175|331:116,1,169.125006437302,2|2,3:2|0:2,0:0:0:0:
443,28,92497,2,0,L|385:38,1,56.8500021457676,8|0,3:2|0:0,0:0:0:0:
251,63,92655,5,2,0:2:0:0:
433,129,92813,2,0,P|495:185|510:267,1,168.750006437302,2|2,3:2|0:2,0:0:0:0:
378,314,93128,1,10,3:2:0:0:
374,286,93207,1,2,0:2:0:0:
369,258,93286,1,2,0:2:0:0:
364,230,93365,1,2,0:2:0:0:
359,203,93444,6,0,L|329:36,1,169.125006437302,2|2,3:2|0:2,0:0:0:0:
227,127,93760,2,0,P|248:145|273:158,1,56.8500021457676,8|0,3:2|0:0,0:0:0:0:
430,143,93918,1,2,0:2:0:0:
227,45,94076,6,0,L|60:15,1,169.125006437302,2|2,3:2|0:2,0:0:0:0:
53,160,94392,2,0,P|81:158|108:149,1,56.8500021457676,8|0,3:2|0:0,0:0:0:0:
227,45,94549,1,2,0:2:0:0:
260,218,94707,6,0,B|281:337|281:337|244:306,1,169.125006437302,2|2,3:2|0:2,0:0:0:0:
170,232,95023,1,10,3:2:0:0:
170,232,95102,1,2,0:2:0:0:
170,232,95181,1,2,0:2:0:0:
350,204,95339,5,2,3:2:0:0:
372,198,95418,1,2,0:2:0:0:
398,199,95497,1,2,0:2:0:0:
425,209,95576,1,2,0:2:0:0:
449,230,95655,1,10,3:2:0:0:
465,261,95734,1,2,0:2:0:0:
466,301,95813,1,2,0:2:0:0:
445,341,95892,1,2,0:2:0:0:
403,366,95971,6,0,P|320:368|248:328,1,168.750006437302,6|2,3:2|0:2,0:0:0:0:
197,191,96286,2,0,L|187:249,1,56.8500021457676,8|0,3:2|0:0,0:0:0:0:
163,384,96444,1,2,0:2:0:0:
41,153,96602,6,0,P|123:148|196:189,1,169.125006437302,2|2,3:2|0:2,0:0:0:0:
248,328,96918,2,0,L|258:270,1,56.8500021457676,8|0,3:2|0:0,0:0:0:0:
282,135,97076,1,2,0:2:0:0:
282,135,97155,1,2,0:2:0:0:
282,135,97234,6,0,P|354:94|438:98,1,169.125006437302,2|2,3:2|0:2,0:0:0:0:
478,233,97549,2,0,L|488:175,1,56.8500021457676,8|0,3:2|0:0,0:0:0:0:
512,40,97707,1,2,0:2:0:0:
512,40,97786,1,2,0:2:0:0:
512,40,97865,6,0,L|345:10,2,168.768756437302,2|2|2,3:2|3:2|3:2,0:0:0:0:
287,69,98497,1,2,0:2:0:0:
287,69,98813,6,0,L|232:78,1,56.8500021457676,10|0,3:2|0:0,0:0:0:0:
287,69,99128,6,0,L|232:78,1,56.8500021457676,10|0,3:2|0:0,0:0:0:0:
404,131,99365,6,0,L|460:140,1,56.8500021457676,10|0,3:2|0:0,0:0:0:0:
287,193,99602,6,0,L|232:202,1,56.8500021457676,10|0,3:2|0:0,0:0:0:0:
404,255,99839,6,0,L|460:264,1,56.8500021457676,10|0,3:2|0:0,0:0:0:0:
230,326,100076,6,0,L|287:317,1,56.8500021457676,10|0,3:2|0:0,0:0:0:0:
460,264,100234,2,0,L|404:255,1,56.8500021457676,2|2,0:2|0:2,0:0:0:0:
287,193,100392,1,10,3:2:0:0:
246,199,100471,1,2,0:2:0:0:
204,206,100549,1,2,0:2:0:0:
163,213,100628,1,2,0:2:0:0:
121,220,100707,2,0,L|94:224,2,28.4250010728836,10|0|2,3:2|0:0|0:2,0:0:0:0:
54,312,100865,5,2,3:2:0:0:
54,312,100944,1,2,3:2:0:0:
54,312,101023,2,0,P|136:328|210:292,1,169.125006437302,6|2,3:2|0:2,0:0:0:0:
256,156,101339,2,0,L|266:214,1,56.8500021457676,8|0,3:2|0:0,0:0:0:0:
290,349,101497,5,2,0:2:0:0:
290,349,101576,1,2,0:2:0:0:
290,349,101655,2,0,L|348:339,1,56.8500021457676,2|0,3:2|0:0,0:0:0:0:
210,291,101813,1,2,0:2:0:0:
210,291,101892,1,2,0:2:0:0:
210,291,101971,2,0,L|154:281,1,56.2500021457673,8|0,3:2|0:0,0:0:0:0:
290,349,102128,1,2,0:2:0:0:
314,181,102286,6,0,L|342:13,1,169.125006437302,2|2,3:2|0:2,0:0:0:0:
210,66,102602,2,0,P|225:88|246:107,1,56.8500021457676,8|0,3:2|0:0,0:0:0:0:
401,132,102760,1,2,0:2:0:0:
247,109,102918,6,0,L|79:80,1,169.125006437302,2|2,3:2|0:2,0:0:0:0:
0,72,103234,1,8,3:2:0:0:
0,72,103313,1,0,0:0:0:0:
0,72,103392,1,2,0:2:0:0:
0,72,103471,1,2,0:2:0:0:
0,72,103549,5,2,3:2:0:0:
156,192,103707,1,0,3:2:0:0:
99,4,103865,1,10,3:2:0:0:
34,189,104023,1,2,3:2:0:0:
291,71,104181,5,2,3:2:0:0:
98,110,104339,1,0,3:2:0:0:
279,192,104497,1,10,3:2:0:0:
180,19,104655,1,2,3:2:0:0:
34,189,104813,5,2,3:2:0:0:
10,213,104892,1,0,3:2:0:0:
1,248,104971,1,0,3:2:0:0:
5,282,105049,1,2,3:2:0:0:
26,310,105128,1,8,3:2:0:0:
55,330,105207,1,0,3:2:0:0:
88,337,105286,1,2,3:2:0:0:
122,329,105365,1,0,3:2:0:0:
152,308,105444,1,0,3:2:0:0:
189,282,105523,1,2,3:2:0:0:
233,273,105602,1,0,3:2:0:0:
273,284,105681,1,0,3:2:0:0:
309,310,105760,6,0,P|335:319|363:319,1,56.8500021457676,10|0,3:2|3:2,0:0:0:0:
451,213,105918,2,0,P|429:231|415:255,1,56.8500021457676,2|0,3:2|3:2,0:0:0:0:
464,384,106076,5,2,0:2:0:0:
464,384,106392,6,0,L|478:215,1,168.750006437302,14|0,3:1|0:0,0:0:0:0:
461,100,106707,2,0,L|451:212,1,112.987504291535,0|0,3:2|0:0,0:0:0:0:
368,96,107023,6,0,P|403:23|482:6,1,169.125006437302,10|0,3:2|0:0,0:0:0:0:
368,96,107339,2,0,P|315:108|263:88,1,112.987504291535,0|0,3:2|0:0,0:0:0:0:
157,0,107655,5,8,3:2:0:0:
157,0,107813,2,0,L|137:110,1,112.987504291535,2|0,0:2|3:2,0:0:0:0:
75,268,108128,2,0,L|55:157,1,112.987504291535,2|8,0:2|3:2,0:0:0:0:
35,46,108444,1,2,0:2:0:0:
166,209,108602,6,0,P|231:160|232:79,1,169.125006437302,2|0,3:2|0:0,0:0:0:0:
136,111,108918,1,10,3:2:0:0:
325,110,109076,1,2,0:2:0:0:
125,101,109234,5,2,3:2:0:0:
331,101,109392,1,2,0:2:0:0:
163,222,109549,1,10,3:2:0:0:
227,25,109707,1,2,0:2:0:0:
291,221,109865,6,0,L|310:331,1,112.987504291535,2|0,3:2|0:0,0:0:0:0:
316,348,110102,1,2,0:2:0:0:
320,365,110181,1,8,3:2:0:0:
211,265,110339,1,2,0:2:0:0:
394,286,110497,5,0,3:2:0:0:
394,286,110576,1,2,0:2:0:0:
394,286,110655,1,0,0:0:0:0:
233,376,110813,1,10,3:2:0:0:
189,154,110971,1,2,0:2:0:0:
211,265,111128,5,2,3:2:0:0:
216,292,111207,1,2,0:2:0:0:
222,320,111286,1,2,0:2:0:0:
228,347,111365,1,2,0:2:0:0:
233,375,111444,6,0,L|177:365,1,56.8500021457676,14|0,3:2|0:0,0:0:0:0:
38,299,111602,2,0,L|93:289,1,56.8500021457676,2|0,0:2|0:0,0:0:0:0:
211,265,111760,1,2,3:2:0:0:
238,260,111839,1,2,0:2:0:0:
266,254,111918,1,2,0:2:0:0:
293,248,111997,1,0,0:0:0:0:
321,243,112076,6,0,L|331:187,1,56.8500021457676,10|0,3:2|0:0,0:0:0:0:
397,48,112234,2,0,L|407:103,1,56.8500021457676,2|0,0:2|0:0,0:0:0:0:
431,221,112392,1,2,3:2:0:0:
436,248,112471,1,2,0:2:0:0:
442,276,112549,1,2,0:2:0:0:
448,303,112628,1,0,0:0:0:0:
453,331,112707,6,0,L|396:340,1,56.8500021457676,10|0,3:2|0:0,0:0:0:0:
308,311,112865,2,0,L|251:320,1,56.8500021457676,2|0,0:2|0:0,0:0:0:0:
163,291,113023,1,2,3:2:0:0:
163,291,113102,1,2,0:2:0:0:
163,291,113181,2,0,L|154:234,1,56.8500021457676,2|0,0:2|0:0,0:0:0:0:
135,118,113339,5,10,3:2:0:0:
130,91,113418,1,2,0:2:0:0:
124,63,113497,1,2,0:2:0:0:
118,36,113576,1,2,0:2:0:0:
111,8,113655,6,0,P|230:40|135:118,1,303.783751158714,6|2,3:2|0:2,0:0:0:0:
28,15,114286,1,8,3:2:0:0:
28,15,114602,6,0,L|2:18,2,25.5825000965595,0|0|0,3:2|3:2|3:2,0:0:0:0:
112,8,114760,1,10,3:2:0:0:
112,8,114839,1,2,0:2:0:0:
112,8,114918,1,2,0:2:0:0:
36,147,115076,5,0,3:2:0:0:
23,169,115155,1,0,3:2:0:0:
10,191,115234,1,8,3:2:0:0:
188,235,115392,1,2,3:2:0:0:
134,117,115549,5,10,3:2:0:0:
333,296,115786,5,10,3:2:0:0:
79,378,116023,5,10,3:2:0:0:
79,378,116497,5,14,3:1:0:0:
226,304,116655,1,2,0:2:0:0:
226,304,116813,2,0,L|393:275,1,168.750006437302,0|0,3:2|0:0,0:0:0:0:
510,283,117128,2,0,L|399:302,1,112.987504291535,10|2,3:2|0:2,0:0:0:0:
226,304,117444,6,0,P|199:227|242:159,1,169.125006437302,0|0,3:2|0:0,0:0:0:0:
225,304,117760,2,0,P|196:349|145:372,1,112.987504291535,8|2,3:2|0:2,0:0:0:0:
244,159,118076,2,0,P|298:161|343:193,1,112.987504291535,2|2,3:2|0:2,0:0:0:0:
399,302,118392,1,10,3:2:0:0:
448,144,118549,5,2,0:2:0:0:
448,144,118628,1,0,0:0:0:0:
448,144,118707,1,2,3:2:0:0:
244,159,118865,1,2,0:2:0:0:
244,159,118944,1,0,0:2:0:0:
244,159,119023,2,0,P|189:156|144:124,1,112.987504291535,10|2,3:2|0:2,0:0:0:0:
65,19,119339,5,2,3:2:0:0:
225,47,119497,1,2,0:2:0:0:
55,9,119655,5,10,3:2:0:0:
239,41,119813,2,0,L|349:61,1,112.987504291535,2|0,0:2|3:2,0:0:0:0:
507,123,120128,2,0,L|396:143,1,112.987504291535,2|8,0:2|3:2,0:0:0:0:
285,163,120444,1,2,0:2:0:0:
444,47,120602,1,2,3:2:0:0:
444,47,120681,1,0,0:2:0:0:
444,47,120760,2,0,L|499:37,1,56.3750021457676,0|0,0:2|0:2,0:0:0:0:
370,100,120918,1,10,3:2:0:0:
370,100,120997,1,0,0:2:0:0:
370,100,121076,2,0,L|314:90,1,56.3750021457676,0|0,0:2|0:2,0:0:0:0:
480,121,121234,5,6,3:2:0:0:
314,90,121392,1,2,3:2:0:0:
491,136,121549,5,10,3:2:0:0:
300,100,121707,1,2,3:2:0:0:
475,16,121865,5,2,3:2:0:0:
382,186,122023,1,2,3:2:0:0:
260,12,122181,5,10,3:2:0:0:
375,202,122339,1,2,3:2:0:0:
170,115,122497,5,2,3:2:0:0:
387,65,122655,1,2,3:2:0:0:
240,233,122813,5,10,3:2:0:0:
260,10,122971,1,2,3:2:0:0:
374,202,123128,5,2,3:2:0:0:
168,113,123286,1,2,3:2:0:0:
387,226,123444,5,10,3:2:0:0:
150,123,123602,1,2,3:2:0:0:
281,345,123760,5,10,3:2:0:0:
281,345,123839,1,0,3:2:0:0:
281,345,123918,2,0,L|336:354,1,56.3750021457676,0|0,3:2|3:2,0:0:0:0:
192,288,124076,5,10,3:2:0:0:
192,288,124155,1,0,3:2:0:0:
192,288,124234,2,0,L|136:297,1,56.3750021457676,0|0,3:2|3:2,0:0:0:0:
281,231,124392,5,10,3:2:0:0:
281,231,124471,1,0,3:2:0:0:
281,231,124549,2,0,L|336:240,1,56.2500021457673,0|0,3:2|3:2,0:0:0:0:
192,174,124707,1,10,3:2:0:0:
164,178,124786,1,0,3:2:0:0:
136,183,124865,1,0,3:2:0:0:
108,187,124944,1,0,3:2:0:0:
80,192,125023,6,0,L|24:200,2,56.4937521457676,10|0|0,3:2|0:0|3:2,0:0:0:0:
198,100,125260,6,0,L|238:60,2,56.4937521457676,10|0|0,3:2|0:0|3:2,0:0:0:0:
155,252,125497,6,0,L|145:307,2,56.4937521457676,10|0|0,3:2|0:0|3:2,0:0:0:0:
100,103,125734,6,0,L|75:52,2,56.4937521457676,10|0|0,3:2|0:0|3:2,0:0:0:0:
232,191,125971,6,0,L|282:217,1,56.2500021457673,10|0,3:2|0:0,0:0:0:0:
379,270,126128,5,10,3:2:0:0:
379,270,126602,5,6,3:1:0:0:
256,192,126681,12,0,133392,0:0:0:0:
