osu file format v14

[General]
AudioFilename: audio.mp3
AudioLeadIn: 0
PreviewTime: 46413
Countdown: 0
SampleSet: Soft
StackLeniency: 0.5
Mode: 0
LetterboxInBreaks: 0
WidescreenStoryboard: 1

[Editor]
Bookmarks: 90893
DistanceSpacing: 0.9
BeatDivisor: 4
GridSize: 32
TimelineZoom: 1.9

[Metadata]
Title:Temptation (Cut Ver.)
TitleUnicode:Temptation (Cut Ver.)
Artist:awfuless
ArtistUnicode:awfuless
Creator:Strategas
Version:Nytro's Easy
Source:
Tags:electronic Instrumental english PaRaDogi Nytrocide_ nytro ganyumymommy Daycore ALLMYFRIENDS VOL. 1 prisma all my friends tech-core techcore j-core jcore upliftingform arcade core volume one vocals
BeatmapID:4119263
BeatmapSetID:1983389

[Difficulty]
HPDrainRate:2
CircleSize:3
OverallDifficulty:2
ApproachRate:3
SliderMultiplier:0.999999999999999
SliderTickRate:1

[Events]
//Background and Video events
0,0,"fix.jpg",0,0
//Break Periods
//Storyboard Layer 0 (Background)
//Storyboard Layer 1 (Fail)
//Storyboard Layer 2 (Pass)
//Storyboard Layer 3 (Foreground)
//Storyboard Layer 4 (Overlay)
//Storyboard Sound Samples

[TimingPoints]
2107,346.820809248555,4,2,0,60,1,0
13205,-111.111111111111,4,2,0,65,0,0
24303,-111.111111111111,4,2,0,75,0,0
35401,-111.111111111111,4,2,0,70,0,0
36789,-111.111111111111,4,2,0,60,0,0
38176,-111.111111111111,4,2,0,70,0,0
39563,-111.111111111111,4,2,0,60,0,0
40950,-111.111111111111,4,2,0,70,0,0
46153,-111.111111111111,4,2,0,75,0,0
46500,-111.111111111111,4,2,0,80,0,0
46846,-111.111111111111,4,2,0,85,0,1
51702,-111.111111111111,4,2,0,75,0,0
52396,-111.111111111111,4,2,0,85,0,1
56211,-111.111111111111,4,2,0,75,0,0
57945,-111.111111111111,4,2,0,85,0,1
62453,-111.111111111111,4,2,0,75,0,0
63841,-111.111111111111,4,2,0,80,0,0
65922,-111.111111111111,4,2,0,75,0,0
68696,-111.111111111111,4,2,0,65,0,0
71124,-111.111111111111,4,2,0,65,0,0
71471,-111.111111111111,4,2,0,75,0,0
77713,-111.111111111111,4,2,0,80,0,0
78407,-111.111111111111,4,2,0,65,0,0
79794,-111.111111111111,4,2,0,75,0,0
88118,-111.111111111111,4,2,0,80,0,0
90893,-111.111111111111,4,2,0,80,0,0

[Colours]
Combo1 : 204,204,233
Combo2 : 129,135,178
Combo3 : 177,162,208
Combo4 : 157,158,197

[HitObjects]
34,105,13205,6,0,B|128:115|78:194|166:210,1,179.999994506836,0|0,1:0|0:0,0:0:0:0:
247,169,14245,1,8,0:0:0:0:
311,231,14592,2,0,L|292:326,2,89.999997253418,0|8|0,1:0|0:0|0:0,0:0:0:0:
483,180,15979,6,0,P|497:127|511:81,1,89.999997253418,0|8,1:0|0:0,0:0:0:0:
450,23,16673,2,0,P|397:9|351:-5,1,89.999997253418,0|8,0:0|0:0,0:0:0:0:
322,18,17193,1,2,0:0:0:0:
328,202,17887,5,2,0:0:0:0:
328,202,18060,2,0,B|339:224|339:224|308:297,1,89.999997253418,0|8,0:0|0:0,0:0:0:0:
253,352,18754,2,0,B|207:358|207:358|196:347|196:347|72:363,1,179.999994506836,0|2,1:0|0:0,0:0:0:0:
6,307,19794,1,8,0:0:0:0:
58,233,20141,2,0,P|49:193|-2:175,2,89.999997253418,0|8|2,1:0|0:0|0:0,0:0:0:0:
220,154,21528,6,0,B|211:126|211:126|241:68,1,89.999997253418,0|8,1:0|0:0,0:0:0:0:
327,55,22222,2,0,B|351:39|351:39|415:53,1,89.999997253418,2|8,0:0|0:0,0:0:0:0:
446,79,22742,1,4,0:3:0:0:
263,342,24303,6,0,P|253:313|195:281,2,89.999997253418,4|8|2,1:2|0:0|0:0,0:0:0:0:
344,379,25343,1,8,0:0:0:0:
414,323,25690,2,0,P|454:310|451:184,1,179.999994506836,0|2,1:0|0:0,0:0:0:0:
416,112,26731,1,8,0:0:0:0:
333,147,27078,6,0,P|291:142|261:101,1,89.999997253418,2|8,1:2|0:0,0:0:0:0:
205,37,27771,2,0,P|163:42|133:83,1,89.999997253418,2|8,0:0|0:0,0:0:0:0:
81,150,28465,2,0,L|12:163,2,44.999998626709,0|0|8,1:0|1:0|0:0,0:0:0:0:
148,210,29159,1,2,0:0:0:0:
101,384,29852,6,0,B|201:367|147:304|258:283,1,179.999994506836,2|2,1:2|0:0,0:0:0:0:
331,309,30893,1,8,0:0:0:0:
394,245,31239,2,0,P|440:257|464:306,2,89.999997253418,0|8|2,1:0|0:0|0:0,0:0:0:0:
350,165,32280,1,8,0:0:0:0:
396,87,32627,6,0,L|456:75,2,44.999998626709,2|0|8,1:2|1:0|0:0,0:0:0:0:
326,30,33320,2,0,L|228:12,1,89.999997253418,2|8,0:0|0:0,0:0:0:0:
169,72,34014,2,0,B|105:110|138:214|252:228|222:318,1,269.999991760254,4|8,0:3|0:0,0:0:0:0:
167,375,35401,5,4,0:1:0:0:
256,192,36789,5,2,0:0:0:0:
345,9,38176,5,2,0:0:0:0:
256,192,39564,5,2,0:0:0:0:
167,375,40950,6,0,P|109:346|120:237,1,179.999994506836,2|2,1:2|1:2,0:0:0:0:
27,85,42338,2,0,P|40:21|148:3,1,179.999994506836,2|2,1:2|1:2,0:0:0:0:
291,96,43725,6,0,B|339:25|457:98|439:223|297:204|264:242|291:343,1,359.999989013672,0|4,1:0|3:0,0:0:0:0:
132,191,46500,5,2,1:2:0:0:
194,126,46846,2,0,B|272:141|272:141|279:161|279:161|384:178,1,179.999994506836,2|2,1:2|1:2,0:0:0:0:
444,151,47887,1,2,1:2:0:0:
512,209,48234,1,2,1:2:0:0:
480,294,48580,2,0,P|466:337|511:377,2,89.999997253418,2|2|2,1:2|1:2|1:2,0:0:0:0:
303,258,49968,6,0,B|301:262|301:262|206:289,1,89.999997253418,2|2,1:2|1:2,0:0:0:0:
172,362,50661,2,0,B|168:364|168:364|72:340,1,89.999997253418,2|2,1:2|1:2,0:0:0:0:
47,261,51355,2,0,L|-12:245,2,44.999998626709,2|2|2,1:2|0:0|1:2,0:0:0:0:
119,206,52049,5,2,1:2:0:0:
77,126,52396,2,0,B|73:101|73:101|188:39|188:39|229:64,1,179.999994506836,2|2,1:2|1:2,0:0:0:0:
277,109,53436,2,0,L|261:222,2,89.999997253418,2|2|2,1:2|1:2|1:2,0:0:0:0:
354,63,54476,1,2,1:2:0:0:
423,120,54823,6,0,B|451:127|451:127|478:202,1,89.999997253418,2|2,1:2|1:2,0:0:0:0:
413,253,55517,2,0,B|385:260|385:260|358:335,1,89.999997253418,2|2,1:2|1:2,0:0:0:0:
425,383,56211,2,0,L|531:356,2,89.999997253418,2|2|2,1:2|0:0|0:0,0:0:0:0:
164,310,57945,6,0,L|140:379,2,44.999998626709,4|0|2,1:2|0:0|1:2,0:0:0:0:
234,254,58638,1,2,1:2:0:0:
187,176,58985,2,0,P|190:98|99:74,1,179.999994506836,2|2,1:2|1:2,0:0:0:0:
32,125,60026,1,2,1:2:0:0:
67,207,60372,6,0,L|43:302,1,89.999997253418,2|2,1:2|1:2,0:0:0:0:
103,362,61066,2,0,L|190:384,1,89.999997253418,2|2,1:2|1:2,0:0:0:0:
266,335,61760,2,0,P|266:295|210:270,2,89.999997253418,2|2|4,1:2|1:2|1:2,0:0:0:0:
440,380,63147,6,0,B|452:284|523:333|529:210,1,179.999994506836,2|8,3:2|0:0,0:0:0:0:
483,151,64187,6,0,B|399:168|399:168|391:165|391:165|285:186,1,179.999994506836,2|0,1:2|1:0,0:0:0:0:
228,136,65228,1,8,0:0:0:0:
271,56,65575,1,0,1:0:0:0:
200,0,65922,1,0,1:0:0:0:
89,29,68696,6,0,L|185:49,1,89.999997253418,4|2,0:0|0:0,0:0:0:0:
256,92,69390,2,0,L|352:72,1,89.999997253418,2|0,0:0|0:0,0:0:0:0:
411,13,70083,2,0,B|468:-13|537:62|495:131|479:161|444:120|423:215,1,269.999991760254,2|8,0:0|0:0,0:0:0:0:
477,275,71471,6,0,P|514:315|498:366,1,89.999997253418,6|2,1:2|1:2,0:0:0:0:
429,384,72164,2,0,L|333:365,1,89.999997253418,2|0,1:2|1:0,0:0:0:0:
294,288,72858,2,0,L|80:328,1,179.999994506836,2|0,1:2|1:0,0:0:0:0:
36,280,73898,1,2,1:2:0:0:
21,191,74245,6,0,P|60:158|49:93,1,89.999997253418,2|2,1:2|1:2,0:0:0:0:
6,52,74939,2,0,P|53:34|97:7,1,89.999997253418,2|0,1:2|1:0,0:0:0:0:
170,49,75633,2,0,P|262:67|367:113,1,179.999994506836,2|0,1:2|1:0,0:0:0:0:
401,166,76673,1,2,1:2:0:0:
330,221,77020,6,0,P|297:260|312:307,1,89.999997253418,2|2,1:2|1:2,0:0:0:0:
375,349,77713,2,0,B|479:327|402:265|530:232,1,179.999994506836,6|2,1:2|1:2,0:0:0:0:
161,137,79794,6,0,L|176:225,1,89.999997253418,6|2,1:2|1:2,0:0:0:0:
127,301,80488,2,0,P|146:354|190:363,1,89.999997253418,2|0,1:2|1:0,0:0:0:0:
255,325,81182,2,0,P|335:297|436:278,1,179.999994506836,2|0,1:2|1:0,0:0:0:0:
499,113,82569,6,0,B|529:77|529:77|513:14,1,89.999997253418,2|2,1:2|1:2,0:0:0:0:
435,0,83263,2,0,L|321:17,1,89.999997253418,2|0,1:2|1:0,0:0:0:0:
311,42,83783,5,6,1:2:0:0:
425,181,84476,5,0,1:0:0:0:
244,315,85343,6,0,P|213:297|147:281,1,89.999997253418,2|2,3:2|3:2,0:0:0:0:
111,206,86037,2,0,P|129:175|145:109,1,89.999997253418,2|2,3:2|3:2,0:0:0:0:
177,39,86731,2,0,B|165:20|165:20|6:-7,1,179.999994506836,2|0,3:2|3:0,0:0:0:0:
47,170,88118,6,0,P|91:194|95:243,1,89.999997253418,6|2,0:0|0:0,0:0:0:0:
118,270,88638,2,0,P|103:333|44:361,1,134.999995880127,2|2,1:2|1:2,0:0:0:0:
0,345,89332,1,2,1:2:0:0:
256,192,90893,5,4,0:0:0:0:
