osu file format v14

[General]
AudioFilename: audio.mp3
AudioLeadIn: 0
PreviewTime: 46413
Countdown: 0
SampleSet: Soft
StackLeniency: 0.5
Mode: 0
LetterboxInBreaks: 0
WidescreenStoryboard: 1

[Editor]
Bookmarks: 90893
DistanceSpacing: 1.1
BeatDivisor: 4
GridSize: 32
TimelineZoom: 0.9

[Metadata]
Title:Temptation (Cut Ver.)
TitleUnicode:Temptation (Cut Ver.)
Artist:awfuless
ArtistUnicode:awfuless
Creator:Strategas
Version:Normal
Source:
Tags:electronic Instrumental english PaRaDogi Nytrocide_ nytro ganyumymommy Daycore ALLMYFRIENDS VOL. 1 prisma all my friends tech-core techcore j-core jcore upliftingform arcade core volume one vocals
BeatmapID:4121664
BeatmapSetID:1983389

[Difficulty]
HPDrainRate:3
CircleSize:3.3
OverallDifficulty:4.5
ApproachRate:5.3
SliderMultiplier:1.3
SliderTickRate:1

[Events]
//Background and Video events
0,0,"fix.jpg",0,0
//Break Periods
//Storyboard Layer 0 (Background)
//Storyboard Layer 1 (Fail)
//Storyboard Layer 2 (Pass)
//Storyboard Layer 3 (Foreground)
//Storyboard Layer 4 (Overlay)
//Storyboard Sound Samples

[TimingPoints]
2107,346.820809248555,4,2,0,60,1,0
13205,-125,4,2,0,65,0,0
24303,-100,4,2,0,75,0,0
35401,-111.111111111111,4,2,0,70,0,0
36789,-111.111111111111,4,2,0,60,0,0
38176,-111.111111111111,4,2,0,70,0,0
39563,-111.111111111111,4,2,0,60,0,0
40950,-111.111111111111,4,2,0,70,0,0
46153,-100,4,2,0,75,0,0
46500,-100,4,2,0,80,0,0
46846,-90.9090909090909,4,2,0,85,0,1
51702,-90.9090909090909,4,2,0,75,0,0
52396,-90.9090909090909,4,2,0,85,0,1
56211,-100,4,2,0,75,0,0
57945,-90.9090909090909,4,2,0,85,0,1
62453,-90.9090909090909,4,2,0,75,0,0
63841,-90.9090909090909,4,2,0,80,0,0
65922,-111.111111111111,4,2,0,75,0,0
68696,-111.111111111111,4,2,0,65,0,0
71124,-111.111111111111,4,2,0,65,0,0
71471,-100,4,2,0,75,0,0
77713,-100,4,2,0,80,0,0
78407,-100,4,2,0,65,0,0
79794,-100,4,2,0,75,0,0
88118,-100,4,2,0,80,0,0

[Colours]
Combo1 : 204,204,233
Combo2 : 129,135,178
Combo3 : 177,162,208
Combo4 : 157,158,197

[HitObjects]
125,92,13205,6,0,P|212:76|328:111,1,208,0|0,1:0|0:0,0:0:0:0:
365,141,14072,1,0,1:0:0:0:
365,141,14245,1,8,0:0:0:0:
167,310,15112,5,2,0:0:0:0:
167,310,15286,2,0,P|154:260|160:202,1,104,2|8,0:0|0:0,0:0:0:0:
218,123,15979,2,0,P|131:107|15:142,1,208,0|0,1:0|0:0,0:0:0:0:
50,244,17020,1,8,0:0:0:0:
50,244,17193,2,0,P|63:294|57:352,1,104,2|0,0:0|1:0,0:0:0:0:
158,373,17887,6,0,P|189:377|227:369,1,52,2|0,0:0|0:0,0:0:0:0:
255,347,18234,1,0,1:0:0:0:
255,347,18407,2,0,P|286:343|324:351,1,52,8|2,0:0|0:0,0:0:0:0:
354,366,18754,2,0,P|370:279|335:163,1,208,0|2,1:0|0:0,0:0:0:0:
261,102,19794,1,8,0:0:0:0:
261,102,19968,1,2,0:0:0:0:
57,121,20661,5,2,0:0:0:0:
57,121,20835,2,0,P|44:171|50:229,1,104,2|8,0:0|0:0,0:0:0:0:
100,312,21528,2,0,P|96:343|104:381,2,52,0|0|8,1:0|1:0|0:0,0:0:0:0:
153,297,22049,1,2,0:0:0:0:
153,297,22222,2,0,P|204:292|254:305,1,104,2|8,0:0|0:0,0:0:0:0:
297,335,22742,1,4,0:3:0:0:
453,307,23263,1,0,1:0:0:0:
453,307,23436,1,2,0:3:0:0:
285,28,24303,6,0,B|220:14|220:14|153:32,1,130,4|8,1:2|0:0,0:0:0:0:
27,110,24997,1,2,0:0:0:0:
27,110,25170,1,0,1:0:0:0:
27,110,25343,1,8,0:0:0:0:
25,266,25690,2,0,B|165:299|141:231|285:267,1,260,0|2,1:0|0:0,0:0:0:0:
359,295,26557,1,2,1:2:0:0:
359,295,26731,1,8,0:0:0:0:
436,159,27078,5,2,1:2:0:0:
351,27,27424,1,8,0:0:0:0:
200,68,27771,2,0,B|168:72|168:72|136:66,1,65,2|0,0:0|1:0,0:0:0:0:
64,34,28118,1,8,0:0:0:0:
14,182,28465,2,0,B|0:247|0:247|18:314,1,130,0|8,1:0|0:0,0:0:0:0:
178,340,29159,1,2,0:0:0:0:
178,340,29332,1,2,1:2:0:0:
178,340,29505,1,8,0:0:0:0:
327,296,29852,6,0,L|330:155,2,130,2|8|2,1:2|0:0|0:0,0:0:0:0:
393,346,30719,1,0,1:0:0:0:
393,346,30893,1,8,0:0:0:0:
480,217,31239,2,0,B|485:42|485:42|458:126,1,260,0|2,1:0|0:0,0:0:0:0:
402,177,32107,1,2,1:2:0:0:
402,177,32280,1,8,0:0:0:0:
246,165,32627,6,0,B|241:340|241:340|268:256,1,260,2|2,1:2|0:0,0:0:0:0:
326,207,33494,1,0,1:0:0:0:
326,207,33667,1,8,0:0:0:0:
227,86,34014,2,0,P|39:142|72:296,1,390,4|8,0:3|0:0,0:0:0:0:
207,329,35401,5,4,0:1:0:0:
436,283,36095,1,2,0:0:0:0:
210,221,36789,1,2,0:0:0:0:
210,221,38176,5,2,0:0:0:0:
439,175,38870,1,2,0:0:0:0:
213,113,39563,1,2,0:0:0:0:
213,113,40950,5,2,1:2:0:0:
95,113,41297,1,2,0:0:0:0:
95,231,41644,1,2,1:2:0:0:
213,231,41991,1,2,0:0:0:0:
213,113,42338,6,0,P|267:91|325:106,1,116.999996429443,2|2,1:2|0:0,0:0:0:0:
403,188,43031,2,0,P|457:210|515:195,1,116.999996429443,2|2,1:2|0:0,0:0:0:0:
256,192,43725,12,4,45112,3:0:0:0:
310,129,46153,6,0,L|319:0,1,130,8|2,0:0|1:2,0:0:0:0:
166,32,46846,5,2,1:2:0:0:
184,188,47193,1,2,1:2:0:0:
28,206,47540,1,2,1:2:0:0:
46,362,47887,1,2,1:2:0:0:
202,344,48234,1,2,1:2:0:0:
358,326,48580,1,2,1:2:0:0:
340,170,48927,1,2,1:2:0:0:
258,35,49274,6,0,P|197:34|132:85,1,143.000004364014,2|2,1:2|1:2,0:0:0:0:
34,204,49968,2,0,P|95:203|160:254,1,143.000004364014,2|2,1:2|1:2,0:0:0:0:
270,361,50661,2,0,P|309:361|343:347,1,71.5000021820069,2|2,1:2|0:0,0:0:0:0:
417,345,51008,2,0,P|445:317|459:283,1,71.5000021820069,2|2,1:2|0:0,0:0:0:0:
507,227,51355,2,0,P|507:187|493:153,1,71.5000021820069,2|2,1:2|0:0,0:0:0:0:
449,94,51702,1,2,1:2:0:0:
134,86,52396,5,2,1:2:0:0:
64,226,52742,1,2,1:2:0:0:
134,366,53089,1,2,1:2:0:0:
204,226,53436,1,2,1:2:0:0:
274,86,53783,1,2,1:2:0:0:
344,226,54130,1,2,1:2:0:0:
274,366,54476,1,2,1:2:0:0:
204,226,54823,6,0,P|133:228|79:272,1,143.000004364014,2|2,1:2|1:2,0:0:0:0:
8,131,55517,2,0,P|10:60|54:6,1,143.000004364014,2|2,1:2|1:2,0:0:0:0:
196,28,56211,6,0,P|235:28|269:42,1,65,2|2,1:2|0:0,0:0:0:0:
321,87,56557,1,2,0:0:0:0:
421,217,57945,5,4,1:2:0:0:
265,199,58291,1,2,1:2:0:0:
247,355,58638,1,2,1:2:0:0:
91,337,58985,1,2,1:2:0:0:
109,181,59332,1,2,1:2:0:0:
127,25,59679,1,2,1:2:0:0:
283,43,60026,1,2,1:2:0:0:
418,125,60372,6,0,P|419:186|368:251,1,143.000004364014,2|2,1:2|1:2,0:0:0:0:
284,380,61066,2,0,P|230:335|159:333,1,143.000004364014,2|2,1:2|1:2,0:0:0:0:
14,274,61760,2,0,P|14:235|28:201,1,71.5000021820069,2|2,1:2|0:0,0:0:0:0:
30,127,62107,2,0,P|58:99|92:85,1,71.5000021820069,2|2,1:2|0:0,0:0:0:0:
148,33,62453,6,0,B|300:-2|274:71|430:31,1,286.000008728028,4|2,1:2|3:2,0:0:0:0:
420,347,63841,2,0,P|372:370|278:354,1,143.000004364014,8|2,0:0|1:2,0:0:0:0:
81,239,64708,5,0,1:0:0:0:
81,239,64881,2,0,B|61:170|61:170|78:98,2,143.000004364014,0|8|0,1:0|0:0|1:0,0:0:0:0:
129,358,65922,1,0,1:0:0:0:
256,192,66008,12,4,68696,0:0:0:0:
228,84,71471,6,0,P|166:71|97:92,1,130,6|2,1:2|1:2,0:0:0:0:
62,140,71991,1,2,0:0:0:0:
62,140,72164,2,0,P|75:202|54:271,1,130,2|0,1:2|1:0,0:0:0:0:
154,352,72858,1,2,1:2:0:0:
272,298,73205,1,2,1:2:0:0:
272,298,73378,2,0,P|334:285|403:306,1,130,2|2,0:0|0:0,0:0:0:0:
450,340,73898,1,2,1:2:0:0:
481,213,74245,5,2,1:2:0:0:
452,86,74592,1,2,1:2:0:0:
452,86,74765,1,2,0:0:0:0:
452,86,74939,2,0,P|390:68|326:81,1,130,2|0,1:2|1:0,0:0:0:0:
232,171,75633,2,0,P|170:188|106:175,1,130,2|0,1:2|1:0,0:0:0:0:
53,138,76153,2,0,P|40:201|57:263,1,130,2|2,0:0|0:0,0:0:0:0:
100,312,76673,1,2,1:2:0:0:
229,297,77020,5,2,1:2:0:0:
358,282,77367,2,0,L|422:277,1,65,2|2,1:2|0:0,0:0:0:0:
479,308,77713,2,0,B|492:290|492:290|483:199,2,97.5,6|2|2,1:2|1:2|1:2,0:0:0:0:
469,372,78407,1,2,1:2:0:0:
89,255,79794,6,0,P|76:193|97:124,1,130,6|2,1:2|1:2,0:0:0:0:
145,89,80315,1,2,0:0:0:0:
145,89,80488,2,0,P|207:102|276:81,1,130,2|0,1:2|1:0,0:0:0:0:
387,27,81182,1,2,1:2:0:0:
467,136,81528,1,2,1:2:0:0:
467,136,81702,2,0,P|480:198|459:267,1,130,2|2,0:0|0:0,0:0:0:0:
418,309,82222,1,2,1:2:0:0:
294,350,82569,5,2,1:2:0:0:
167,321,82916,1,2,1:2:0:0:
167,321,83089,1,2,0:0:0:0:
167,321,83263,2,0,P|149:259|162:195,1,130,2|0,1:2|1:0,0:0:0:0:
231,189,83783,1,6,1:2:0:0:
231,189,83956,6,0,B|244:171|244:171|235:80,1,97.5,2|2,0:0|0:0,0:0:0:0:
291,15,84476,2,0,B|270:0|270:0|164:10,1,130,0|2,1:0|0:3,0:0:0:0:
20,140,85343,6,0,L|29:269,1,130,2|2,3:2|3:2,0:0:0:0:
132,349,86037,2,0,L|261:340,1,130,2|2,3:2|3:2,0:0:0:0:
360,254,86731,1,2,3:2:0:0:
349,124,87078,1,0,3:2:0:0:
219,135,87424,1,0,3:0:0:0:
230,265,87771,1,2,3:2:0:0:
101,248,88118,6,0,B|92:222|92:222|22:323|84:388,2,195,6|2|2,0:0|1:2|1:2,0:0:0:0:
139,320,89332,1,2,1:2:0:0:
256,192,89419,12,4,90893,0:0:0:0:
