osu file format v14

[General]
AudioFilename: audio.mp3
AudioLeadIn: 0
PreviewTime: 46413
Countdown: 0
SampleSet: Soft
StackLeniency: 1
Mode: 0
LetterboxInBreaks: 0
WidescreenStoryboard: 1

[Editor]
Bookmarks: 90893
DistanceSpacing: 2.1
BeatDivisor: 4
GridSize: 32
TimelineZoom: 1.8

[Metadata]
Title:Temptation (Cut Ver.)
TitleUnicode:Temptation (Cut Ver.)
Artist:awfuless
ArtistUnicode:awfuless
Creator:Strategas
Version:Daycore's Insane
Source:
Tags:electronic Instrumental english PaRaDogi Nytrocide_ nytro ganyumymommy Daycore ALLMYFRIENDS VOL. 1 prisma all my friends tech-core techcore j-core jcore upliftingform arcade core volume one vocals
BeatmapID:4169368
BeatmapSetID:1983389

[Difficulty]
HPDrainRate:5
CircleSize:4
OverallDifficulty:8
ApproachRate:9
SliderMultiplier:1.65
SliderTickRate:1

[Events]
//Background and Video events
0,0,"fix.jpg",0,0
//Break Periods
//Storyboard Layer 0 (Background)
//Storyboard Layer 1 (Fail)
//Storyboard Layer 2 (Pass)
//Storyboard Layer 3 (Foreground)
//Storyboard Layer 4 (Overlay)
//Storyboard Sound Samples

[TimingPoints]
2107,346.820809248555,4,2,0,60,1,0
13205,-125,4,2,0,65,0,0
24303,-83.3333333333333,4,2,0,75,0,0
34014,-133.333333333333,4,2,0,75,0,0
35401,-133.333333333333,4,2,0,70,0,0
36789,-133.333333333333,4,2,0,60,0,0
38176,-133.333333333333,4,2,0,70,0,0
39563,-133.333333333333,4,2,0,60,0,0
40950,-100,4,2,0,70,0,0
43725,-250,4,2,0,70,0,0
46153,-50,4,2,0,75,0,0
46500,-90.9090909090909,4,2,0,80,0,0
46760,-90.9090909090909,4,2,0,5,0,0
46846,-100,4,2,0,85,0,1
51702,-83.3333333333333,4,2,0,75,0,0
52396,-100,4,2,0,85,0,1
56211,-100,4,2,0,75,0,0
57945,-100,4,2,0,85,0,1
60026,-66.6666666666667,4,2,0,85,0,1
60372,-100,4,2,0,85,0,1
62453,-100,4,2,0,75,0,0
63841,-90.9090909090909,4,2,0,80,0,0
64187,-76.9230769230769,4,2,0,80,0,0
65922,-125,4,2,0,75,0,0
68696,-100,4,2,0,65,0,0
71124,-100,4,2,0,65,0,0
71471,-100,4,2,0,75,0,0
77713,-66.6666666666667,4,2,0,80,0,0
78407,-100,4,2,0,65,0,0
79794,-100,4,2,0,75,0,0
84476,-83.3333333333333,4,2,0,75,0,0
84997,-100,4,2,0,75,0,0
85343,-111.111111111111,4,2,0,75,0,0
88118,-66.6666666666667,4,2,0,80,0,0

[Colours]
Combo1 : 204,204,233
Combo2 : 129,135,178
Combo3 : 177,162,208
Combo4 : 157,158,197

[HitObjects]
106,141,13031,5,0,0:0:0:0:
106,141,13205,1,0,1:0:0:0:
106,141,13378,2,0,P|144:87|164:91,1,66,0|8,1:0|0:0,0:0:0:0:
210,49,13725,1,2,0:0:0:0:
216,56,13812,2,0,P|244:72|291:86,1,66,0|0,1:0|0:0,0:0:0:0:
314,63,14072,1,0,1:0:0:0:
383,112,14245,2,0,P|399:159|390:192,1,66,8|0,0:0|0:0,0:0:0:0:
438,249,14592,6,0,B|364:278|400:299|321:332,1,132,0|8,1:0|0:0,0:0:0:0:
256,288,15112,1,2,0:0:0:0:
250,295,15199,2,0,P|198:311|179:318,1,66,0|0,1:0|0:0,0:0:0:0:
152,288,15459,1,0,1:0:0:0:
70,316,15633,2,0,P|40:293|30:249,1,66,8|2,0:0|0:0,0:0:0:0:
157,193,15979,6,0,P|110:212|75:213,2,66,0|0|8,1:0|1:0|0:0,0:0:0:0:
107,67,16500,1,2,0:0:0:0:
101,75,16586,2,0,B|94:87|85:93|85:93|98:111|106:132,1,66,0|0,1:0|0:0,0:0:0:0:
179,97,16846,2,0,P|220:101|251:106,1,66,0|8,1:0|0:0,0:0:0:0:
0,113,17367,6,0,P|10:70|12:29,2,66,0|0|8,1:0|1:0|0:0,0:0:0:0:
15,197,17887,1,2,0:0:0:0:
11,206,17974,2,0,P|28:241|71:253,1,66,0|0,1:0|0:0,0:0:0:0:
84,280,18234,2,0,P|125:273|163:267,1,66,0|8,1:0|0:0,0:0:0:0:
224,310,18580,5,2,0:0:0:0:
224,310,18754,1,0,1:0:0:0:
224,310,18927,2,0,P|258:289|271:251,1,66,0|8,1:0|0:0,0:0:0:0:
238,186,19274,1,2,0:0:0:0:
239,176,19361,2,0,P|256:120|259:96,1,66,0|0,1:0|0:0,0:0:0:0:
233,76,19621,1,0,1:0:0:0:
299,22,19794,1,8,0:0:0:0:
444,85,19968,6,0,B|395:99|395:99|386:125|386:125|331:138,1,132,2|0,0:0|1:0,0:0:0:0:
333,137,20401,1,0,0:0:0:0:
333,137,20488,1,8,0:0:0:0:
399,201,20661,1,2,0:0:0:0:
328,260,20835,2,0,L|245:250,1,66,2|0,0:0|1:0,0:0:0:0:
374,344,21182,2,0,L|457:334,1,66,8|2,0:0|0:0,0:0:0:0:
291,376,21528,6,0,P|255:357|240:319,1,66,0|0,1:0|1:0,0:0:0:0:
242,335,21789,1,0,0:0:0:0:
242,335,21875,1,8,0:0:0:0:
263,252,22049,1,2,0:0:0:0:
263,252,22135,1,0,1:0:0:0:
263,252,22222,2,0,P|221:205|203:203,1,66,2|0,0:0|1:0,0:0:0:0:
127,157,22569,1,8,0:0:0:0:
68,257,22742,6,0,B|54:155|14:210|-14:72,1,198,4|0,0:3|1:0,0:0:0:0:
49,164,23436,2,0,P|81:149|87:80,2,99,2|2|2,0:3|0:3|0:3,0:0:0:0:
49,164,24043,1,0,1:0:0:0:
165,166,24216,1,2,0:0:0:0:
177,173,24303,6,0,P|235:167|281:206,1,98.9999969787599,4|0,1:2|1:0,0:0:0:0:
212,244,24650,1,8,0:0:0:0:
313,293,24823,2,0,B|321:303|321:303|359:308,2,49.4999984893799,0|0|2,0:0|1:0|0:0,0:0:0:0:
356,228,25170,1,0,1:0:0:0:
261,379,25343,2,0,P|232:330|167:322,1,98.9999969787599,8|2,0:0|0:0,0:0:0:0:
124,344,25604,1,2,0:0:0:0:
114,348,25690,6,0,P|48:323|-6:312,1,98.9999969787599,0|0,1:0|1:0,0:0:0:0:
75,171,26037,2,0,P|108:224|90:265,1,98.9999969787599,8|2,0:0|0:0,0:0:0:0:
98,255,26297,1,2,1:2:0:0:
98,255,26384,1,2,0:0:0:0:
18,232,26557,1,2,1:2:0:0:
178,172,26731,2,0,P|245:188|291:196,1,98.9999969787599,8|0,0:0|0:0,0:0:0:0:
329,321,27078,6,0,P|382:290|369:235,1,98.9999969787599,2|0,1:2|1:0,0:0:0:0:
438,200,27424,1,8,0:0:0:0:
270,269,27598,2,0,P|247:264|214:256,2,49.4999984893799,0|0|2,0:0|1:0|0:0,0:0:0:0:
333,326,27945,1,0,1:0:0:0:
347,167,28118,2,0,P|349:108|306:89,1,98.9999969787599,8|2,0:0|0:0,0:0:0:0:
244,66,28378,1,0,0:0:0:0:
250,58,28465,6,0,P|317:31|347:1,1,98.9999969787599,0|0,1:0|1:0,0:0:0:0:
416,54,28812,2,0,P|483:81|513:111,1,98.9999969787599,8|2,0:0|0:0,0:0:0:0:
502,98,29072,1,2,1:2:0:0:
502,98,29159,1,2,0:0:0:0:
493,28,29332,1,2,1:2:0:0:
444,181,29505,2,0,P|457:236|510:256,1,98.9999969787599,8|2,0:0|0:0,0:0:0:0:
497,374,29852,6,0,B|442:355|442:355|434:330|434:330|320:289,1,197.99999395752,2|8,1:2|0:0,0:0:0:0:
252,331,30372,1,0,0:0:0:0:
252,331,30459,1,0,1:0:0:0:
252,331,30546,1,2,0:0:0:0:
183,259,30719,1,0,1:0:0:0:
110,370,30893,2,0,P|89:316|33:284,1,98.9999969787599,8|2,0:0|0:0,0:0:0:0:
24,226,31153,1,0,0:0:0:0:
25,216,31239,6,0,P|53:153|92:147,1,98.9999969787599,0|0,1:0|1:0,0:0:0:0:
131,92,31586,1,8,0:0:0:0:
10,38,31760,2,0,P|6:8|-6:-25,2,49.4999984893799,0|2|2,0:0|1:2|0:0,0:0:0:0:
0,139,32107,1,2,1:2:0:0:
108,20,32280,2,0,P|161:18|207:77,1,98.9999969787599,8|0,0:0|0:0,0:0:0:0:
265,187,32627,6,0,P|326:171|368:164,1,98.9999969787599,2|0,1:2|1:0,0:0:0:0:
340,81,32974,2,0,P|279:97|237:104,1,98.9999969787599,8|2,0:0|0:0,0:0:0:0:
243,103,33234,1,0,1:0:0:0:
243,103,33320,1,2,0:0:0:0:
361,164,33494,1,0,1:0:0:0:
261,195,33667,2,0,P|278:231|352:246,1,98.9999969787599,8|2,0:0|0:0,0:0:0:0:
370,244,33927,1,2,0:0:0:0:
370,244,34014,6,0,B|399:264|429:264|429:264|374:308|331:361,2,185.625007081032,4|8|8,0:3|0:0|0:0,0:0:0:0:
192,293,35401,6,0,L|202:344,3,30.937501180172,4|0|0|0,0:1|0:0|0:0|0:0,0:0:0:0:
119,332,35748,2,0,L|129:383,3,30.937501180172,2|0|0|0,0:0|0:0|0:0|0:0,0:0:0:0:
57,274,36095,1,2,0:0:0:0:
102,207,36268,1,0,0:0:0:0:
35,161,36442,1,2,0:0:0:0:
134,79,36615,1,0,0:0:0:0:
134,79,36702,1,0,0:0:0:0:
134,79,36789,6,0,L|183:81,3,30.937501180172,2|0|0|0,0:0|0:0|0:0|0:0,0:0:0:0:
178,157,37135,2,0,L|227:159,3,30.937501180172,2|0|0|0,0:0|0:0|0:0|0:0,0:0:0:0:
278,110,37482,2,0,B|299:129|299:129|290:173,1,61.875002360344,2|0,0:0|0:0,0:0:0:0:
345,55,37829,1,2,0:0:0:0:
500,127,38176,6,0,P|479:137|451:142,3,30.937501180172,2|0|0|0,0:0|0:0|0:0|0:0,0:0:0:0:
440,213,38523,2,0,P|419:203|391:198,3,30.937501180172,2|0|0|0,0:0|0:0|0:0|0:0,0:0:0:0:
358,257,38870,1,2,0:0:0:0:
415,308,39043,1,0,0:0:0:0:
345,347,39216,1,2,0:0:0:0:
278,238,39390,1,0,0:0:0:0:
278,238,39476,1,0,0:0:0:0:
278,238,39563,6,0,L|229:247,3,30.937501180172,2|0|0|0,0:0|0:0|0:0|0:0,0:0:0:0:
199,304,39910,2,0,L|150:295,3,30.937501180172,2|0|0|0,0:0|0:0|0:0|0:0,0:0:0:0:
125,233,40257,2,0,P|113:192|116:164,1,61.875002360344,2|0,0:0|0:0,0:0:0:0:
45,258,40604,1,2,0:0:0:0:
168,54,40950,5,2,1:2:0:0:
168,54,41124,1,2,0:0:0:0:
168,54,41297,2,0,P|125:67|68:71,1,82.5,2|2,0:0|0:0,0:0:0:0:
200,185,41644,5,2,1:2:0:0:
200,185,41817,1,2,0:0:0:0:
200,185,41991,2,0,P|157:172|100:168,1,82.5,2|2,0:0|0:0,0:0:0:0:
277,33,42338,5,2,1:2:0:0:
335,88,42511,1,2,0:0:0:0:
271,38,42685,2,0,B|252:57|252:57|264:128,1,82.5,2|2,0:0|0:0,0:0:0:0:
414,179,43031,5,2,1:2:0:0:
345,215,43205,1,2,0:0:0:0:
422,186,43378,2,0,P|473:183|490:150,1,82.5,2|2,0:0|0:0,0:0:0:0:
411,328,43725,5,0,1:0:0:0:
409,317,43812,1,0,1:0:0:0:
408,307,43898,1,0,1:0:0:0:
406,297,43985,1,0,1:0:0:0:
404,285,44072,6,0,L|399:255,3,16.5,2|2|2|2,0:0|0:0|0:0|0:0,0:0:0:0:
485,282,44419,2,0,L|501:255,3,16.5,0|0|0|0,0:0|3:0|3:0|3:0,0:0:0:0:
319,300,44765,2,0,L|303:273,3,16.5,0|0|0|0,3:0|3:0|3:0|3:0,0:0:0:0:
413,340,45112,5,4,3:0:0:0:
256,192,45286,12,8,46153,0:0:0:0:
156,269,46500,6,0,P|101:261|84:178,1,136.125004154205,2|0,1:2|0:0,0:0:0:0:
133,132,46846,6,0,P|154:128|172:122,3,41.25,2|2|2|2,1:2|0:0|0:0|0:0,0:0:0:0:
230,71,47193,1,2,1:2:0:0:
249,66,47279,1,2,0:0:0:0:
270,70,47366,1,2,0:0:0:0:
286,82,47453,1,2,0:0:0:0:
298,102,47540,2,0,P|289:130|287:154,3,41.25,2|2|2|2,1:2|0:0|0:0|0:0,0:0:0:0:
330,207,47887,6,0,P|382:196|401:149,1,82.5,2|2,1:2|0:0,0:0:0:0:
413,100,48147,2,0,P|404:43|407:-5,1,82.5,2|0,0:0|0:0,0:0:0:0:
481,0,48407,1,0,0:0:0:0:
332,85,48580,1,2,1:2:0:0:
332,85,48667,1,0,0:0:0:0:
332,85,48754,2,0,P|304:92|293:114,1,41.25,0|0,0:0|0:0,0:0:0:0:
237,161,48927,2,0,P|225:116|208:61,1,82.5,2|0,1:2|0:0,0:0:0:0:
9,183,49274,6,0,P|17:134|102:135,1,123.75,2|2,1:2|0:0,0:0:0:0:
104,135,49621,1,2,1:2:0:0:
104,135,49708,2,0,L|92:181,2,41.25,2|2|2,0:0|0:0|0:0,0:0:0:0:
167,208,49968,1,2,1:2:0:0:
148,232,50054,1,2,0:0:0:0:
122,249,50141,1,2,0:0:0:0:
92,254,50228,1,2,0:0:0:0:
62,247,50315,1,2,1:2:0:0:
64,267,50401,1,2,0:0:0:0:
66,287,50488,1,2,0:0:0:0:
69,308,50575,1,2,0:0:0:0:
70,330,50661,6,0,L|127:342,2,41.25,2|2|2,1:2|0:0|0:0,0:0:0:0:
128,258,50922,2,0,L|185:270,2,41.25,2|2|2,0:0|1:2|0:0,0:0:0:0:
191,350,51182,2,0,L|248:362,2,41.25,2|2|2,0:0|0:0|1:2,0:0:0:0:
260,279,51528,1,2,0:0:0:0:
315,361,51702,6,0,B|323:313|366:279|333:323|397:278|391:219,1,148.49999546814,2|0,1:2|0:0,0:0:0:0:
344,175,52049,6,0,B|338:154|315:134|315:134|429:115,1,148.49999546814,2|0,1:2|0:0,0:0:0:0:
469,52,52396,6,0,L|410:39,3,41.25,2|2|2|2,1:2|0:0|0:0|0:0,0:0:0:0:
340,0,52742,1,2,1:2:0:0:
309,1,52828,1,2,0:0:0:0:
282,16,52915,1,2,0:0:0:0:
266,42,53002,1,2,0:0:0:0:
265,73,53088,1,2,1:2:0:0:
244,70,53175,1,2,0:0:0:0:
223,68,53262,1,2,0:0:0:0:
203,66,53349,1,2,0:0:0:0:
181,63,53436,6,0,P|125:92|130:134,1,82.5,2|2,1:2|0:0,0:0:0:0:
132,182,53696,2,0,P|145:229|142:287,1,82.5,2|0,0:0|0:0,0:0:0:0:
100,328,53956,1,2,0:0:0:0:
0,236,54130,5,2,1:2:0:0:
18,214,54216,1,0,0:0:0:0:
46,215,54303,1,0,0:0:0:0:
143,177,54476,2,0,P|197:192|248:197,1,82.5,2|0,1:2|0:0,0:0:0:0:
223,195,54737,1,2,0:0:0:0:
223,195,54823,1,2,1:2:0:0:
316,142,54997,5,2,0:0:0:0:
354,128,55083,1,2,0:0:0:0:
392,141,55170,1,2,1:2:0:0:
414,175,55257,1,2,0:0:0:0:
410,215,55343,1,2,0:0:0:0:
408,246,55429,1,2,0:0:0:0:
421,273,55516,1,2,1:2:0:0:
447,290,55603,1,2,0:0:0:0:
477,292,55690,2,0,L|470:361,1,41.25,2|2,0:0|0:0,0:0:0:0:
395,362,55864,5,2,1:2:0:0:
374,365,55950,1,2,0:0:0:0:
354,368,56037,1,2,0:0:0:0:
333,371,56124,1,2,0:0:0:0:
311,375,56211,6,0,L|319:310,2,41.25,2|2|2,1:2|0:0|0:0,0:0:0:0:
237,341,56471,2,0,L|150:355,1,82.5,0|2,0:0|0:0,0:0:0:0:
93,313,56731,1,2,0:0:0:0:
143,225,56904,6,0,L|150:166,3,41.25,2|2|2|2,0:0|0:0|0:0|0:0,0:0:0:0:
227,166,57251,2,0,L|222:206,3,41.25,2|2|2|2,0:0|0:0|0:0|0:0,0:0:0:0:
106,118,57598,6,0,P|146:101|163:5,1,123.75,0|0,3:0|3:0,0:0:0:0:
99,5,57945,6,0,L|52:0,3,41.25,4|0|0|0,1:2|0:0|0:0|0:0,0:0:0:0:
6,61,58291,1,2,1:2:0:0:
8,81,58377,1,0,0:0:0:0:
11,101,58464,1,0,0:0:0:0:
14,122,58551,1,0,0:0:0:0:
25,153,58638,1,2,1:2:0:0:
20,179,58724,1,0,0:0:0:0:
16,205,58811,1,0,0:0:0:0:
14,231,58898,1,0,0:0:0:0:
30,259,58985,6,0,P|80:290|123:274,1,82.5,2|0,1:2|0:0,0:0:0:0:
163,240,59245,2,0,P|210:229|262:220,1,82.5,2|0,0:0|0:0,0:0:0:0:
307,269,59505,1,2,0:0:0:0:
422,204,59679,1,2,1:2:0:0:
422,204,59765,1,2,0:0:0:0:
422,204,59852,2,0,P|450:221|461:256,1,41.25,2|0,0:0|0:0,0:0:0:0:
396,297,60026,2,0,B|374:263|399:283|394:216|338:196,1,123.75,2|0,1:2|0:0,0:0:0:0:
253,129,60372,5,2,1:2:0:0:
222,125,60458,1,2,0:0:0:0:
197,108,60545,1,2,0:0:0:0:
184,80,60632,1,2,0:0:0:0:
187,50,60718,1,2,1:2:0:0:
207,23,60806,1,2,0:0:0:0:
242,12,60893,1,2,0:0:0:0:
277,19,60979,1,2,0:0:0:0:
296,45,61066,1,2,1:2:0:0:
318,63,61153,1,2,0:0:0:0:
341,69,61239,1,2,0:0:0:0:
365,69,61326,1,2,0:0:0:0:
384,61,61413,6,0,L|450:66,3,41.25,2|2|2|2,1:2|0:0|0:0|0:0,0:0:0:0:
471,127,61760,1,2,1:2:0:0:
492,157,61846,1,2,0:0:0:0:
490,190,61933,1,2,0:0:0:0:
473,214,62020,1,2,0:0:0:0:
452,227,62107,1,2,1:2:0:0:
419,225,62193,1,2,0:0:0:0:
383,213,62280,1,2,0:0:0:0:
342,221,62367,1,2,0:0:0:0:
315,252,62453,6,0,L|323:310,7,41.25,4|0|0|0|8|8|8|8,1:2|3:0|3:0|3:0|0:3|0:3|0:3|0:3,0:0:0:0:
394,341,63147,6,0,L|418:308,3,41.25,2|2|4|0,3:2|3:2|3:0|0:0,0:0:0:0:
262,351,63494,2,0,L|229:326,3,41.25,0|4|0|0,3:0|3:0|0:0|3:0,0:0:0:0:
202,246,63841,6,0,B|149:265|179:267|122:285,1,90.7500027694703,8|2,0:0|0:0,0:0:0:0:
121,286,64101,1,2,0:0:0:0:
121,286,64187,1,2,1:2:0:0:
21,244,64361,1,2,0:0:0:0:
8,220,64447,1,2,0:0:0:0:
7,193,64534,1,8,0:0:0:0:
18,169,64621,1,0,0:0:0:0:
39,152,64708,5,0,1:0:0:0:
102,211,64881,1,0,1:0:0:0:
102,211,64968,1,0,0:0:0:0:
102,211,65054,2,0,P|183:231|218:235,1,107.249995090485,2|8,0:0|0:0,0:0:0:0:
156,38,65401,1,2,0:0:0:0:
156,38,65488,1,2,0:0:0:0:
156,38,65575,2,0,P|129:94|165:146,1,107.249995090485,0|2,1:0|0:0,0:0:0:0:
267,10,65922,6,0,B|310:10|355:74|288:96|355:150|390:156,1,198,0|0,1:0|0:0,0:0:0:0:
405,79,66615,2,0,P|350:66|312:60,1,66,8|0,0:0|1:0,0:0:0:0:
309,82,66875,1,8,0:0:0:0:
309,82,66962,1,0,0:0:0:0:
369,231,67135,2,0,P|416:231|439:196,2,66,0|0|0,1:0|3:0|0:0,0:0:0:0:
254,237,67656,5,0,3:0:0:0:
242,265,67771,1,0,3:0:0:0:
211,266,67887,1,0,3:0:0:0:
141,298,68002,5,8,0:0:0:0:
303,357,68176,2,0,P|317:307|327:280,1,66,0|0,1:0|0:0,0:0:0:0:
120,127,68696,5,4,0:0:0:0:
256,192,68870,12,8,71124,0:0:0:0:
85,123,71471,6,0,P|153:135|165:205,1,123.75,6|0,1:2|0:0,0:0:0:0:
141,255,71817,2,0,P|89:262|42:284,1,82.5,2|2,1:2|0:0,0:0:0:0:
79,119,72164,2,0,P|90:65|134:57,1,82.5,2|2,1:2|0:0,0:0:0:0:
138,59,72424,1,2,0:0:0:0:
138,59,72511,1,0,0:0:0:0:
319,82,72685,1,2,0:0:0:0:
278,150,72858,6,0,P|270:87|252:9,1,123.75,2|2,1:2|0:0,0:0:0:0:
371,30,73205,2,0,P|375:67|386:114,1,82.5,2|2,1:2|0:0,0:0:0:0:
469,201,73552,2,0,P|462:261|428:281,1,82.5,0|2,1:0|0:0,0:0:0:0:
390,328,73812,1,2,0:0:0:0:
383,337,73898,2,0,P|334:353|284:381,1,82.5,2|0,1:2|0:0,0:0:0:0:
209,364,74245,6,0,P|160:336|160:276,1,82.5,2|0,1:2|0:0,0:0:0:0:
261,239,74592,1,2,1:2:0:0:
259,267,74679,1,0,0:0:0:0:
238,286,74765,1,2,0:0:0:0:
100,240,74939,2,0,P|69:189|44:154,1,82.5,2|2,1:2|0:0,0:0:0:0:
118,120,75199,2,0,P|162:126|184:173,1,82.5,2|0,0:0|0:0,0:0:0:0:
188,233,75459,1,2,0:0:0:0:
262,60,75633,6,0,P|196:78|162:83,1,82.5,2|2,1:2|0:0,0:0:0:0:
182,80,75893,1,2,0:0:0:0:
182,80,75979,1,0,0:0:0:0:
331,176,76153,2,0,P|334:109|352:77,1,82.5,2|0,0:0|0:0,0:0:0:0:
426,52,76500,1,2,0:0:0:0:
437,78,76586,1,0,0:0:0:0:
423,103,76673,2,0,P|407:136|403:160,1,41.25,2|0,1:2|0:0,0:0:0:0:
339,183,76846,1,0,0:0:0:0:
339,183,76933,1,0,0:0:0:0:
339,183,77020,6,0,P|351:231|424:246,1,123.75,2|0,1:2|0:0,0:0:0:0:
482,203,77367,1,2,1:2:0:0:
512,336,77540,2,0,P|481:319|444:318,1,41.25,2|2,0:0|0:0,0:0:0:0:
397,328,77713,6,0,P|317:350|269:368,1,123.75,6|0,1:2|0:0,0:0:0:0:
196,334,77974,2,0,B|116:305|128:247|191:260|152:302,1,123.750004720688,2|0,1:2|0:0,0:0:0:0:
168,196,78234,2,0,B|154:193|135:196|135:196|152:181|182:179,1,61.875002360344,2|0,1:2|0:0,0:0:0:0:
47,255,78407,6,0,B|63:231|68:196|48:209|53:154|102:118,2,123.75,2|2|2,1:2|0:0|0:0,0:0:0:0:
47,255,79274,6,0,B|129:228|188:280|188:280|180:314|203:345,1,206.25,2|8,0:0|0:3,0:0:0:0:
263,295,79794,6,0,P|293:240|325:216,1,82.5,6|0,1:2|0:0,0:0:0:0:
307,227,80054,1,2,0:0:0:0:
307,227,80141,1,2,1:2:0:0:
217,200,80315,1,2,0:0:0:0:
395,201,80488,2,0,P|425:178|420:118,1,82.5,2|2,1:2|0:0,0:0:0:0:
371,77,80748,2,0,P|325:97|273:108,1,82.5,2|0,0:0|0:0,0:0:0:0:
244,42,81008,1,2,0:0:0:0:
453,0,81182,6,0,P|493:26|489:64,1,82.5,2|0,1:2|0:0,0:0:0:0:
492,56,81442,1,2,0:0:0:0:
492,56,81528,1,2,1:2:0:0:
430,136,81702,2,0,B|434:211|469:176|469:268,1,123.75,2|0,0:0|0:0,0:0:0:0:
437,322,82049,1,2,0:0:0:0:
437,322,82135,1,2,0:0:0:0:
437,322,82222,2,0,P|382:333|345:316,1,82.5,2|0,1:2|0:0,0:0:0:0:
268,256,82569,6,0,P|225:266|163:274,1,82.5,2|0,1:2|0:0,0:0:0:0:
187,271,82829,1,0,0:0:0:0:
187,271,82916,1,2,1:2:0:0:
269,168,83089,1,2,0:0:0:0:
114,148,83263,2,0,P|86:190|108:231,1,82.5,2|2,1:2|0:0,0:0:0:0:
111,292,83523,1,2,0:0:0:0:
29,149,83783,6,0,B|116:125|63:83|133:50|165:67,1,165,6|0,1:2|0:0,0:0:0:0:
159,65,84216,1,2,0:0:0:0:
159,65,84303,1,0,0:0:0:0:
298,38,84476,6,0,B|326:37|344:18|344:18|358:26|375:29|375:29|360:151|360:151,1,197.99999395752,0|2,1:0|0:3,0:0:0:0:
469,36,84997,2,0,P|417:46|397:79,1,82.5,2|2,0:0|0:0,0:0:0:0:
292,262,85343,6,0,P|238:245|189:235,1,74.2499977340699,2|0,3:2|3:0,0:0:0:0:
361,141,85690,2,0,P|307:158|258:168,1,74.2499977340699,2|2,3:2|3:2,0:0:0:0:
377,314,86037,2,0,P|423:297|435:255,1,74.2499977340699,2|0,3:2|3:0,0:0:0:0:
433,276,86297,1,0,0:0:0:0:
298,351,86471,1,0,0:0:0:0:
298,351,86557,2,0,L|238:338,1,37.1249988670349,2|0,3:2|0:0,0:0:0:0:
197,298,86731,6,0,B|160:314|160:314|154:332|154:332|95:356,1,111.374996601105,2|0,3:2|0:0,0:0:0:0:
105,351,87078,1,0,3:2:0:0:
47,305,87251,2,0,B|24:277|24:277|48:219,1,74.2499977340699,2|0,3:2|3:0,0:0:0:0:
175,138,87598,1,2,3:2:0:0:
175,138,87685,1,0,0:2:0:0:
175,138,87771,2,0,P|144:169|92:163,1,74.2499977340699,2|0,3:2|3:0,0:0:0:0:
67,37,88118,6,0,B|190:58|130:96|237:125|237:125|318:139,1,247.500009441376,6|2,0:0|0:0,0:0:0:0:
440,43,88638,2,0,B|480:49|489:89|489:89|496:134|496:134|360:189,1,247.500009441376,2|0,1:2|0:0,0:0:0:0:
375,182,89072,1,2,0:0:0:0:
375,182,89159,1,2,1:2:0:0:
459,335,89332,5,2,1:2:0:0:
256,192,89505,12,4,90893,0:0:0:0:
