osu file format v14

[General]
AudioFilename: audio.ogg
AudioLeadIn: 0
PreviewTime: 862
Countdown: 0
SampleSet: Soft
StackLeniency: 0.8
Mode: 0
LetterboxInBreaks: 0
WidescreenStoryboard: 1

[Editor]
Bookmarks: 1973,3306,10417,19306,26417,40639,47528,54862,61973,69084,76195,85084,99306
DistanceSpacing: 1.5
BeatDivisor: 4
GridSize: 4
TimelineZoom: 1.8

[Metadata]
Title:true my heart (Short Ver.)
TitleUnicode:true my heart (Short Ver.)
Artist:ave;new feat. Sakura Saori
ArtistUnicode:ave;new feat. 佐倉紗織
Creator:Suzuaki_Rin
Version:Normal
Source:Nursery Rhyme -ナーサリィ☆ライム-
Tags:japanese eroge j-pop jpop j pop vn visual novel galgame op opening Lump of Sugar ナーサリィライム あべにゅう アベニュー avenew きしめん kiss my lips a.k.a.dRESS aka
BeatmapID:3926183
BeatmapSetID:1904230

[Difficulty]
HPDrainRate:3
CircleSize:3
OverallDifficulty:4
ApproachRate:5
SliderMultiplier:1.2
SliderTickRate:1

[Events]
//Background and Video events
0,0,"bgbgbgbgbgbgbgbgbgbg.jpg",0,0
//Break Periods
//Storyboard Layer 0 (Background)
//Storyboard Layer 1 (Fail)
//Storyboard Layer 2 (Pass)
//Storyboard Layer 3 (Foreground)
//Storyboard Layer 4 (Overlay)
//Storyboard Sound Samples

[TimingPoints]
-249,444.444444444444,4,2,1,50,1,0
1973,-100,4,2,1,60,0,0
3306,-100,4,2,1,90,0,1
19306,-105.263157894737,4,2,1,80,0,0
26417,-111.111111111111,4,2,1,60,0,0
40639,-117.647058823529,4,2,1,65,0,0
47528,-111.111111111111,4,2,1,70,0,0
54862,-99.9999999999999,4,2,1,90,0,1
65084,-99.9999999999999,4,2,1,80,0,1
65528,-99.9999999999999,4,2,1,90,0,1
85084,-105.263157894737,4,2,1,80,0,0
99306,-111.111111111111,4,2,1,60,0,0
102862,-111.111111111111,4,2,1,50,0,0
104639,-111.111111111111,4,2,1,50,0,0
106417,-111.111111111111,4,2,1,30,0,0
108195,-111.111111111111,4,2,1,20,0,0
109084,-111.111111111111,4,2,1,20,0,0
109528,-111.111111111111,4,2,1,10,0,0
109973,-111.111111111111,4,2,1,5,0,0

[Colours]
Combo1 : 126,239,152
Combo2 : 137,243,241
Combo3 : 218,159,247
Combo4 : 245,154,120

[HitObjects]
256,70,1973,6,0,P|200:72|159:134,2,120,8|8|8,0:1|0:1|0:1,0:0:0:0:
374,88,3306,6,0,P|398:62|408:16,2,60,6|0|8,3:2|0:2|3:1,0:0:0:0:
325,123,3973,2,0,P|319:185|368:231,1,120,2|2,3:2|0:2,0:0:0:0:
407,254,4639,1,10,3:1:0:0:
407,254,4862,2,0,P|343:260|295:315,1,120,2|0,3:2|0:2,0:0:0:0:
275,349,5528,1,10,3:1:0:0:
156,328,5973,2,0,L|125:163,1,120,0|10,3:2|3:1,0:0:0:0:
112,91,6862,6,0,P|68:110|36:156,2,89.9999999999999,6|2|0,3:2|0:0|0:2,0:0:0:0:
169,108,7750,2,0,P|192:122|236:126,1,60,2|0,3:2|3:0,0:0:0:0:
283,118,8195,1,8,3:1:0:0:
384,53,8639,2,0,B|361:126|427:102|402:188,1,120,2|8,3:2|3:1,0:0:0:0:
391,223,9306,1,2,3:2:0:0:
391,223,9528,1,2,3:2:0:0:
300,301,9973,1,12,3:1:0:0:
182,324,10417,6,0,P|195:353|195:394,2,60,6|0|8,3:2|0:2|3:1,0:0:0:0:
129,300,11084,2,0,P|66:285|42:219,1,120,2|0,3:2|3:2,0:0:0:0:
37,179,11750,1,8,3:1:0:0:
37,179,11973,2,0,P|111:157|165:116,1,120,6|0,3:2|3:2,0:0:0:0:
177,82,12639,1,8,0:1:0:0:
177,82,12862,2,0,P|245:44|356:51,1,180,2|8,3:2|0:1,0:0:0:0:
440,119,13973,6,0,B|425:178|425:178|420:182|420:182|404:243,1,120,6|10,3:2|3:1,0:0:0:0:
427,351,14862,2,0,P|373:364|321:318,1,120,2|8,3:2|3:1,0:0:0:0:
297,274,15528,1,0,0:2:0:0:
297,274,15750,2,0,P|261:302|233:352,2,89.9999999999999,6|2|2,3:2|0:0|3:2,0:0:0:0:
321,219,16639,1,0,3:2:0:0:
271,109,17084,2,0,L|206:114,1,60,8|0,3:1|3:2,0:0:0:0:
158,84,17528,6,0,P|96:105|88:166,1,120,6|8,3:2|3:1,0:0:0:0:
106,208,18195,1,0,3:2:0:0:
106,208,18417,2,0,P|63:217|31:230,2,60,6|2|8,3:2|0:2|3:1,0:0:0:0:
160,233,19084,1,8,3:1:0:0:
160,233,19306,5,4,3:2:0:0:
222,335,19750,2,0,L|284:324,1,56.9999984779358,8|0,3:1|0:2,0:0:0:0:
331,344,20195,1,0,3:2:0:0:
405,257,20639,1,8,3:1:0:0:
302,206,21084,2,0,L|292:138,1,56.9999984779358,4|0,3:2|0:2,0:0:0:0:
285,93,21528,2,0,P|322:40|382:40,1,113.999996955872,8|0,3:1|3:2,0:0:0:0:
472,80,22417,2,0,L|466:148,1,56.9999984779358,8|0,3:1|0:2,0:0:0:0:
429,179,22862,5,4,3:2:0:0:
512,254,23306,2,0,P|495:276|457:289,1,56.9999984779358,8|0,3:1|0:2,0:0:0:0:
413,273,23750,1,4,3:2:0:0:
327,348,24195,1,8,3:1:0:0:
255,259,24639,2,0,L|245:188,1,56.9999984779358,4|0,3:2|0:2,0:0:0:0:
238,146,25084,2,0,P|200:104|139:116,1,113.999996955872,8|0,3:1|3:2,0:0:0:0:
47,165,25973,2,0,L|59:242,1,56.9999984779358,8|0,3:1|3:2,0:0:0:0:
58,275,26417,6,0,P|113:278|152:338,1,107.999996704102,6|8,3:2|3:1,0:0:0:0:
170,363,27084,1,2,0:0:0:0:
276,378,27528,1,2,0:2:0:0:
361,312,27973,1,2,0:2:0:0:
361,312,28195,2,0,L|347:240,1,53.9999983520508,2|0,3:2|0:0,0:0:0:0:
338,206,28639,2,0,P|342:154|403:135,1,107.999996704102,8|2,3:1|3:2,0:0:0:0:
496,134,29528,1,8,3:1:0:0:
496,134,29750,6,0,P|484:58|411:30,1,161.999995056153,0|8,3:2|3:1,0:0:0:0:
360,47,30639,1,2,0:2:0:0:
263,96,31084,2,0,P|210:91|147:52,1,107.999996704102,2|2,0:2|0:2,0:0:0:0:
123,28,31750,2,0,P|52:31|27:71,1,107.999996704102,2|8,3:2|3:1,0:0:0:0:
30,110,32417,1,2,0:2:0:0:
117,173,32862,1,0,0:0:0:0:
117,173,33084,2,0,L|128:241,1,53.9999983520508,8|0,3:1|3:2,0:0:0:0:
133,279,33528,6,0,P|171:323|227:328,1,107.999996704102,6|8,3:2|3:1,0:0:0:0:
272,329,34195,1,2,0:0:0:0:
310,230,34639,1,0,0:2:0:0:
310,230,34862,1,10,3:1:0:0:
233,153,35306,2,0,P|232:105|282:75,1,107.999996704102,6|8,3:2|3:1,0:0:0:0:
329,58,35973,2,0,L|448:72,1,107.999996704102
478,104,36639,1,8,3:1:0:0:
441,205,37084,6,0,L|432:268,1,53.9999983520508,4|0,3:2|0:0,0:0:0:0:
411,307,37528,2,0,P|348:314|308:289,1,107.999996704102,10|0,0:1|3:2,0:0:0:0:
203,299,38417,2,0,L|137:314,1,53.9999983520508,8|0,3:1|0:2,0:0:0:0:
104,340,38862,2,0,P|55:311|53:243,1,107.999996704102,2|8,3:2|3:1,0:0:0:0:
62,212,39528,1,2,0:0:0:0:
132,130,39973,2,0,L|116:69,2,53.9999983520508,0|10|2,0:2|3:1|3:2,0:0:0:0:
160,172,40639,6,0,P|222:178|257:138,1,102.000001945496,6|8,3:2|0:1,0:0:0:0:
277,111,41306,2,0,P|318:82|366:93,1,102.000001945496,0|0,3:2|0:2,0:0:0:0:
402,128,41973,1,8,3:1:0:0:
437,223,42417,2,0,P|473:218|505:202,2,51.0000009727478,2|0|8,3:2|3:2|0:1,0:0:0:0:
387,236,43084,2,0,P|340:263|333:323,1,102.000001945496,2|0,3:2|0:2,0:0:0:0:
331,351,43750,1,8,3:1:0:0:
234,383,44195,6,0,P|181:377|121:347,1,102.000001945496,6|8,3:2|0:1,0:0:0:0:
102,319,44862,2,0,P|107:265|135:229,1,102.000001945496,0|0,3:2|0:2,0:0:0:0:
181,205,45528,1,10,3:1:0:0:
271,252,45973,2,0,L|259:310,2,51.0000009727478,2|0|8,3:2|0:2|0:1,0:0:0:0:
314,225,46639,2,0,P|344:192|330:123,1,102.000001945496,2|4,3:2|0:3,0:0:0:0:
278,49,47528,6,0,B|219:67|241:11|167:26,1,107.999996704102,2|0,3:2|0:2,0:0:0:0:
126,37,48195,2,0,P|98:30|65:1,2,53.9999983520508,10|0|2,3:1|0:2|3:2,0:0:0:0:
129,91,48862,1,0,0:2:0:0:
207,164,49306,2,0,L|229:296,1,107.999996704102,2|0,3:2|0:0,0:0:0:0:
235,323,49973,1,10,3:1:0:0:
342,331,50417,2,0,L|330:386,2,53.9999983520508,2|0|8,3:2|0:2|3:1,0:0:0:0:
389,305,51084,6,0,P|432:276|443:213,1,107.999996704102,2|0,3:2|0:2,0:0:0:0:
432,171,51750,1,10,3:1:0:0:
449,63,52195,1,0,3:2:0:0:
449,63,52417,2,0,L|382:51,1,53.9999983520508,0|8,3:2|3:1,0:0:0:0:
345,32,52862,2,0,P|260:30|234:248,1,350.99998928833,2|0,3:2|3:2,0:0:0:0:
376,254,54862,6,0,L|451:236,2,60,6|0|8,3:2|0:2|3:1,0:0:0:0:
355,310,55529,2,0,P|291:306|244:345,1,120,2|2,3:2|0:2,0:0:0:0:
211,384,56195,1,10,3:1:0:0:
211,384,56418,2,0,L|70:348,1,120,2|0,3:2|0:2,0:0:0:0:
36,341,57084,1,10,3:1:0:0:
24,221,57529,2,0,P|42:163|106:154,1,120,2|10,3:2|3:1,0:0:0:0:
196,214,58418,6,0,L|212:314,2,90,6|2|2,3:2|0:0|0:2,0:0:0:0:
213,156,59306,2,0,P|240:145|272:148,1,60,2|0,3:2|3:0,0:0:0:0:
317,184,59751,1,8,3:1:0:0:
425,234,60195,2,0,B|443:99,1,120,2|8,3:2|3:1,0:0:0:0:
446,58,60862,1,2,3:2:0:0:
446,58,61084,1,2,3:2:0:0:
335,10,61529,1,8,3:1:0:0:
218,39,61973,6,0,P|189:42|152:30,2,60,6|0|8,3:2|0:2|3:1,0:0:0:0:
270,69,62640,2,0,P|291:127|277:187,1,120,2|0,3:2|3:2,0:0:0:0:
233,220,63306,1,8,3:1:0:0:
233,220,63529,2,0,P|298:236|353:275,1,120,6|0,3:2|3:2,0:0:0:0:
364,320,64195,1,8,3:1:0:0:
474,274,64639,2,0,L|460:210,1,60,8|8,0:3|0:3,0:0:0:0:
446,157,65084,1,0,3:2:0:0:
372,62,65528,6,0,P|423:31|484:41,2,120,6|10|2,3:2|3:1|3:2,0:0:0:0:
307,163,66862,2,0,L|237:142,1,60,10|0,3:1|3:2,0:0:0:0:
189,145,67306,2,0,P|160:107|171:58,2,90,14|10|10,3:1|0:1|0:1,0:0:0:0:
190,205,68195,1,10,3:1:0:0:
252,307,68639,2,0,P|217:312|175:325,1,60,2|10,3:2|3:1,0:0:0:0:
134,329,69084,6,0,P|151:359|146:389,2,60,6|0|8,3:2|0:2|3:1,0:0:0:0:
74,319,69751,2,0,P|36:274|44:216,1,120,2|0,3:2|0:2,0:0:0:0:
83,171,70417,1,8,3:1:0:0:
83,171,70640,2,0,P|141:191|209:207,1,120,2|0,3:2|0:2,0:0:0:0:
256,192,71306,1,10,3:1:0:0:
370,156,71751,2,0,L|339:-9,1,120,0|10,3:2|3:1,0:0:0:0:
227,46,72640,6,0,P|183:37|138:4,2,90,6|2|2,3:2|0:0|0:2,0:0:0:0:
260,95,73528,2,0,P|246:118|242:162,1,60,2|0,3:2|3:0,0:0:0:0:
273,200,73973,1,8,3:1:0:0:
330,305,74417,2,0,B|257:282|281:348|195:323,1,120,2|8,3:2|3:1,0:0:0:0:
161,329,75084,1,2,3:2:0:0:
161,329,75306,1,2,3:2:0:0:
192,213,75751,1,12,3:1:0:0:
89,150,76195,6,0,P|58:142|28:119,2,60,6|0|8,3:2|0:2|3:1,0:0:0:0:
128,104,76862,2,0,P|174:68|240:76,1,120,2|0,3:2|3:2,0:0:0:0:
286,109,77528,1,8,3:1:0:0:
286,109,77751,2,0,L|258:254,1,120,6|0,3:2|3:2,0:0:0:0:
258,290,78417,1,8,0:1:0:0:
258,290,78640,2,0,P|318:345|416:315,1,180,6|8,3:2|0:1,0:0:0:0:
484,232,79750,6,0,L|450:94,1,120,6|10,3:2|3:1,0:0:0:0:
378,25,80640,2,0,P|321:12|275:48,1,120,2|8,3:2|3:1,0:0:0:0:
248,103,81306,1,0,0:2:0:0:
248,103,81528,2,0,P|266:141|267:199,2,90,6|2|2,3:2|0:0|3:2,0:0:0:0:
193,76,82417,1,0,3:2:0:0:
73,61,82862,2,0,P|42:59|5:76,1,60,8|0,3:1|3:2,0:0:0:0:
1,127,83306,6,0,P|22:189|83:197,1,120,6|8,3:2|3:1,0:0:0:0:
131,188,83973,1,0,3:2:0:0:
131,188,84195,2,0,P|122:145|109:113,2,60,2|0|8,3:2|0:2|3:1,0:0:0:0:
158,247,84862,1,8,3:1:0:0:
158,247,85084,5,6,3:2:0:0:
249,179,85528,2,0,L|311:168,1,56.9999984779358,8|0,3:1|0:2,0:0:0:0:
349,132,85973,1,0,3:2:0:0:
453,177,86417,1,8,3:1:0:0:
422,287,86862,2,0,P|393:302|355:302,1,56.9999984779358,4|2,3:2|0:2,0:0:0:0:
315,286,87306,2,0,P|255:278|206:325,1,113.999996955872,8|0,3:1|3:2,0:0:0:0:
113,361,88195,2,0,L|99:296,1,56.9999984779358,8|0,3:1|0:2,0:0:0:0:
56,268,88640,5,4,3:2:0:0:
11,163,89084,2,0,P|37:150|56:126,1,56.9999984779358,8|0,3:1|0:2,0:0:0:0:
68,73,89528,1,0,3:2:0:0:
155,0,89973,1,8,3:1:0:0:
255,53,90417,2,0,L|263:111,1,56.9999984779358,4|2,3:2|0:2,0:0:0:0:
267,166,90862,2,0,P|322:167|379:222,1,113.999996955872,8|4,3:1|3:2,0:0:0:0:
416,304,91751,2,0,P|450:303|473:271,1,56.9999984779358,8|0,3:1|3:2,0:0:0:0:
496,240,92195,5,4,3:2:0:0:
437,142,92639,2,0,L|426:77,1,56.9999984779358,8|0,3:1|0:2,0:0:0:0:
448,32,93084,1,0,3:2:0:0:
337,3,93528,1,8,3:1:0:0:
246,72,93973,2,0,L|167:62,1,56.9999984779358,4|0,3:2|0:2,0:0:0:0:
132,64,94417,2,0,P|72:74|41:126,1,113.999996955872,8|0,3:1|3:2,0:0:0:0:
94,218,95306,2,0,L|175:229,1,56.9999984779358,8|0,3:1|0:2,0:0:0:0:
204,206,95751,5,6,3:2:0:0:
264,304,96195,2,0,P|295:320|334:315,1,56.9999984779358,8|0,3:1|0:2,0:0:0:0:
369,300,96639,1,6,3:2:0:0:
482,315,97084,1,8,3:1:0:0:
504,203,97528,2,0,L|494:132,1,56.9999984779358,6|0,3:2|0:2,0:0:0:0:
464,100,97973,2,0,P|414:109|392:171,1,113.999996955872,8|0,3:1|3:2,0:0:0:0:
315,248,98862,2,0,L|238:231,1,56.9999984779358,8|0,3:1|3:2,0:0:0:0:
212,225,99306,6,0,P|201:156|310:66,1,215.999993408203,6|2,3:2|0:2,0:0:0:0:
434,207,101084,1,2,0:2:0:0:
256,192,101306,12,0,109973,0:2:0:0:
