osu file format v14

[General]
AudioFilename: audio.ogg
AudioLeadIn: 0
PreviewTime: 862
Countdown: 0
SampleSet: Soft
StackLeniency: 0.8
Mode: 0
LetterboxInBreaks: 0
WidescreenStoryboard: 1

[Editor]
Bookmarks: 1973,3306,10417,19306,26417,40639,47528,54862,61973,69084,76195,85084,99306
DistanceSpacing: 1.5
BeatDivisor: 4
GridSize: 4
TimelineZoom: 1.8

[Metadata]
Title:true my heart (Short Ver.)
TitleUnicode:true my heart (Short Ver.)
Artist:ave;new feat. Sakura Saori
ArtistUnicode:ave;new feat. 佐倉紗織
Creator:Suzuaki_Rin
Version:Insane
Source:Nursery Rhyme -ナーサリィ☆ライム-
Tags:japanese eroge j-pop jpop j pop vn visual novel galgame op opening Lump of Sugar ナーサリィライム あべにゅう アベニュー avenew きしめん kiss my lips a.k.a.dRESS aka
BeatmapID:3926182
BeatmapSetID:1904230

[Difficulty]
HPDrainRate:5
CircleSize:4
OverallDifficulty:6.8
ApproachRate:8
SliderMultiplier:2
SliderTickRate:1

[Events]
//Background and Video events
0,0,"bgbgbgbgbgbgbgbgbgbg.jpg",0,0
//Break Periods
//Storyboard Layer 0 (Background)
//Storyboard Layer 1 (Fail)
//Storyboard Layer 2 (Pass)
//Storyboard Layer 3 (Foreground)
//Storyboard Layer 4 (Overlay)
//Storyboard Sound Samples

[TimingPoints]
-249,444.444444444444,4,2,1,50,1,0
1973,-111.111111111111,4,2,1,60,0,0
3306,-100,4,2,1,90,0,1
19306,-111.111111111111,4,2,1,80,0,0
26417,-117.647058823529,4,2,1,60,0,0
40639,-125,4,2,1,65,0,0
47528,-117.647058823529,4,2,1,70,0,0
54862,-100,4,2,1,90,0,1
65084,-100,4,2,1,80,0,1
65306,-100,4,2,1,70,0,1
65528,-100,4,2,1,90,0,1
85084,-111.111111111111,4,2,1,80,0,0
99306,-125,4,2,1,60,0,0
102862,-166.666666666667,4,2,1,50,0,0
104639,-166.666666666667,4,2,1,50,0,0
106417,-166.666666666667,4,2,1,30,0,0
108195,-166.666666666667,4,2,1,20,0,0
109084,-166.666666666667,4,2,1,20,0,0
109528,-166.666666666667,4,2,1,10,0,0
109973,-166.666666666667,4,2,1,5,0,0

[Colours]
Combo1 : 126,239,152
Combo2 : 137,243,241
Combo3 : 218,159,247
Combo4 : 245,154,120

[HitObjects]
255,345,1973,6,0,L|364:319,1,89.9999972534181,8|0,0:1|0:0,0:0:0:0:
466,274,2306,1,8,0:1:0:0:
466,274,2417,2,0,L|378:253,1,89.9999972534181,8|0,0:1|3:2,0:0:0:0:
295,234,2750,1,8,0:3:0:0:
295,234,2862,2,0,L|280:164,1,44.999998626709,8|0,0:1|0:0,0:0:0:0:
266,111,3084,1,0,3:2:0:0:
208,277,3306,5,6,3:2:0:0:
208,277,3528,1,0,0:2:0:0:
23,235,3750,1,8,3:1:0:0:
122,384,3973,2,0,L|93:248,1,100,2|0,3:2|3:0,0:0:0:0:
169,130,4417,1,2,0:2:0:0:
109,200,4639,1,10,3:1:0:0:
0,93,4862,6,0,P|74:73|157:43,1,150,2|0,3:2|0:0,0:0:0:0:
166,4,5306,1,0,0:2:0:0:
324,114,5528,2,0,P|278:96|230:63,1,100,10|0,3:1|0:0,0:0:0:0:
406,41,5973,1,0,3:2:0:0:
470,121,6195,2,0,L|455:183,1,50,2|0,0:2|0:2,0:0:0:0:
378,201,6417,2,0,L|393:263,2,50,10|0|0,3:1|0:0|3:2,0:0:0:0:
512,352,6862,6,0,P|444:353|348:387,1,150,6|2,3:2|0:0,0:0:0:0:
316,368,7306,1,8,3:1:0:0:
227,322,7528,1,0,0:2:0:0:
345,166,7750,2,0,P|316:228|300:295,1,100,2|0,3:2|3:0,0:0:0:0:
211,47,8195,2,0,P|233:91|248:139,1,100,8|0,3:1|0:2,0:0:0:0:
223,312,8639,6,0,P|152:307|64:244,1,150,2|0,3:2|3:2,0:0:0:0:
57,226,9084,1,8,3:1:0:0:
119,147,9306,1,2,3:2:0:0:
119,147,9417,1,2,0:2:0:0:
119,147,9528,2,0,L|94:68,1,50,2|0,3:2|0:2,0:0:0:0:
16,16,9750,1,8,0:1:0:0:
223,88,9973,2,0,P|299:71|363:25,1,150,12|0,3:1|0:0,0:0:0:0:
402,6,10417,5,6,3:2:0:0:
402,6,10639,1,0,0:2:0:0:
512,163,10862,1,8,3:1:0:0:
349,134,11084,2,0,P|398:116|473:113,1,100,2|0,3:2|0:0,0:0:0:0:
410,243,11528,1,0,3:2:0:0:
309,199,11750,1,8,3:1:0:0:
303,342,11973,6,0,P|243:312|132:311,1,150,6|0,3:2|0:2,0:0:0:0:
119,332,12417,1,0,3:2:0:0:
40,207,12639,1,8,0:1:0:0:
136,83,12862,2,0,P|182:104|246:188,1,150,2|8,3:2|0:1,0:0:0:0:
253,229,13306,2,0,P|285:206|314:198,1,50,8|8,0:1|0:1,0:0:0:0:
357,146,13528,1,8,0:1:0:0:
381,151,13639,1,8,0:1:0:0:
405,156,13750,1,8,0:1:0:0:
430,161,13861,1,8,0:1:0:0:
460,170,13973,6,0,P|500:110|468:30,1,150,6|0,3:2|0:2,0:0:0:0:
435,14,14417,2,0,L|327:27,1,100,10|0,3:1|3:2,0:0:0:0:
250,78,14862,1,2,3:2:0:0:
172,14,15084,1,2,0:2:0:0:
114,107,15306,2,0,L|131:160,1,50,8|0,3:1|0:0,0:0:0:0:
150,235,15528,1,0,0:2:0:0:
150,235,15639,1,0,0:2:0:0:
150,235,15750,6,0,P|85:271|7:242,2,150,6|2|2,3:2|0:0|3:2,0:0:0:0:
228,197,16528,1,0,0:2:0:0:
228,197,16639,1,0,3:2:0:0:
262,347,16862,2,0,L|335:359,1,50,8|0,0:1|0:2,0:0:0:0:
345,282,17084,2,0,L|394:273,1,50,8|0,3:1|0:2,0:0:0:0:
464,338,17306,1,0,3:2:0:0:
512,172,17528,6,0,P|466:125|350:132,1,150,6|0,3:2|0:2,0:0:0:0:
342,141,17973,1,8,3:1:0:0:
268,6,18195,1,0,3:2:0:0:
131,100,18417,2,0,L|236:113,1,100,6|2,3:2|0:2,0:0:0:0:
137,0,18862,1,10,3:1:0:0:
112,4,18973,1,2,0:0:0:0:
87,8,19084,1,10,3:1:0:0:
63,12,19195,1,2,0:2:0:0:
38,17,19306,6,0,P|23:66|41:110,1,89.9999972534181,4|0,3:2|0:2,0:0:0:0:
59,138,19639,2,0,L|46:197,1,44.999998626709,2|8,0:0|3:1,0:0:0:0:
0,285,19973,1,2,0:2:0:0:
22,280,20084,1,2,0:2:0:0:
44,275,20195,1,2,3:2:0:0:
66,270,20306,2,0,L|148:252,1,44.999998626709,2|0,0:2|0:2,0:0:0:0:
229,318,20528,2,0,P|197:286|188:230,1,89.9999972534181,2|0,0:2|0:2,0:0:0:0:
198,199,20862,1,2,0:2:0:0:
153,121,21084,6,0,P|200:98|239:71,1,89.9999972534181,4|0,3:2|0:2,0:0:0:0:
299,18,21528,1,8,3:1:0:0:
299,18,21639,2,0,P|327:35|366:44,1,44.999998626709,0|0,0:2|0:2,0:0:0:0:
426,19,21862,2,0,P|460:49|451:114,1,89.9999972534181,2|0,0:2|0:2,0:0:0:0:
399,140,22195,1,2,0:2:0:0:
399,140,22306,1,2,0:2:0:0:
399,140,22417,2,0,L|411:205,2,44.999998626709,10|0|0,3:1|0:2|0:2,0:0:0:0:
512,245,22862,6,0,P|476:253|447:268,1,44.999998626709,4|0,3:2|0:2,0:0:0:0:
445,342,23084,2,0,P|421:333|397:329,1,44.999998626709,0|0,0:2|0:2,0:0:0:0:
342,259,23306,1,8,3:1:0:0:
236,348,23528,1,2,0:2:0:0:
240,323,23639,1,2,0:2:0:0:
245,298,23750,1,6,3:2:0:0:
250,273,23862,2,0,L|261:202,1,44.999998626709,2|0,0:2|0:2,0:0:0:0:
309,104,24084,2,0,L|316:149,1,44.999998626709,0|8,0:2|3:1,0:0:0:0:
391,219,24306,1,0,0:2:0:0:
391,219,24417,2,0,P|421:217|464:197,1,44.999998626709,0|0,0:2|0:2,0:0:0:0:
508,92,24639,6,0,P|486:45|417:27,1,89.9999972534181,4|0,3:2|0:2,0:0:0:0:
364,13,25084,1,8,3:1:0:0:
291,60,25306,1,2,0:2:0:0:
291,60,25417,1,2,0:2:0:0:
291,60,25528,2,0,L|223:46,1,44.999998626709,2|0,3:2|0:2,0:0:0:0:
172,0,25750,2,0,L|123:10,1,44.999998626709,0|0,0:2|0:2,0:0:0:0:
48,68,25973,1,10,3:1:0:0:
48,68,26084,1,2,0:2:0:0:
48,68,26195,1,2,3:2:0:0:
125,171,26417,6,0,P|176:137|265:129,1,127.50000243187,6|0,3:2|0:2,0:0:0:0:
280,140,26862,1,8,3:1:0:0:
276,282,27084,2,0,P|237:258|217:219,1,85.0000016212464,2|0,0:0|3:0,0:0:0:0:
373,272,27528,2,0,P|371:317|347:354,1,85.0000016212464,2|8,0:2|3:1,0:0:0:0:
315,207,27973,1,2,0:2:0:0:
315,207,28195,6,0,P|375:190|456:188,1,127.50000243187,2|0,3:2|0:2,0:0:0:0:
477,205,28639,1,8,3:1:0:0:
477,205,28862,1,0,0:2:0:0:
414,91,29084,1,2,3:2:0:0:
512,88,29306,2,0,L|403:111,1,85.0000016212464,0|8,0:2|3:1,0:0:0:0:
314,18,29750,1,0,3:2:0:0:
185,60,29973,6,0,P|211:105|311:121,1,127.50000243187,6|0,3:2|0:2,0:0:0:0:
321,122,30417,1,8,3:1:0:0:
179,37,30639,2,0,P|139:43|67:70,1,85.0000016212464,2|0,0:2|3:2,0:0:0:0:
10,137,31084,2,0,P|66:143|135:182,1,127.50000243187,2|0,0:2|0:0,0:0:0:0:
158,206,31528,1,2,0:2:0:0:
104,319,31750,6,0,P|81:270|86:234,1,85.0000016212464,2|0,3:2|0:0,0:0:0:0:
206,368,32195,1,8,3:1:0:0:
264,306,32417,2,0,P|332:292|401:215,1,170.000003242493,2|0,0:2|0:0,0:0:0:0:
354,86,33084,2,0,P|333:124|338:177,1,85.0000016212464,8|0,3:1|3:2,0:0:0:0:
495,40,33528,6,0,P|397:69|350:74,1,127.50000243187,6|0,3:2|0:2,0:0:0:0:
337,46,33973,1,8,3:1:0:0:
203,2,34195,2,0,P|236:32|247:72,1,85.0000016212464,2|0,0:0|3:0,0:0:0:0:
238,154,34639,1,0,0:2:0:0:
94,122,34862,2,0,P|158:133|222:169,1,127.50000243187,10|0,3:1|0:2,0:0:0:0:
264,227,35306,6,0,P|271:268|295:304,2,85.0000016212464,6|0|8,3:2|0:2|3:1,0:0:0:0:
248,383,35973,2,0,P|307:345|402:314,1,170.000003242493
480,344,36639,1,8,3:1:0:0:
512,227,36862,6,0,P|471:208|427:178,1,85.0000016212464,2|4,3:2|3:2,0:0:0:0:
388,117,37306,1,0,0:2:0:0:
304,160,37528,2,0,P|353:156|394:115,1,85.0000016212464,10|0,3:1|0:2,0:0:0:0:
257,18,37973,1,0,3:2:0:0:
199,80,38195,2,0,P|162:67|99:40,1,85.0000016212464,0|8,0:2|3:1,0:0:0:0:
4,104,38639,1,0,0:2:0:0:
78,271,38862,5,2,3:2:0:0:
0,203,39084,2,0,L|97:178,1,85.0000016212464,0|8,0:2|3:1,0:0:0:0:
244,185,39528,2,0,P|179:209|186:287,1,127.50000243187,2|0,0:0|0:0,0:0:0:0:
191,297,39973,1,0,0:2:0:0:
271,380,40195,2,0,L|325:367,1,42.5000008106232,10|2,3:1|0:2,0:0:0:0:
346,292,40417,2,0,L|387:301,1,42.5000008106232,2|2,3:2|0:2,0:0:0:0:
464,356,40639,6,0,P|513:296|468:214,1,160,6|8,3:2|0:1,0:0:0:0:
415,186,41306,2,0,L|245:211,1,160,0|0,3:2|0:2,0:0:0:0:
186,169,41973,1,8,3:1:0:0:
263,303,42195,1,0,3:2:0:0:
263,303,42306,1,0,0:2:0:0:
263,303,42417,2,0,L|351:290,2,80,2|0|8,3:2|3:2|0:1,0:0:0:0:
204,358,43084,2,0,P|147:343|131:256,1,120,2|0,3:2|0:0,0:0:0:0:
122,251,43528,1,0,0:2:0:0:
133,171,43750,2,0,P|88:179|52:210,1,80,8|0,3:1|3:2,0:0:0:0:
165,81,44195,6,0,P|241:102|292:182,1,160,6|8,3:2|0:1,0:0:0:0:
296,244,44862,2,0,P|376:216|464:215,1,160,0|0,3:2|0:2,0:0:0:0:
493,280,45528,1,10,3:1:0:0:
403,377,45750,1,0,3:2:0:0:
403,377,45862,1,0,3:2:0:0:
403,377,45973,2,0,L|391:287,2,80,2|0|8,3:2|0:2|0:1,0:0:0:0:
290,304,46639,2,0,L|278:214,1,80,2|0,3:2|1:2,0:0:0:0:
277,204,46973,1,0,1:2:0:0:
274,184,47084,1,8,0:3:0:0:
271,164,47195,1,8,0:3:0:0:
269,145,47306,1,4,0:3:0:0:
204,20,47528,6,0,P|148:27|108:87,1,127.50000243187,2|0,3:2|0:0,0:0:0:0:
100,123,47973,1,0,0:2:0:0:
182,232,48195,2,0,L|67:219,1,85.0000016212464,10|0,3:1|0:2,0:0:0:0:
25,278,48639,1,2,3:2:0:0:
223,308,48862,2,0,L|307:317,2,85.0000016212464,0|10|2,0:2|3:1|3:2,0:0:0:0:
345,230,49528,6,0,P|407:268|410:355,1,127.50000243187,4|0,3:2|0:0,0:0:0:0:
394,351,49973,1,10,3:1:0:0:
512,269,50195,1,0,0:2:0:0:
481,172,50417,2,0,L|495:260,2,85.0000016212464,2|0|8,3:2|0:2|3:1,0:0:0:0:
474,71,51084,6,0,P|406:73|349:27,1,127.50000243187,2|0,3:2|0:0,0:0:0:0:
328,11,51528,1,0,0:2:0:0:
240,70,51750,2,0,L|263:165,1,85.0000016212464,10|0,3:1|0:2,0:0:0:0:
281,257,52195,2,0,P|337:231|353:201,2,85.0000016212464,0|0|8,3:2|3:2|3:1,0:0:0:0:
62,185,52862,6,0,P|133:180|176:281,1,170.000003242493,2|0,3:2|0:0,0:0:0:0:
130,328,53417,1,0,0:0:0:0:
130,328,53528,2,0,P|157:335|182:350,1,42.5000008106232,8|8,3:1|0:1,0:0:0:0:
240,377,53750,2,0,P|259:368|279:363,1,42.5000008106232,8|8,0:1|0:1,0:0:0:0:
341,267,53973,1,8,3:1:0:0:
442,340,54195,1,8,0:1:0:0:
442,340,54306,1,0,3:2:0:0:
491,74,54862,5,6,3:2:0:0:
491,74,55084,1,0,0:2:0:0:
315,119,55306,1,8,3:1:0:0:
377,0,55529,2,0,L|397:97,1,100,2|0,3:2|3:0,0:0:0:0:
392,276,55973,1,2,0:2:0:0:
455,205,56195,1,8,3:1:0:0:
303,202,56418,6,0,P|341:271|347:349,1,150,2|0,3:2|0:0,0:0:0:0:
322,383,56862,1,0,0:2:0:0:
222,331,57084,2,0,P|184:305|131:285,1,100,10|0,3:1|3:1,0:0:0:0:
55,360,57529,1,2,3:2:0:0:
11,229,57751,2,0,L|0:180,1,50,2|0,0:2|0:2,0:0:0:0:
69,129,57973,2,0,L|80:80,2,50,10|0|0,3:1|0:0|3:2,0:0:0:0:
163,30,58418,6,0,P|231:31|327:65,1,150,6|2,3:2|0:0,0:0:0:0:
347,86,58862,1,8,3:1:0:0:
228,229,59084,1,2,0:2:0:0:
411,234,59306,2,0,P|349:205|282:189,1,100,2|0,3:2|3:0,0:0:0:0:
208,335,59750,2,0,P|270:306|337:290,1,100,8|0,3:1|0:2,0:0:0:0:
176,129,60195,6,0,P|126:182|140:259,1,150,2|0,3:2|3:2,0:0:0:0:
168,298,60640,1,8,3:1:0:0:
267,137,60862,1,2,3:2:0:0:
267,137,60973,1,2,0:2:0:0:
267,137,61084,2,0,P|267:112|227:78,1,50,2|0,3:2|0:2,0:0:0:0:
181,53,61306,1,8,0:1:0:0:
233,227,61529,2,0,P|310:222|381:185,1,150,8|0,3:1|0:0,0:0:0:0:
411,149,61973,5,6,3:2:0:0:
411,149,62195,1,0,0:2:0:0:
315,72,62418,1,8,3:1:0:0:
233,227,62640,2,0,P|251:276|254:351,1,100,2|0,3:2|0:0,0:0:0:0:
174,356,63084,1,0,3:2:0:0:
343,277,63306,1,8,3:1:0:0:
214,217,63528,6,0,P|140:229|87:288,1,150,6|0,3:2|0:0,0:0:0:0:
72,328,63973,1,0,3:2:0:0:
174,370,64195,1,8,3:1:0:0:
249,285,64417,1,0,0:2:0:0:
261,141,64639,1,8,0:3:0:0:
273,161,64750,1,8,0:3:0:0:
291,177,64861,1,8,0:3:0:0:
316,180,64972,1,8,0:3:0:0:
340,174,65084,2,0,P|364:158|401:162,2,50,0|0|0,3:2|3:2|3:2,0:2:0:0:
439,359,65528,6,0,P|494:308|462:248,1,150,6|0,3:2|0:0,0:0:0:0:
421,225,65973,2,0,L|310:252,1,100,10|0,3:1|0:2,0:0:0:0:
244,328,66417,1,2,3:2:0:0:
244,328,66528,1,0,0:0:0:0:
244,328,66639,2,0,P|221:288|227:260,1,50,0|0,3:2|0:0,0:0:0:0:
244,203,66862,2,0,L|210:60,1,100,10|0,3:1|3:2,0:0:0:0:
143,12,67306,6,0,L|129:99,1,50,14|8,3:1|0:1,0:0:0:0:
67,115,67528,1,8,0:1:0:0:
67,115,67639,2,0,P|46:151|74:197,1,100,10|0,0:1|0:0,0:0:0:0:
138,241,67973,2,0,L|156:323,1,50,10|8,0:1|0:1,0:0:0:0:
216,346,68195,1,10,3:1:0:0:
291,292,68417,1,8,0:1:0:0:
291,292,68528,1,8,0:1:0:0:
291,292,68639,2,0,L|351:304,1,50,2|2,3:2|0:2,0:0:0:0:
399,368,68862,2,0,L|448:358,1,50,10|2,3:1|0:2,0:0:0:0:
502,290,69084,5,6,3:2:0:0:
502,290,69306,1,2,0:2:0:0:
452,121,69528,1,8,3:1:0:0:
317,220,69751,2,0,L|445:197,1,100,2|0,3:2|3:0,0:0:0:0:
277,300,70195,1,2,0:2:0:0:
370,345,70417,1,8,3:1:0:0:
215,384,70640,6,0,P|132:352|29:341,1,150,2|0,3:2|0:0,0:0:0:0:
23,355,71084,1,2,0:2:0:0:
115,238,71306,2,0,P|138:196|196:141,1,100,10|0,3:1|0:0,0:0:0:0:
230,271,71751,1,0,3:2:0:0:
296,198,71973,2,0,L|351:181,1,50,2|0,0:2|0:2,0:0:0:0:
397,267,72195,2,0,L|445:282,2,50,10|0|0,3:1|0:0|3:2,0:0:0:0:
500,126,72640,6,0,P|435:106|365:46,1,150,6|2,3:2|0:0,0:0:0:0:
352,9,73084,1,8,3:1:0:0:
233,45,73306,1,2,0:2:0:0:
301,143,73528,2,0,P|363:172|430:188,1,100,2|0,3:2|3:0,0:0:0:0:
206,279,73973,2,0,P|253:263|298:241,1,100,8|0,3:1|0:2,0:0:0:0:
230,64,74417,6,0,P|161:84|148:180,1,150,2|0,3:2|3:2,0:0:0:0:
166,194,74862,1,8,3:1:0:0:
116,342,75084,1,2,3:2:0:0:
116,342,75195,1,2,0:2:0:0:
116,342,75306,2,0,L|173:330,1,50,2|0,3:2|0:2,0:0:0:0:
326,247,75528,1,8,0:1:0:0:
260,384,75751,2,0,L|231:222,1,150,12|0,3:1|0:0,0:0:0:0:
227,190,76195,5,6,3:2:0:0:
227,190,76417,1,2,0:2:0:0:
142,135,76640,1,8,3:1:0:0:
203,55,76862,2,0,P|257:47|314:107,1,100,2|0,3:2|0:0,0:0:0:0:
395,259,77306,1,0,3:2:0:0:
468,97,77528,1,8,3:1:0:0:
508,206,77751,6,0,P|448:176|346:149,1,150,6|0,3:2|0:2,0:0:0:0:
320,164,78195,1,0,3:2:0:0:
163,233,78417,1,8,0:1:0:0:
238,373,78640,2,0,P|267:299|248:217,1,150,6|8,3:2|0:1,0:0:0:0:
202,171,79084,2,0,P|234:148|263:140,1,50,8|8,0:1|0:1,0:0:0:0:
337,67,79306,1,8,0:1:0:0:
313,62,79417,1,8,0:1:0:0:
289,57,79528,1,8,0:1:0:0:
264,52,79639,1,8,0:1:0:0:
234,43,79751,6,0,P|169:2|103:27,1,150,6|0,3:2|0:2,0:0:0:0:
57,39,80195,2,0,P|99:84|93:151,1,100,10|0,3:1|3:2,0:0:0:0:
57,209,80640,1,2,3:2:0:0:
228,256,80862,1,0,3:2:0:0:
147,330,81084,2,0,L|131:282,1,50,8|0,3:1|0:0,0:0:0:0:
150,184,81306,1,2,0:2:0:0:
150,184,81417,1,2,0:2:0:0:
150,184,81528,6,0,P|215:148|293:177,2,150,6|2|2,3:2|0:0|3:2,0:0:0:0:
336,305,82417,1,0,3:2:0:0:
234,277,82639,2,0,L|218:197,1,50,8|0,0:1|0:2,0:0:0:0:
356,223,82862,2,0,L|365:173,1,50,8|0,3:1|0:2,0:0:0:0:
447,327,83084,1,0,3:2:0:0:
301,384,83306,6,0,P|226:353|139:344,1,150,6|0,3:2|0:2,0:0:0:0:
108,349,83751,1,8,3:1:0:0:
48,187,83973,1,0,3:2:0:0:
161,252,84195,2,0,L|59:277,1,100,2|0,3:2|0:2,0:0:0:0:
214,187,84639,6,0,L|208:152,6,25,10|0|0|0|8|0|0,3:1|0:0|0:0|0:0|3:1|0:0|0:2,0:0:0:0:
157,101,85084,6,0,P|197:77|243:90,1,89.9999972534181,6|0,3:2|0:2,0:0:0:0:
275,109,85417,2,0,L|337:92,1,44.999998626709,2|8,0:0|3:1,0:0:0:0:
398,41,85751,1,2,0:2:0:0:
403,63,85862,1,2,0:2:0:0:
408,85,85973,1,2,3:2:0:0:
413,107,86084,2,0,L|431:189,1,44.999998626709,2|0,0:2|0:2,0:0:0:0:
505,210,86306,2,0,P|473:242|417:251,1,89.9999972534181,2|0,0:2|0:2,0:0:0:0:
386,241,86639,1,2,0:2:0:0:
282,214,86862,6,0,L|303:324,1,89.9999972534181,4|2,3:2|0:2,0:0:0:0:
304,384,87306,1,8,3:1:0:0:
304,384,87417,2,0,P|277:389|239:359,1,44.999998626709,2|0,0:2|0:2,0:0:0:0:
230,350,87639,2,0,P|191:322|126:326,1,89.9999972534181,2|0,0:2|0:2,0:0:0:0:
114,340,87973,1,2,0:2:0:0:
114,340,88084,1,2,0:2:0:0:
114,340,88195,2,0,L|126:405,2,44.999998626709,10|2|0,3:1|0:2|0:2,0:0:0:0:
12,272,88639,6,0,L|23:192,1,44.999998626709,4|0,3:2|0:2,0:0:0:0:
102,196,88862,2,0,L|95:151,1,44.999998626709,0|0,0:2|0:2,0:0:0:0:
34,89,89084,1,8,3:1:0:0:
115,26,89306,1,2,0:2:0:0:
140,30,89417,1,2,0:2:0:0:
165,35,89528,1,2,3:2:0:0:
190,40,89640,2,0,L|261:51,1,44.999998626709,2|0,0:2|0:2,0:0:0:0:
258,126,89862,2,0,L|303:119,1,44.999998626709,0|8,0:2|3:1,0:0:0:0:
376,74,90084,1,0,0:2:0:0:
376,74,90195,2,0,P|390:98|385:132,1,44.999998626709,0|0,0:2|0:2,0:0:0:0:
360,196,90417,6,0,L|380:305,1,89.9999972534181,4|2,3:2|0:2,0:0:0:0:
473,339,90862,1,8,3:1:0:0:
305,384,91084,1,2,0:2:0:0:
305,384,91195,1,2,0:2:0:0:
305,384,91306,2,0,L|237:370,1,44.999998626709,6|0,3:2|0:2,0:0:0:0:
138,374,91528,2,0,P|134:348|148:324,1,44.999998626709,2|0,0:2|0:2,0:0:0:0:
235,260,91751,1,8,3:1:0:0:
235,260,91862,1,8,0:3:0:0:
235,260,91973,1,0,3:2:0:0:
120,212,92195,6,0,P|91:181|98:99,1,89.9999972534181,4|0,3:2|0:2,0:0:0:0:
126,56,92639,1,8,3:1:0:0:
201,105,92862,1,2,0:2:0:0:
223,100,92973,1,2,0:2:0:0:
245,95,93084,1,2,3:2:0:0:
267,90,93195,2,0,L|349:72,1,44.999998626709,2|0,0:2|0:2,0:0:0:0:
390,38,93417,2,0,P|434:70|436:116,1,89.9999972534181,2|0,0:2|0:2,0:0:0:0:
377,169,93751,1,2,0:2:0:0:
271,210,93973,6,0,L|301:326,1,89.9999972534181,4|0,3:2|0:2,0:0:0:0:
469,352,94417,1,8,3:1:0:0:
469,352,94528,2,0,P|468:326|449:295,1,44.999998626709,0|0,0:2|0:2,0:0:0:0:
391,251,94750,2,0,P|373:214|387:150,1,89.9999972534181,2|0,0:2|0:2,0:0:0:0:
463,128,95084,1,2,0:2:0:0:
463,128,95195,1,2,0:2:0:0:
463,128,95306,2,0,L|524:135,2,44.999998626709,10|0|0,3:1|0:2|0:2,0:0:0:0:
385,30,95750,6,0,L|305:19,1,44.999998626709,6|0,3:2|0:2,0:0:0:0:
249,20,95973,2,0,P|238:47|246:64,1,44.999998626709,0|0,0:2|0:2,0:0:0:0:
293,134,96195,1,8,3:1:0:0:
199,164,96417,1,2,0:2:0:0:
195,189,96528,1,2,0:2:0:0:
190,214,96639,1,6,3:2:0:0:
185,239,96751,2,0,L|174:310,1,44.999998626709,2|0,0:2|0:2,0:0:0:0:
136,357,96973,2,0,P|112:356|88:343,1,44.999998626709,0|8,0:2|3:1,0:0:0:0:
14,315,97195,1,0,0:2:0:0:
14,315,97306,2,0,P|14:290|29:265,1,44.999998626709,0|0,0:2|0:2,0:0:0:0:
99,225,97528,6,0,L|116:113,1,89.9999972534181,6|0,3:2|0:2,0:0:0:0:
287,91,97973,1,8,3:1:0:0:
234,239,98195,1,2,0:2:0:0:
234,239,98306,1,2,0:2:0:0:
234,239,98417,2,0,L|166:225,1,44.999998626709,2|0,3:2|0:2,0:0:0:0:
286,335,98639,2,0,L|354:321,1,44.999998626709,0|0,0:2|0:2,0:0:0:0:
379,185,98862,1,8,3:1:0:0:
379,185,98973,1,0,0:2:0:0:
379,185,99084,1,0,3:2:0:0:
457,367,99306,6,0,P|509:315|493:216,1,160,6|0,3:2|0:2,0:0:0:0:
454,152,99973,1,0,0:2:0:0:
390,77,100195,2,0,L|306:65,1,80,2|0,0:2|0:2,0:0:0:0:
204,169,100639,2,0,L|283:157,1,80,0|0,0:2|0:2,0:0:0:0:
200,16,101084,5,2,0:2:0:0:
125,70,101306,1,0,0:2:0:0:
125,70,101417,2,0,P|106:112|116:198,1,120,0|0,0:2|0:2,0:0:0:0:
178,277,101973,1,2,0:0:0:0:
178,277,102084,2,0,L|165:222,1,40,2|0,0:0|0:0,0:0:0:0:
204,169,102306,2,0,P|256:172|280:243,1,120,0|6,0:0|3:2,0:0:0:0:
256,192,102750,12,0,109973,0:0:0:0:
