osu file format v14

[General]
AudioFilename: audio.ogg
AudioLeadIn: 0
PreviewTime: 862
Countdown: 0
SampleSet: Soft
StackLeniency: 0.8
Mode: 0
LetterboxInBreaks: 0
WidescreenStoryboard: 1

[Editor]
Bookmarks: 1973,3306,10417,19306,26417,40639,47528,54862,61973,69084,76195,85084,99306
DistanceSpacing: 1.5
BeatDivisor: 4
GridSize: 4
TimelineZoom: 1.8

[Metadata]
Title:true my heart (Short Ver.)
TitleUnicode:true my heart (Short Ver.)
Artist:ave;new feat. Sakura Saori
ArtistUnicode:ave;new feat. 佐倉紗織
Creator:Suzuaki_Rin
Version:Hard
Source:Nursery Rhyme -ナーサリィ☆ライム-
Tags:japanese eroge j-pop jpop j pop vn visual novel galgame op opening Lump of Sugar ナーサリィライム あべにゅう アベニュー avenew きしめん kiss my lips a.k.a.dRESS aka
BeatmapID:3966544
BeatmapSetID:1904230

[Difficulty]
HPDrainRate:3.5
CircleSize:3
OverallDifficulty:5
ApproachRate:6
SliderMultiplier:1.4
SliderTickRate:1

[Events]
//Background and Video events
0,0,"bgbgbgbgbgbgbgbgbgbg.jpg",0,0
//Break Periods
//Storyboard Layer 0 (Background)
//Storyboard Layer 1 (Fail)
//Storyboard Layer 2 (Pass)
//Storyboard Layer 3 (Foreground)
//Storyboard Layer 4 (Overlay)
//Storyboard Sound Samples

[TimingPoints]
-249,444.444444444444,4,2,1,50,1,0
1973,-100,4,2,1,60,0,0
3306,-100,4,2,1,90,0,1
19306,-105.263157894737,4,2,1,80,0,0
26417,-111.111111111111,4,2,1,60,0,0
40639,-117.647058823529,4,2,1,65,0,0
47528,-111.111111111111,4,2,1,70,0,0
54862,-99.9999999999999,4,2,1,90,0,1
65084,-99.9999999999999,4,2,1,80,0,1
65528,-99.9999999999999,4,2,1,90,0,1
85084,-105.263157894737,4,2,1,80,0,0
99306,-125,4,2,1,60,0,0
102862,-125,4,2,1,50,0,0
104639,-125,4,2,1,50,0,0
106417,-125,4,2,1,30,0,0
108195,-125,4,2,1,20,0,0
109084,-125,4,2,1,20,0,0
109528,-125,4,2,1,10,0,0
109973,-125,4,2,1,5,0,0

[Colours]
Combo1 : 126,239,152
Combo2 : 137,243,241
Combo3 : 218,159,247
Combo4 : 245,154,120

[HitObjects]
106,178,1973,6,0,P|47:135|66:52,1,140,8|8,0:1|0:1,0:0:0:0:
117,14,2639,1,0,3:2:0:0:
117,14,2862,2,0,L|202:20,1,70,8|0,0:1|3:2,0:0:0:0:
278,53,3306,6,0,L|265:139,1,70,6|0,3:2|0:2,0:0:0:0:
252,211,3750,1,8,3:1:0:0:
187,275,3973,2,0,P|202:345|279:369,1,140,2|2,3:2|0:2,0:0:0:0:
347,339,4639,1,10,3:1:0:0:
347,339,4862,2,0,L|375:188,1,140,2|0,3:2|0:2,0:0:0:0:
439,140,5528,2,0,P|414:115|381:104,1,70,10|0,3:1|0:0,0:0:0:0:
296,137,5973,1,0,3:2:0:0:
146,33,6417,1,10,3:1:0:0:
89,205,6862,6,0,P|40:167|30:103,2,105,6|2|0,3:2|0:0|0:2,0:0:0:0:
178,220,7750,2,0,P|185:255|164:285,1,70,2|0,3:2|3:0,0:0:0:0:
97,340,8195,1,8,3:1:0:0:
273,382,8639,2,0,L|422:360,1,140,2|8,3:2|3:1,0:0:0:0:
501,343,9306,2,0,L|490:278,1,35,2|2,3:2|0:2,0:0:0:0:
490,263,9528,2,0,P|498:181|440:136,1,140,2|12,3:2|3:1,0:0:0:0:
284,101,10417,6,0,P|288:54|307:24,2,70,6|0|8,3:2|0:2|3:1,0:0:0:0:
341,171,11084,2,0,P|369:227|322:293,1,140,2|0,3:2|3:2,0:0:0:0:
241,298,11750,1,8,3:1:0:0:
241,298,11973,2,0,L|101:278,1,140,6|0,3:2|3:2,0:0:0:0:
35,217,12639,1,8,0:1:0:0:
35,217,12862,2,0,P|25:150|80:93,1,140,2|8,3:2|0:1,0:0:0:0:
147,53,13528,1,8,0:1:0:0:
234,204,13973,6,0,L|212:366,2,140,6|10|2,3:2|3:1|3:2,0:0:0:0:
303,144,15084,1,2,0:2:0:0:
237,81,15306,1,8,3:1:0:0:
315,35,15528,2,0,L|374:44,1,35,0|0,0:2|0:2,0:0:0:0:
394,46,15750,2,0,P|456:77|443:162,1,140,6|8,3:2|0:1,0:0:0:0:
388,199,16417,1,2,3:2:0:0:
297,186,16639,2,0,L|226:176,1,70,0|8,3:2|0:1,0:0:0:0:
137,165,17084,1,8,3:1:0:0:
74,231,17306,1,0,3:2:0:0:
18,302,17528,6,0,P|37:340|134:367,1,140,6|8,3:2|3:1,0:0:0:0:
197,314,18195,1,0,3:2:0:0:
258,246,18417,2,0,L|249:165,1,70,6|2,3:2|0:2,0:0:0:0:
181,116,18862,2,0,L|190:35,1,70,8|8,3:1|3:1,0:0:0:0:
273,12,19306,5,4,3:2:0:0:
363,17,19528,1,0,0:2:0:0:
363,17,19639,2,0,P|409:28|439:90,1,99.7499973363877,2|0,0:0|0:2,0:0:0:0:
367,120,20195,2,0,L|352:203,1,66.4999982242585,0|0,3:2|0:2,0:0:0:0:
402,257,20639,1,8,3:1:0:0:
328,302,20862,1,0,0:2:0:0:
247,332,21084,2,0,P|183:334|165:259,1,132.999996448517,4|8,3:2|3:1,0:0:0:0:
199,201,21750,1,0,0:2:0:0:
204,114,21973,2,0,L|129:95,1,66.4999982242585,0|0,3:2|0:2,0:0:0:0:
105,18,22417,2,0,P|63:39|53:62,1,66.4999982242585,8|0,3:1|0:2,0:0:0:0:
62,141,22862,6,0,L|81:284,1,132.999996448517,4|8,3:2|3:1,0:0:0:0:
92,358,23528,1,0,0:2:0:0:
178,365,23750,2,0,P|216:344|230:308,1,66.4999982242585,4|0,3:2|0:2,0:0:0:0:
279,256,24195,1,8,3:1:0:0:
218,193,24418,1,0,0:2:0:0:
156,132,24640,2,0,P|155:79|245:38,1,132.999996448517,4|8,3:2|3:1,0:0:0:0:
300,36,25306,1,0,0:2:0:0:
372,83,25529,2,0,L|378:177,1,66.4999982242585,0|0,3:2|0:2,0:0:0:0:
439,208,25973,2,0,L|434:274,1,66.4999982242585,8|0,3:1|3:2,0:0:0:0:
423,355,26417,6,0,P|365:364|320:307,1,125.999996154785,6|8,3:2|3:1,0:0:0:0:
329,236,27084,2,0,P|297:237|269:252,1,62.9999980773926,2|0,0:0|3:0,0:0:0:0:
234,324,27528,2,0,L|88:340,1,125.999996154785,2|2,0:2|0:2,0:0:0:0:
35,374,28195,1,2,3:2:0:0:
20,213,28639,2,0,L|10:145,1,62.9999980773926,8|0,3:1|0:2,0:0:0:0:
0,69,29084,1,2,3:2:0:0:
0,69,29306,2,0,L|69:60,1,62.9999980773926,0|8,0:2|3:1,0:0:0:0:
134,21,29750,6,0,P|185:38|190:122,1,125.999996154785,0|0,3:2|0:0,0:0:0:0:
145,163,30417,1,8,3:1:0:0:
145,163,30639,2,0,P|155:222|211:244,1,125.999996154785,2|2,0:2|0:2,0:0:0:0:
292,229,31306,2,0,L|300:166,1,62.9999980773926,8|2,3:1|0:2,0:0:0:0:
311,85,31750,2,0,P|375:81|421:125,1,125.999996154785,2|8,3:2|3:1,0:0:0:0:
418,202,32417,2,0,L|400:337,1,125.999996154785,2|0,0:2|0:0,0:0:0:0:
331,368,33084,1,8,3:1:0:0:
235,234,33528,6,0,P|175:244|135:198,1,125.999996154785,6|8,3:2|3:1,0:0:0:0:
114,119,34195,1,2,0:0:0:0:
252,31,34639,1,0,0:2:0:0:
252,31,34862,2,0,L|338:17,1,62.9999980773926,10|0,3:1|0:0,0:0:0:0:
395,9,35306,2,0,P|420:76|376:140,1,125.999996154785,6|8,3:2|3:1,0:0:0:0:
319,141,35973,2,0,L|346:272,1,125.999996154785
365,348,36639,1,8,3:1:0:0:
365,348,36862,6,0,P|310:380|223:364,1,125.999996154785,2|0,3:2|0:2,0:0:0:0:
181,331,37528,2,0,L|168:267,1,62.9999980773926,10|0,3:1|0:2,0:0:0:0:
104,217,37973,2,0,P|73:221|32:242,2,62.9999980773926,0|0|8,3:2|0:2|3:1,0:0:0:0:
143,145,38639,1,0,0:2:0:0:
143,145,38862,2,0,L|216:133,1,62.9999980773926,2|0,3:2|0:2,0:0:0:0:
247,66,39306,1,8,3:1:0:0:
247,66,39528,2,0,P|280:102|277:181,1,125.999996154785,2|0,0:0|0:2,0:0:0:0:
225,238,40195,2,0,L|239:311,1,62.9999980773926,10|2,3:1|3:2,0:0:0:0:
292,361,40639,6,0,P|345:371|402:333,1,119.000002269745,6|8,3:2|0:1,0:0:0:0:
447,270,41306,2,0,L|427:138,1,119.000002269745,0|0,3:2|0:2,0:0:0:0:
476,83,41973,1,8,3:1:0:0:
323,16,42417,2,0,P|257:10|200:60,1,119.000002269745,2|8,3:2|0:1,0:0:0:0:
171,108,43084,2,0,L|194:231,1,119.000002269745,2|0,3:2|0:2,0:0:0:0:
257,277,43750,1,8,3:1:0:0:
116,367,44195,6,0,P|59:371|21:311,1,119.000002269745,6|8,3:2|0:1,0:0:0:0:
42,245,44862,2,0,L|20:128,1,119.000002269745,0|0,3:2|0:2,0:0:0:0:
43,48,45528,1,10,3:1:0:0:
209,40,45973,2,0,L|286:27,2,59.5000011348725,2|0|8,3:2|0:2|0:1,0:0:0:0:
144,93,46639,2,0,P|135:151|190:204,1,119.000002269745,2|8,3:2|0:3,0:0:0:0:
247,227,47306,1,4,0:3:0:0:
320,190,47528,6,0,P|379:216|386:287,1,125.999996154785,2|0,3:2|0:2,0:0:0:0:
353,344,48195,1,10,3:1:0:0:
275,317,48417,1,0,0:2:0:0:
203,356,48639,2,0,L|117:372,1,62.9999980773926,2|0,3:2|0:2,0:0:0:0:
58,368,49084,1,10,3:1:0:0:
16,297,49306,2,0,P|25:234|105:216,1,125.999996154785,2|0,3:2|0:0,0:0:0:0:
151,243,49973,1,10,3:1:0:0:
206,182,50195,1,0,0:2:0:0:
278,220,50417,2,0,L|289:290,2,62.9999980773926,2|0|8,3:2|0:2|3:1,0:0:0:0:
340,166,51084,6,0,P|377:126|350:41,1,125.999996154785,2|0,3:2|0:2,0:0:0:0:
301,12,51750,2,0,L|228:27,1,62.9999980773926,10|0,3:1|0:2,0:0:0:0:
159,43,52195,1,0,3:2:0:0:
78,58,52417,2,0,L|65:119,1,62.9999980773926,0|8,3:2|3:1,0:0:0:0:
33,195,52862,2,0,P|31:228|147:303,1,188.999994232178,2|8,3:2|3:1,0:0:0:0:
278,206,53973,1,8,3:1:0:0:
278,206,54195,1,8,0:1:0:0:
479,21,54862,6,0,L|466:107,1,70,6|0,3:2|0:2,0:0:0:0:
453,179,55306,1,8,3:1:0:0:
411,260,55529,2,0,P|357:232|352:138,1,140,2|2,3:2|0:2,0:0:0:0:
377,75,56195,1,8,3:1:0:0:
298,28,56418,2,0,P|220:30|147:-10,1,140,2|0,3:2|0:2,0:0:0:0:
73,1,57084,2,0,P|48:26|37:59,1,70,10|0,3:1|3:1,0:0:0:0:
64,145,57529,1,2,3:2:0:0:
244,121,57973,1,10,3:1:0:0:
172,288,58418,6,0,P|134:337|70:347,2,105,6|2|2,3:2|0:0|0:2,0:0:0:0:
230,218,59306,2,0,L|320:235,1,70,2|0,3:2|3:0,0:0:0:0:
353,304,59751,1,8,3:1:0:0:
479,173,60195,2,0,P|504:112|443:79,1,140,2|8,3:2|3:1,0:0:0:0:
379,21,60862,2,0,L|322:15,1,35,2|2,3:2|0:2,0:0:0:0:
299,22,61084,2,0,P|291:104|349:149,1,140,2|8,3:2|3:1,0:0:0:0:
431,291,61973,6,0,P|472:296|507:324,2,70,6|0|8,3:2|0:2|3:1,0:0:0:0:
354,341,62640,2,0,P|298:369|232:322,1,140,2|0,3:2|3:2,0:0:0:0:
203,247,63306,1,8,3:1:0:0:
269,184,63529,2,0,P|289:116|223:75,1,140,6|0,3:2|3:2,0:0:0:0:
176,13,64195,1,8,3:1:0:0:
86,28,64417,1,0,0:2:0:0:
79,118,64639,1,8,0:3:0:0:
227,223,65084,1,0,3:2:0:0:
354,93,65528,6,0,L|195:103,2,140,6|10|2,3:2|3:1|3:2,0:0:0:0:
416,26,66639,1,0,3:2:0:0:
491,77,66862,2,0,P|510:105|503:145,1,70,10|0,3:1|3:2,0:0:0:0:
487,228,67306,2,0,L|497:341,2,105,14|10|10,3:1|0:1|0:1,0:0:0:0:
415,170,68195,1,10,3:1:0:0:
348,232,68417,1,8,0:1:0:0:
278,290,68639,2,0,L|198:303,1,70,2|10,3:2|3:1,0:0:0:0:
130,348,69084,6,0,P|113:314|124:276,1,70,6|0,3:2|0:2,0:0:0:0:
172,210,69528,1,8,3:1:0:0:
245,156,69751,2,0,P|311:151|388:122,1,140,2|0,3:2|0:2,0:0:0:0:
447,65,70417,1,8,3:1:0:0:
508,132,70640,2,0,L|482:269,1,140,2|0,3:2|0:2,0:0:0:0:
443,351,71306,2,0,P|410:344|385:315,1,70,10|0,3:1|0:0,0:0:0:0:
364,229,71751,1,0,3:2:0:0:
217,336,72195,1,10,3:1:0:0:
113,185,72640,6,0,P|140:135|142:63,2,105,6|2|2,3:2|0:0|0:2,0:0:0:0:
47,248,73528,2,0,P|75:272|116:276,1,70,2|0,3:2|3:0,0:0:0:0:
193,248,73973,1,8,3:1:0:0:
246,74,74417,2,0,L|415:100,1,140,2|8,3:2|3:1,0:0:0:0:
455,152,75084,2,0,L|449:186,1,35,2|2,3:2|0:2,0:0:0:0:
435,229,75306,2,0,P|374:244|314:201,1,140,2|12,3:2|3:1,0:0:0:0:
389,35,76195,6,0,P|436:39|466:58,2,70,6|0|8,3:2|0:2|3:1,0:0:0:0:
307,75,76862,2,0,L|154:47,1,140,2|0,3:2|3:2,0:0:0:0:
88,8,77528,1,8,3:1:0:0:
25,74,77751,2,0,P|51:149|110:159,1,140,6|0,3:2|3:2,0:0:0:0:
193,148,78417,1,8,0:1:0:0:
261,87,78640,2,0,L|409:64,1,140,6|8,3:2|0:1,0:0:0:0:
484,96,79306,1,8,0:1:0:0:
366,234,79751,6,0,L|347:372,2,140,6|10|2,3:2|3:1|3:2,0:0:0:0:
301,168,80862,1,0,3:2:0:0:
211,182,81084,1,8,3:1:0:0:
146,246,81306,2,0,L|87:237,1,35,2|0,0:2|0:2,0:0:0:0:
67,229,81528,2,0,P|63:155|126:98,1,140,6|8,3:2|0:1,0:0:0:0:
178,54,82195,1,2,3:2:0:0:
234,125,82417,2,0,L|318:137,1,70,0|8,3:2|0:1,0:0:0:0:
364,66,82862,1,8,3:1:0:0:
453,79,83084,1,0,3:2:0:0:
496,161,83306,6,0,P|484:228|428:267,1,140,6|8,3:2|3:1,0:0:0:0:
342,235,83973,1,0,3:2:0:0:
256,202,84195,2,0,L|175:214,1,70,2|0,3:2|0:2,0:0:0:0:
109,261,84639,2,0,P|90:229|107:180,1,70,8|8,3:1|3:1,0:0:0:0:
143,121,85084,5,6,3:2:0:0:
221,73,85306,1,0,0:2:0:0:
221,73,85417,2,0,L|340:55,1,99.7499973363877,2|0,0:0|0:2,0:0:0:0:
415,60,85973,2,0,L|400:143,1,66.4999982242585,0|0,3:2|0:2,0:0:0:0:
394,220,86417,1,8,3:1:0:0:
321,165,86640,1,0,0:2:0:0:
249,220,86862,2,0,P|197:182|213:114,1,132.999996448517,4|8,3:2|3:1,0:0:0:0:
274,52,87528,1,0,0:2:0:0:
187,23,87751,2,0,L|112:4,1,66.4999982242585,0|2,3:2|0:2,0:0:0:0:
43,60,88195,2,0,P|31:99|60:136,1,66.4999982242585,8|0,3:1|0:2,0:0:0:0:
119,174,88640,6,0,L|138:317,1,132.999996448517,4|8,3:2|3:1,0:0:0:0:
209,351,89306,1,0,0:2:0:0:
269,289,89528,2,0,L|261:223,1,66.4999982242585,0|0,3:2|0:2,0:0:0:0:
253,136,89973,1,8,3:1:0:0:
323,85,90196,1,0,0:2:0:0:
405,111,90418,2,0,P|459:145|463:208,1,132.999996448517,4|8,3:2|3:1,0:0:0:0:
438,291,91084,1,0,0:2:0:0:
365,242,91307,2,0,L|281:236,1,66.4999982242585,4|2,3:2|0:2,0:0:0:0:
214,256,91751,2,0,P|216:294|207:320,1,66.4999982242585,8|0,3:1|3:2,0:0:0:0:
136,370,92195,5,4,3:2:0:0:
77,306,92417,1,0,0:2:0:0:
19,241,92639,2,0,L|30:175,1,66.4999982242585,8|0,3:1|0:2,0:0:0:0:
87,109,93083,1,0,3:2:0:0:
148,50,93306,1,0,0:2:0:0:
216,102,93528,2,0,P|278:137|349:132,1,132.999996448517,8|4,3:1|3:2,0:0:0:0:
408,85,94194,1,0,0:2:0:0:
468,147,94417,2,0,L|450:211,1,66.4999982242585,8|0,3:1|0:2,0:0:0:0:
490,287,94861,2,0,P|463:305|424:298,1,66.4999982242585,0|0,3:2|0:2,0:0:0:0:
358,252,95306,1,8,3:1:0:0:
299,315,95528,1,0,0:2:0:0:
225,270,95750,6,0,P|213:239|219:189,1,66.4999982242585,6|0,3:2|0:2,0:0:0:0:
277,147,96194,2,0,L|269:81,1,66.4999982242585,8|0,3:1|0:2,0:0:0:0:
203,23,96639,1,6,3:2:0:0:
145,88,96862,1,0,0:2:0:0:
94,157,97084,2,0,P|90:222|152:254,1,132.999996448517,8|6,3:1|3:2,0:0:0:0:
205,313,97750,1,0,0:2:0:0:
265,369,97973,2,0,L|331:373,1,66.4999982242585,8|0,3:1|0:2,0:0:0:0:
414,349,98417,2,0,P|423:317|421:284,1,66.4999982242585,0|0,3:2|0:2,0:0:0:0:
346,240,98862,1,8,3:1:0:0:
395,169,99084,1,0,3:2:0:0:
449,102,99306,6,0,P|413:47|256:45,1,224,6|2,3:2|0:2,0:0:0:0:
217,186,100639,2,0,L|152:176,1,56,0|0,0:2|0:2,0:0:0:0:
84,163,101084,1,2,0:2:0:0:
256,192,101306,12,0,109973,0:2:0:0:
