osu file format v14

[General]
AudioFilename: audio.ogg
AudioLeadIn: 0
PreviewTime: 862
Countdown: 0
SampleSet: Soft
StackLeniency: 0.8
Mode: 0
LetterboxInBreaks: 0
WidescreenStoryboard: 0

[Editor]
Bookmarks: 1973,3306,10417,19306,26417,40639,47528,54862,61973,69084,76195,85084,99306
DistanceSpacing: 1.5
BeatDivisor: 4
GridSize: 4
TimelineZoom: 1.8

[Metadata]
Title:true my heart (Short Ver.)
TitleUnicode:true my heart (Short Ver.)
Artist:ave;new feat. Sakura Saori
ArtistUnicode:ave;new feat. 佐倉紗織
Creator:Suzuaki_Rin
Version:Amakute Horonigai Koimonogatari
Source:Nursery Rhyme -ナーサリィ☆ライム-
Tags:japanese eroge j-pop jpop j pop vn visual novel galgame op opening Lump of Sugar ナーサリィライム あべにゅう アベニュー avenew きしめん kiss my lips a.k.a.dRESS aka
BeatmapID:3926178
BeatmapSetID:1904230

[Difficulty]
HPDrainRate:6.1
CircleSize:4
OverallDifficulty:8
ApproachRate:8.3
SliderMultiplier:2
SliderTickRate:1

[Events]
//Background and Video events
0,0,"bgbgbgbgbgbgbgbgbgbg.jpg",0,0
//Break Periods
//Storyboard Layer 0 (Background)
//Storyboard Layer 1 (Fail)
//Storyboard Layer 2 (Pass)
//Storyboard Layer 3 (Foreground)
//Storyboard Layer 4 (Overlay)
//Storyboard Sound Samples

[TimingPoints]
-249,444.444444444444,4,2,1,50,1,0
862,-166.666666666667,4,2,1,50,0,0
1973,-100,4,2,1,60,0,0
3306,-76.9230769230769,4,2,1,90,0,1
19306,-76.9230769230769,4,2,1,80,0,0
19973,-83.3333333333333,4,2,1,80,0,0
26417,-100,4,2,1,60,0,0
40639,-125,4,2,1,65,0,0
47528,-90.9090909090909,4,2,1,70,0,0
54306,-133.333333333333,4,2,1,70,0,0
54862,-76.9230769230769,4,2,1,90,0,1
65084,-76.9230769230769,4,2,1,80,0,1
65306,-76.9230769230769,4,2,1,70,0,1
65528,-76.9230769230769,4,2,1,90,0,1
69084,-71.4285714285714,4,2,1,90,0,1
85084,-76.9230769230769,4,2,1,80,0,0
99306,-142.857142857143,4,2,1,60,0,0
102862,-142.857142857143,4,2,1,50,0,0
104639,-200,4,2,1,50,0,0
106417,-200,4,2,1,30,0,0
108195,-200,4,2,1,20,0,0
109084,-200,4,2,1,20,0,0
109528,-200,4,2,1,10,0,0
109973,-200,4,2,1,5,0,0

[Colours]
Combo1 : 126,239,152
Combo2 : 137,243,241
Combo3 : 218,159,247
Combo4 : 245,154,120

[HitObjects]
145,12,1973,5,8,0:1:0:0:
201,152,2306,1,8,0:1:0:0:
175,172,2417,2,0,B|114:150|170:117|90:95,1,100,8|0,0:1|3:2,0:0:0:0:
27,140,2750,1,8,0:3:0:0:
27,140,2862,2,0,B|52:163|37:194|37:194|51:168|69:165,1,100,8|0,0:1|3:2,0:0:0:0:
300,69,3306,6,0,B|277:32|225:27|225:27|226:47|200:67,1,129.999994049073,6|0,3:2|0:2,0:0:0:0:
261,136,3639,1,0,0:2:0:0:
293,153,3750,2,0,P|326:136|359:132,1,64.9999970245363,8|0,3:1|0:2,0:0:0:0:
460,86,3973,2,0,B|434:75|417:34|417:34|433:96|378:170,1,194.999991073609,2|0,3:2|0:0,0:0:0:0:
347,220,4417,2,0,P|381:230|417:264,1,64.9999970245363,2|0,0:2|0:2,0:0:0:0:
488,260,4639,2,0,P|496:294|484:342,1,64.9999970245363,10|0,3:1|0:2,0:0:0:0:
362,384,4862,6,0,B|323:346|254:339|254:339|287:306|336:337,1,194.999991073609,2|0,3:2|0:0,0:0:0:0:
408,322,5306,1,0,0:2:0:0:
261,131,5528,2,0,B|327:138|345:216|345:216|337:177|388:142,1,194.999991073609,10|0,3:1|0:2,0:0:0:0:
323,62,5973,1,0,3:2:0:0:
323,62,6195,2,0,P|354:55|336:88,1,64.9999970245363,2|0,0:2|0:2,0:0:0:0:
444,141,6417,2,0,P|456:84|511:103,1,129.999994049073,10|0,3:1|3:2,0:0:0:0:
242,37,6862,6,0,P|175:105|113:143,1,129.999994049073,6|0,3:2|0:2,0:0:0:0:
66,135,7195,2,0,B|57:103|24:80|24:80|59:67|105:79,1,129.999994049073,2|0,0:0|0:0,0:0:0:0:
134,204,7528,2,0,P|70:229|43:246,1,64.9999970245363,0|0,0:2|0:2,0:0:0:0:
0,289,7751,1,2,3:2:0:0:
27,311,7862,2,0,P|71:317|151:372,1,129.999994049073
220,378,8195,2,0,B|253:330|310:327|310:327|334:282,1,129.999994049073,8|0,3:1|0:2,0:0:0:0:
232,102,8639,6,0,B|312:138|238:167|324:214,1,129.999994049073,2|0,3:2|0:2,0:0:0:0:
381,232,8973,1,0,3:2:0:0:
381,232,9084,1,8,3:1:0:0:
198,179,9306,1,2,3:2:0:0:
198,179,9417,1,2,0:2:0:0:
198,179,9528,2,0,P|161:184|123:199,1,64.9999970245363,2|0,3:2|0:2,0:0:0:0:
14,287,9750,2,0,P|52:291|37:262,1,64.9999970245363,8|0,0:1|0:2,0:0:0:0:
16,210,9973,2,0,P|73:254|194:317,1,194.999991073609,12|0,3:1|0:0,0:0:0:0:
300,291,10417,6,0,B|285:262|292:227|292:227|257:248|261:304,1,129.999994049073,6|0,3:2|0:2,0:0:0:0:
312,372,10750,1,0,0:2:0:0:
336,377,10862,2,0,P|368:338|403:312,1,64.9999970245363,8|0,3:1|0:2,0:0:0:0:
487,203,11084,2,0,B|473:251|508:296|508:296|472:252|423:255,1,194.999991073609,2|0,3:2|0:2,0:0:0:0:
402,176,11528,2,0,P|438:139|453:107,1,64.9999970245363,0|0,3:2|0:2,0:0:0:0:
512,60,11750,2,0,P|497:10|477:-18,1,64.9999970245363,8|0,3:1|0:2,0:0:0:0:
280,31,11973,6,0,B|250:54|214:50|214:50|263:103|329:106,1,194.999991073609,6|0,3:2|0:2,0:0:0:0:
391,41,12417,2,0,P|355:78|340:110,1,64.9999970245363,0|0,3:2|0:2,0:0:0:0:
281,177,12639,2,0,P|295:226|315:255,1,64.9999970245363,8|0,0:1|0:2,0:0:0:0:
415,341,12862,2,0,P|382:327|320:316,1,64.9999970245363,2|0,3:2|0:2,0:0:0:0:
243,288,13084,5,8,0:1:0:0:
203,286,13195,1,8,0:1:0:0:
169,305,13306,1,8,0:1:0:0:
157,333,13417,1,8,0:1:0:0:
151,367,13528,5,8,0:1:0:0:
130,339,13639,1,8,0:1:0:0:
103,332,13750,1,8,0:1:0:0:
79,338,13862,1,8,0:1:0:0:
60,348,13973,6,0,P|118:292|96:180,1,194.999991073609,6|0,3:2|0:2,0:0:0:0:
73,114,14417,2,0,B|49:130|-9:127|-9:127|20:137|37:164,1,129.999994049073,10|0,3:1|3:2,0:0:0:0:
157,129,14750,1,0,0:2:0:0:
173,99,14862,2,0,P|171:71|143:79,1,64.9999970245363,2|0,3:2|0:2,0:0:0:0:
309,173,15084,2,0,P|311:145|339:153,1,64.9999970245363,2|0,0:2|0:2,0:0:0:0:
221,185,15306,1,8,3:1:0:0:
379,11,15528,1,0,0:2:0:0:
359,6,15639,1,0,0:2:0:0:
334,7,15750,6,0,P|387:50|435:125,1,129.999994049073,6|2,3:2|0:2,0:0:0:0:
375,165,16084,2,0,P|415:133|410:184,1,129.999994049073,2|0,0:0|0:0,0:0:0:0:
357,243,16417,1,2,3:2:0:0:
357,243,16528,1,0,0:2:0:0:
357,243,16639,1,0,3:2:0:0:
512,277,16862,2,0,P|503:248|475:257,1,64.9999970245363,8|0,0:1|0:2,0:0:0:0:
455,384,17084,2,0,P|463:355|491:364,1,64.9999970245363,8|0,3:1|0:2,0:0:0:0:
410,301,17306,1,0,3:2:0:0:
287,381,17528,6,0,P|222:345|87:329,1,194.999991073609,6|0,3:2|0:2,0:0:0:0:
23,334,17973,2,0,B|18:361|5:376|5:376|36:370|51:343,1,64.9999970245363,8|0,3:1|0:2,0:0:0:0:
55,260,18195,1,0,3:2:0:0:
0,93,18417,2,0,P|32:120|71:134,1,64.9999970245363,6|0,3:2|0:2,0:0:0:0:
151,178,18639,2,0,P|190:163|222:137,1,64.9999970245363,2|0,0:2|0:2,0:0:0:0:
255,49,18862,1,8,3:1:0:0:
213,238,19084,1,8,3:1:0:0:
219,251,19195,1,0,0:2:0:0:
229,266,19306,6,0,B|260:262|273:254|273:254|276:274|263:289,1,64.9999970245363,4|0,3:2|0:2,0:0:0:0:
240,344,19528,1,0,0:2:0:0:
210,349,19639,2,0,P|154:307|83:267,1,129.999994049073,2|0,0:0|0:0,0:0:0:0:
16,227,19973,1,2,0:2:0:0:
33,233,20084,1,2,0:2:0:0:
63,223,20195,1,2,3:2:0:0:
84,184,20306,2,0,P|53:157|34:117,1,59.9999981689454,2|0,0:2|0:2,0:0:0:0:
185,106,20528,2,0,P|177:146|151:182,1,59.9999981689454,0|8,0:2|3:1,0:0:0:0:
66,52,20750,1,0,0:2:0:0:
66,52,20862,2,0,P|104:38|149:42,1,59.9999981689454,0|0,0:2|0:2,0:0:0:0:
283,44,21084,6,0,B|317:27|341:-9|341:-9|344:8|329:39,1,119.999996337891,4|0,3:2|0:2,0:0:0:0:
323,123,21417,1,2,0:2:0:0:
305,136,21528,1,10,3:1:0:0:
269,124,21639,2,0,P|242:113|211:107,1,59.9999981689454,2|0,0:2|0:2,0:0:0:0:
352,215,21862,2,0,P|379:204|410:198,1,59.9999981689454,0|0,0:2|3:2,0:0:0:0:
509,291,22084,1,0,0:2:0:0:
509,291,22195,2,0,P|485:273|465:249,1,59.9999981689454,0|0,0:2|0:2,0:0:0:0:
501,112,22417,2,0,P|497:140|486:170,2,59.9999981689454,8|0|0,3:1|0:2|0:2,0:0:0:0:
501,112,22862,6,0,P|457:89|425:66,1,59.9999981689454,4|0,3:2|0:2,0:0:0:0:
408,6,23084,2,0,P|378:22|321:30,1,59.9999981689454,0|0,0:2|0:2,0:0:0:0:
247,82,23306,2,0,B|251:66|242:53|242:53|300:58|303:132,1,119.999996337891,8|0,3:1|0:2,0:0:0:0:
236,167,23639,1,2,0:2:0:0:
257,190,23750,1,6,3:2:0:0:
303,201,23862,2,0,P|335:190|380:186,1,59.9999981689454,2|0,0:2|0:2,0:0:0:0:
482,183,24084,2,0,P|475:216|456:257,1,59.9999981689454,0|8,0:2|3:1,0:0:0:0:
408,337,24306,1,0,0:2:0:0:
408,337,24417,2,0,P|382:314|356:277,1,59.9999981689454,0|0,0:2|0:2,0:0:0:0:
375,166,24639,6,0,B|404:127|429:112|429:112|403:108|389:139,1,119.999996337891,4|0,3:2|0:2,0:0:0:0:
297,218,24973,1,0,0:2:0:0:
276,199,25084,2,0,P|251:190|267:210,1,59.9999981689454,8|0,3:1|0:2,0:0:0:0:
160,287,25306,1,2,0:2:0:0:
175,273,25417,1,2,0:2:0:0:
169,256,25528,2,0,P|135:249|80:246,1,59.9999981689454,2|0,3:2|0:2,0:0:0:0:
10,329,25750,2,0,P|36:339|42:312,1,59.9999981689454,0|0,0:2|0:2,0:0:0:0:
0,181,25973,1,10,3:1:0:0:
44,192,26084,1,2,0:2:0:0:
100,170,26195,1,2,3:2:0:0:
144,110,26306,1,2,0:2:0:0:
147,28,26417,6,0,B|94:31|63:-10|63:-10|80:22|40:67,1,150,6|0,3:2|0:2,0:0:0:0:
29,67,26862,1,8,3:1:0:0:
170,88,27084,2,0,B|182:32|234:21|234:21|205:56|207:83,1,150,2|0,0:0|0:0,0:0:0:0:
236,143,27528,2,0,P|285:162|326:191,1,100,2|8,0:2|3:1,0:0:0:0:
362,270,27973,1,2,0:2:0:0:
172,368,28195,6,0,B|260:338|193:289|287:265,1,150,2|0,3:2|0:2,0:0:0:0:
311,343,28639,2,0,P|314:358|300:343,1,50,8|0,3:1|0:2,0:0:0:0:
135,289,28862,2,0,P|132:274|146:289,1,50,0|0,0:2|0:2,0:0:0:0:
281,184,29084,1,2,3:2:0:0:
113,160,29306,2,0,P|157:184|223:216,1,100,0|8,0:2|3:1,0:0:0:0:
219,119,29750,1,0,3:2:0:0:
67,248,29973,6,0,P|3:241|34:186,1,150,6|0,3:2|0:2,0:0:0:0:
73,171,30417,1,8,3:1:0:0:
59,342,30639,2,0,P|110:323|189:297,1,100,2|0,0:2|3:2,0:0:0:0:
331,360,31084,2,0,B|292:343|298:303|298:303|316:321|345:328,2,100,2|8|2,0:2|3:1|0:2,0:0:0:0:
495,261,31750,6,0,B|461:311|405:322|405:322|414:303|399:285,1,150,2|0,3:2|0:2,0:0:0:0:
378,251,32195,1,8,3:1:0:0:
447,95,32417,2,0,B|436:83|429:61|429:61|408:78,1,50,2|0,0:2|0:2,0:0:0:0:
371,131,32639,2,0,P|320:152|235:213,1,150,2|0,3:2|0:2,0:0:0:0:
224,242,33084,1,8,3:1:0:0:
244,75,33306,1,0,3:2:0:0:
312,223,33528,6,0,B|272:189|290:139|290:139|294:174|321:198,1,150,6|0,3:2|0:2,0:0:0:0:
387,236,33973,2,0,P|363:252|343:278,1,50,8|0,3:1|0:2,0:0:0:0:
316,343,34195,2,0,P|262:317|144:296,1,150,2|0,0:0|0:0,0:0:0:0:
136,310,34639,1,0,0:2:0:0:
0,102,34862,2,0,B|94:143|5:176|101:220,1,150,10|0,3:1|0:2,0:0:0:0:
215,191,35306,6,0,P|187:155|121:148,2,100,6|0|8,3:2|0:2|3:1,0:0:0:0:
364,217,35973,2,0,B|300:216|242:269|242:269|284:268|327:316,1,200
355,381,36639,2,0,P|369:353|386:338,1,50,8|0,3:1|0:2,0:0:0:0:
445,265,36862,6,0,P|392:219|376:126,1,150,2|0,3:2|0:0,0:0:0:0:
390,107,37306,1,0,0:2:0:0:
374,244,37528,2,0,P|356:252|366:240,1,50,10|0,3:1|0:2,0:0:0:0:
469,163,37750,1,0,0:2:0:0:
309,76,37973,2,0,B|274:47|242:35|242:35|240:9|204:-5,2,100,0|0|8,3:2|0:2|3:1,0:0:0:0:
470,37,38639,2,0,P|488:23|521:12,1,50,0|0,0:2|0:2,0:0:0:0:
434,108,38862,5,2,3:2:0:0:
316,72,39084,1,0,0:2:0:0:
211,215,39306,1,8,3:1:0:0:
342,173,39528,2,0,P|397:215|373:305,1,150,2|0,0:0|0:0,0:0:0:0:
363,326,39973,1,0,0:2:0:0:
150,241,40195,1,10,3:1:0:0:
167,259,40306,1,2,0:2:0:0:
207,275,40417,1,2,3:2:0:0:
254,277,40528,1,2,0:2:0:0:
302,260,40639,6,0,P|258:185|256:102,1,160,6|8,3:2|0:1,0:0:0:0:
110,127,41306,2,0,P|152:51|223:8,1,160,0|0,3:2|0:2,0:0:0:0:
373,0,41973,1,8,3:1:0:0:
435,109,42195,1,0,3:2:0:0:
445,121,42306,1,0,0:2:0:0:
456,138,42417,2,0,P|400:112|361:104,2,80,2|0|8,3:2|3:2|0:1,0:0:0:0:
245,283,43084,2,0,P|306:231|381:203,1,160,2|0,3:2|0:2,0:0:0:0:
512,345,43750,1,8,3:1:0:0:
512,345,43862,1,0,0:2:0:0:
512,345,43973,1,0,3:2:0:0:
273,372,44195,6,0,P|238:305|148:250,1,160,6|8,3:2|0:1,0:0:0:0:
212,128,44862,2,0,P|136:124|43:175,1,160,0|0,3:2|0:2,0:0:0:0:
0,377,45528,2,0,P|32:345|54:296,1,80,10|0,3:1|3:2,0:0:0:0:
0,247,45862,1,0,3:2:0:0:
0,247,45973,2,0,L|95:227,2,80,2|0|8,3:2|0:2|0:1,0:0:0:0:
148,167,46639,1,2,3:2:0:0:
202,309,46862,1,0,1:2:0:0:
228,352,46973,1,0,1:2:0:0:
266,368,47084,1,8,0:3:0:0:
304,364,47195,1,8,0:3:0:0:
325,349,47306,1,4,0:3:0:0:
330,337,47417,1,4,0:3:0:0:
328,328,47528,6,0,B|350:334|366:348|366:348|399:273|308:235,1,165.000005035401,2|0,3:2|0:0,0:0:0:0:
253,274,47973,1,0,0:2:0:0:
389,135,48195,2,0,P|362:151|297:170,1,55.0000016784668,10|0,3:1|0:2,0:0:0:0:
253,164,48417,1,0,0:2:0:0:
303,16,48639,1,2,3:2:0:0:
128,145,48862,2,0,P|145:137|131:159,1,55.0000016784668,0|0,0:2|0:0,0:0:0:0:
192,240,49084,1,10,3:1:0:0:
192,240,49195,1,0,0:0:0:0:
192,240,49306,6,0,B|224:225|230:186|230:186|290:186|335:215|353:260,1,220.000006713867,2|0,3:2|0:0,0:0:0:0:
197,293,49973,2,0,P|163:274|123:269,1,55.0000016784668,10|0,3:1|0:2,0:0:0:0:
79,248,50195,1,0,0:2:0:0:
189,378,50417,1,2,3:2:0:0:
326,323,50639,1,0,0:2:0:0:
177,384,50862,1,8,3:1:0:0:
136,129,51084,6,0,P|209:149|203:260,1,165.000005035401,2|0,3:2|0:0,0:0:0:0:
197,293,51528,1,0,0:2:0:0:
100,203,51750,2,0,B|80:185|58:189|58:189|73:179|66:151,1,55.0000016784668,10|0,3:1|0:2,0:0:0:0:
22,27,51973,1,0,0:2:0:0:
0,142,52195,2,0,P|54:144|98:113,2,110.000003356934,0|0|8,3:2|3:2|3:1,0:0:0:0:
212,66,52862,6,0,B|180:59|157:26|174:-11|239:-29|299:-1|305:49|270:97,1,220.000006713867,2|0,3:2|0:0,0:0:0:0:
241,227,53528,1,8,3:1:0:0:
243,216,53639,1,8,0:1:0:0:
290,194,53750,1,8,0:1:0:0:
341,178,53862,1,8,0:1:0:0:
350,182,53973,1,8,3:1:0:0:
404,304,54195,1,8,0:1:0:0:
404,304,54306,2,0,P|458:272|453:338,1,150.000005722046,0|0,3:2|0:2,0:0:0:0:
420,379,54862,6,0,P|365:346|271:339,1,129.999994049073,6|0,3:2|0:2,0:0:0:0:
171,307,55195,1,0,0:2:0:0:
197,331,55306,2,0,B|209:325|222:330|222:330|223:306|239:290,1,64.9999970245363,8|0,3:1|0:2,0:0:0:0:
395,253,55528,2,0,B|355:228|305:253|305:253|280:191|187:191,1,194.999991073609,2|0,3:2|0:0,0:0:0:0:
95,247,55973,2,0,P|131:249|168:227,1,64.9999970245363,2|0,0:2|0:2,0:0:0:0:
158,153,56195,2,0,P|141:135|146:159,1,64.9999970245363,8|0,3:1|0:2,0:0:0:0:
152,36,56417,6,0,B|137:68|104:76|104:76|150:119|230:113,1,194.999991073609,2|0,3:2|0:0,0:0:0:0:
298,76,56862,1,0,0:2:0:0:
443,15,57084,2,0,P|422:43|430:109,1,64.9999970245363,10|0,3:1|0:0,0:0:0:0:
361,136,57306,2,0,P|375:168|437:194,1,64.9999970245363,0|0,3:1|0:0,0:0:0:0:
449,259,57528,1,2,3:2:0:0:
449,259,57750,2,0,P|480:266|462:233,1,64.9999970245363,2|0,0:2|0:2,0:0:0:0:
414,348,57972,2,0,P|359:365|348:309,1,129.999994049073,10|0,3:1|3:2,0:0:0:0:
286,178,58417,6,0,B|215:211|280:236|206:274,1,129.999994049073,6|0,3:2|0:2,0:0:0:0:
133,233,58750,2,0,B|110:231|91:204|91:204|86:251|133:272,1,129.999994049073,2|0,0:0|0:0,0:0:0:0:
162,338,59084,2,0,P|195:355|226:382,1,64.9999970245363,2|0,0:2|0:2,0:0:0:0:
389,350,59306,1,2,3:2:0:0:
361,370,59417,2,0,B|328:370|285:328|285:328|308:351|297:402,1,129.999994049073
351,266,59750,2,0,P|407:255|466:206,1,129.999994049073,8|0,3:1|0:2,0:0:0:0:
222,105,60195,6,0,P|256:146|260:88,1,129.999994049073,2|0,3:2|0:2,0:0:0:0:
234,31,60528,1,0,3:2:0:0:
234,31,60639,1,8,3:1:0:0:
155,201,60862,1,2,3:2:0:0:
155,201,60974,1,2,0:2:0:0:
155,201,61084,2,0,P|191:184|239:173,1,64.9999970245363,2|0,3:2|0:2,0:0:0:0:
344,267,61306,2,0,P|320:277|305:245,1,64.9999970245363,8|0,0:1|0:2,0:0:0:0:
359,192,61528,2,0,P|331:252|286:397,1,194.999991073609,8|0,3:1|0:0,0:0:0:0:
159,354,61973,6,0,B|182:327|223:323|223:323|195:299|161:317,1,129.999994049073,6|0,3:2|0:2,0:0:0:0:
97,274,62306,1,0,0:2:0:0:
76,321,62417,2,0,P|105:358|132:397,1,64.9999970245363,8|0,3:1|0:2,0:0:0:0:
0,257,62639,2,0,B|62:250|124:190|124:190|81:192|51:156,1,194.999991073609,2|0,3:2|0:2,0:0:0:0:
57,79,63084,2,0,P|104:87|131:107,1,64.9999970245363,0|0,3:2|0:2,0:0:0:0:
194,46,63306,2,0,P|210:90|206:124,1,64.9999970245363,8|0,3:1|0:2,0:0:0:0:
209,264,63528,6,0,B|215:303|175:302|175:302|206:245|255:179,1,194.999991073609,6|0,3:2|0:0,0:0:0:0:
284,121,63973,1,0,3:2:0:0:
374,233,64195,2,0,B|305:208|367:168|284:129,1,129.999994049073,8|0,3:1|0:2,0:0:0:0:
318,348,64639,5,8,0:3:0:0:
363,306,64750,1,8,0:3:0:0:
414,295,64862,1,8,0:3:0:0:
453,298,64973,1,8,0:3:0:0:
489,318,65084,5,0,3:2:0:0:
475,272,65195,1,0,3:2:0:0:
481,247,65306,1,0,3:2:0:0:
494,237,65417,1,0,3:2:0:0:
509,237,65528,6,0,P|451:204|407:122,1,129.999994049073,6|0,3:2|0:2,0:0:0:0:
468,82,65862,1,0,0:0:0:0:
450,57,65973,2,0,B|416:78|397:117|397:117|402:89|384:66,1,129.999994049073,10|0,3:1|0:2,0:0:0:0:
159,46,66417,1,2,3:2:0:0:
181,73,66528,2,0,P|256:79|345:118,1,129.999994049073
346,194,66862,2,0,P|327:209|332:175,1,64.9999970245363,10|0,3:1|0:0,0:0:0:0:
405,270,67084,1,0,3:2:0:0:
206,372,67306,5,14,3:1:0:0:
184,359,67417,2,0,P|171:322|116:273,1,64.9999970245363,8|8,0:1|0:1,0:0:0:0:
101,238,67639,1,10,0:1:0:0:
77,255,67750,2,0,B|68:266|43:265|43:265|63:272|72:290,1,64.9999970245363,8|0,3:1|0:0,0:0:0:0:
191,222,67973,2,0,P|172:195|163:164,1,64.9999970245363,10|8,0:1|0:1,0:0:0:0:
91,24,68195,5,10,3:1:0:0:
94,50,68306,1,2,0:0:0:0:
122,79,68417,1,10,0:1:0:0:
174,80,68528,1,10,0:1:0:0:
216,45,68639,5,2,3:2:0:0:
271,19,68750,1,2,0:2:0:0:
339,37,68862,1,10,3:1:0:0:
369,110,68973,1,2,0:2:0:0:
317,188,69084,6,0,B|306:170|275:162|275:162|327:149|361:175|359:253,1,139.999995727539,6|0,3:2|0:2,0:0:0:0:
337,290,69417,1,2,0:2:0:0:
356,333,69528,2,0,P|385:310|456:301,1,69.9999978637696,8|0,3:1|0:2,0:0:0:0:
277,380,69750,2,0,B|247:301|164:296|164:296|203:319|200:357,1,209.999993591309,2|0,3:2|0:0,0:0:0:0:
109,358,70195,2,0,P|98:364|124:369,1,69.9999978637696,2|0,0:2|0:2,0:0:0:0:
168,209,70417,1,8,3:1:0:0:
76,277,70639,6,0,B|104:217|167:209|167:209|117:209|87:166,1,209.999993591309,2|0,3:2|0:0,0:0:0:0:
0,226,71084,2,0,P|37:241|66:264,1,69.9999978637696,2|0,0:2|0:0,0:0:0:0:
109,358,71306,2,0,P|180:330|278:314,1,139.999995727539,10|0,3:1|0:0,0:0:0:0:
320,358,71639,1,2,0:2:0:0:
352,382,71750,2,0,P|365:338|395:311,2,69.9999978637696,0|0|2,3:2|0:0|0:2,0:0:0:0:
467,311,72084,1,2,0:2:0:0:
467,311,72195,2,0,B|417:304|382:252|382:252|406:257|425:240,1,139.999995727539,10|0,3:1|3:2,0:0:0:0:
512,91,72639,5,6,3:2:0:0:
495,120,72750,2,0,P|427:140|356:180,1,139.999995727539,2|2,0:2|0:0,0:0:0:0:
299,154,73084,2,0,P|335:155|304:178,1,69.9999978637696,8|0,3:1|0:0,0:0:0:0:
254,223,73306,2,0,P|226:194|201:180,1,69.9999978637696,2|0,0:2|0:2,0:0:0:0:
106,170,73528,2,0,B|73:174|53:204|53:204|49:141|97:111|143:116,1,209.999993591309,2|0,3:2|0:0,0:0:0:0:
247,62,73973,2,0,P|234:91|205:77,1,69.9999978637696,8|0,3:1|0:0,0:0:0:0:
165,9,74195,1,2,0:2:0:0:
165,9,74306,1,2,0:0:0:0:
165,9,74417,6,0,P|236:45|367:98,1,209.999993591309,2|0,3:2|3:2,0:0:0:0:
434,61,74862,1,8,3:1:0:0:
507,240,75084,1,2,3:2:0:0:
507,240,75195,1,2,0:2:0:0:
507,240,75306,2,0,P|455:266|413:283,1,69.9999978637696,2|0,3:2|0:2,0:0:0:0:
333,327,75528,2,0,P|355:343|363:311,1,69.9999978637696,8|0,0:1|0:2,0:0:0:0:
242,354,75750,2,0,B|200:361|164:390|164:390|233:324|177:245,1,209.999993591309,12|0,3:1|0:0,0:0:0:0:
97,191,76195,6,0,B|78:211|45:208|45:208|89:215|109:256,1,139.999995727539,6|0,3:2|0:2,0:0:0:0:
67,339,76528,1,2,0:2:0:0:
111,321,76639,2,0,P|147:278|200:245,1,69.9999978637696,8|0,3:1|0:2,0:0:0:0:
148,70,76862,2,0,P|106:146|210:163,1,209.999993591309,2|0,3:2|0:2,0:0:0:0:
279,180,77306,2,0,B|277:148|291:129|291:129|264:151|238:179,1,69.9999978637696,0|0,3:2|0:2,0:0:0:0:
241,254,77528,1,8,3:1:0:0:
409,115,77750,6,0,B|411:138|458:134|458:134|427:114|315:30,1,209.999993591309,6|0,3:2|0:2,0:0:0:0:
261,17,78195,2,0,B|262:37|236:54|236:54|266:52|288:70,1,69.9999978637696,0|0,3:2|0:2,0:0:0:0:
412,0,78417,1,8,0:1:0:0:
390,200,78639,2,0,P|349:213|318:232,1,69.9999978637696,6|0,3:2|0:2,0:0:0:0:
232,285,78862,5,8,0:1:0:0:
171,273,78973,1,8,0:1:0:0:
143,244,79084,1,8,0:1:0:0:
135,218,79195,1,8,0:1:0:0:
143,191,79306,2,0,P|168:160|179:116,1,69.9999978637696,8|8,0:1|0:1,0:0:0:0:
51,0,79528,2,0,P|65:37|97:68,1,69.9999978637696,8|8,0:1|0:1,0:0:0:0:
266,104,79750,6,0,B|287:72|329:81|329:81|263:-10|176:19|176:19|199:39|194:73,2,279.999991455078,6|10|2,3:2|3:1|3:2,0:0:0:0:
320,208,80750,1,2,0:2:0:0:
344,189,80862,2,0,P|332:158|313:175,1,69.9999978637696,0|0,3:2|0:2,0:0:0:0:
217,243,81084,2,0,P|246:255|295:285,1,69.9999978637696,8|0,3:1|0:0,0:0:0:0:
468,284,81306,1,2,0:2:0:0:
482,296,81417,1,2,0:2:0:0:
498,309,81528,6,0,P|425:336|341:382,1,139.999995727539,6|2,3:2|0:2,0:0:0:0:
289,362,81862,2,0,B|293:322|328:293|328:293|287:296|246:342,1,139.999995727539,2|0,0:0|0:0,0:0:0:0:
206,365,82195,1,2,3:2:0:0:
206,365,82306,1,2,0:2:0:0:
206,365,82417,2,0,P|170:351|131:341,1,69.9999978637696,0|0,3:2|0:0,0:0:0:0:
37,334,82639,2,0,P|39:362|57:340,1,69.9999978637696,8|0,0:1|0:2,0:0:0:0:
106,147,82862,1,8,3:1:0:0:
1,210,83084,2,0,P|37:225|68:259,1,69.9999978637696,0|0,3:2|0:0,0:0:0:0:
141,275,83306,6,0,B|199:224|277:222|277:222|245:220|218:199,1,209.999993591309,6|0,3:2|0:2,0:0:0:0:
322,82,83750,2,0,P|301:107|272:166,1,69.9999978637696,8|0,3:1|0:2,0:0:0:0:
359,238,83973,2,0,P|383:256|373:232,1,69.9999978637696,0|0,3:2|0:0,0:0:0:0:
218,326,84195,1,2,3:2:0:0:
284,323,84306,1,2,0:2:0:0:
333,340,84417,1,2,0:2:0:0:
366,361,84528,1,2,0:2:0:0:
393,382,84639,6,0,L|431:368,6,34.9999989318848,10|0|0|0|8|0|0,3:1|0:0|0:0|0:0|3:1|0:0|0:2,0:0:0:0:
497,327,85084,6,0,P|470:301|446:268,1,64.9999970245363,6|0,3:2|0:2,0:0:0:0:
442,205,85306,1,0,0:2:0:0:
458,184,85417,2,0,B|468:162|485:152|485:152|422:187|365:180,1,129.999994049073,2|0,0:0|0:0,0:0:0:0:
276,150,85750,1,2,0:2:0:0:
293,153,85861,1,2,0:2:0:0:
314,177,85972,1,2,3:2:0:0:
310,227,86084,2,0,P|273:226|236:242,1,64.9999970245363,2|0,0:2|0:2,0:0:0:0:
180,180,86306,2,0,P|156:158|141:129,1,64.9999970245363,0|8,0:2|3:1,0:0:0:0:
163,259,86528,1,0,0:2:0:0:
163,259,86639,2,0,P|156:290|138:317,1,64.9999970245363,0|0,0:2|0:2,0:0:0:0:
293,381,86862,6,0,B|252:358|207:359|207:359|233:334|289:344,1,129.999994049073,4|2,3:2|0:2,0:0:0:0:
327,298,87195,1,2,0:2:0:0:
350,298,87306,1,10,3:1:0:0:
372,329,87417,2,0,P|400:353|443:373,1,64.9999970245363,2|0,0:2|0:2,0:0:0:0:
368,192,87639,2,0,P|319:207|258:240,1,64.9999970245363,2|0,0:2|3:2,0:0:0:0:
167,121,87862,1,0,0:2:0:0:
167,121,87973,2,0,P|204:155|263:192,1,64.9999970245363,2|0,0:2|0:2,0:0:0:0:
219,317,88195,2,0,P|230:267|232:197,2,64.9999970245363,8|2|0,3:1|0:2|0:2,0:0:0:0:
141,365,88528,1,0,0:0:0:0:
141,365,88639,6,0,P|108:349|64:345,1,64.9999970245363,4|0,3:2|0:2,0:0:0:0:
0,282,88862,2,0,P|28:267|60:261,1,64.9999970245363,0|0,0:2|0:2,0:0:0:0:
148,226,89084,2,0,B|143:186|167:160|167:160|141:189|79:193,1,129.999994049073,8|0,3:1|0:2,0:0:0:0:
4,185,89416,1,2,0:2:0:0:
31,171,89528,1,2,3:2:0:0:
55,129,89639,2,0,P|53:95|63:39,1,64.9999970245363,2|0,0:2|0:2,0:0:0:0:
199,9,89862,2,0,P|200:42|190:98,1,64.9999970245363,0|8,0:2|3:1,0:0:0:0:
148,226,90084,1,0,0:2:0:0:
163,244,90195,2,0,P|196:255|254:291,1,64.9999970245363,0|0,0:2|0:2,0:0:0:0:
277,340,90417,6,0,B|228:343|192:380|192:380|209:360|200:315,1,129.999994049073,4|2,3:2|0:2,0:0:0:0:
323,264,90750,1,0,0:2:0:0:
307,291,90862,2,0,P|318:325|341:354,2,64.9999970245363,8|2|0,3:1|0:2|0:2,0:0:0:0:
270,195,91195,2,0,P|288:168|298:137,1,64.9999970245363,2|4,0:2|3:2,0:0:0:0:
69,42,91527,1,2,0:2:0:0:
69,42,91639,1,2,0:2:0:0:
69,42,91750,5,8,3:1:0:0:
125,28,91862,1,8,0:3:0:0:
167,47,91973,1,0,3:2:0:0:
181,69,92084,1,0,3:2:0:0:
186,94,92195,6,0,B|169:134|146:156|146:156|175:152|192:126,1,129.999994049073,4|0,3:2|0:2,0:0:0:0:
265,95,92528,1,0,0:0:0:0:
265,95,92639,2,0,P|301:113|351:123,1,64.9999970245363,8|0,3:1|0:0,0:0:0:0:
470,115,92862,5,2,0:2:0:0:
453,109,92973,1,2,0:2:0:0:
423,119,93084,1,2,3:2:0:0:
402,158,93195,2,0,P|433:185|452:225,1,64.9999970245363,2|0,0:2|0:2,0:0:0:0:
340,302,93417,2,0,P|347:261|373:225,1,64.9999970245363,0|8,0:2|3:1,0:0:0:0:
492,282,93639,1,0,0:2:0:0:
492,282,93750,2,0,P|453:295|408:291,1,64.9999970245363,0|0,0:2|0:2,0:0:0:0:
256,181,93973,6,0,B|288:148|331:165|331:165|299:173|287:191,1,129.999994049073,4|0,3:2|0:2,0:0:0:0:
261,260,94306,1,2,0:2:0:0:
229,252,94417,1,10,3:1:0:0:
192,256,94528,2,0,P|170:209|133:192,1,64.9999970245363,2|0,0:2|0:2,0:0:0:0:
28,60,94750,6,0,P|63:69|95:94,1,64.9999970245363,0|0,0:2|3:2,0:0:0:0:
36,210,94973,1,0,0:2:0:0:
36,210,95084,2,0,P|26:175|31:134,1,64.9999970245363,0|0,0:2|0:2,0:0:0:0:
162,134,95306,2,0,P|136:159|99:175,2,64.9999970245363,8|0|0,3:1|0:2|0:2,0:0:0:0:
162,134,95750,6,0,B|226:150|270:204|270:204|255:149|290:125,1,194.999991073609,6|0,3:2|0:2,0:0:0:0:
355,209,96195,2,0,P|298:221|264:243,1,64.9999970245363,8|0,3:1|0:0,0:0:0:0:
232,282,96417,1,2,0:2:0:0:
229,299,96528,1,2,0:2:0:0:
205,320,96639,1,6,3:2:0:0:
155,316,96750,2,0,P|133:288|91:271,1,64.9999970245363,2|0,0:2|0:2,0:0:0:0:
18,378,96973,2,0,P|53:372|88:345,1,64.9999970245363,0|8,0:2|3:1,0:0:0:0:
30,226,97195,1,0,0:2:0:0:
30,226,97306,2,0,P|16:259|23:303,1,64.9999970245363,0|0,0:2|0:2,0:0:0:0:
219,148,97528,5,6,3:2:0:0:
187,173,97639,1,2,0:0:0:0:
141,184,97750,1,2,0:2:0:0:
90,171,97862,1,2,0:2:0:0:
52,128,97973,6,0,B|43:96|57:57|81:31|81:31|25:34|14:93,1,194.999991073609,10|0,3:1|0:2,0:0:0:0:
0,182,98417,2,0,P|30:159|82:144,1,64.9999970245363,0|0,3:2|0:2,0:0:0:0:
200,84,98639,2,0,P|234:98|273:136,1,64.9999970245363,0|0,0:2|0:2,0:0:0:0:
312,302,98862,2,0,P|289:315|283:277,1,64.9999970245363,8|0,3:1|0:2,0:0:0:0:
344,187,99084,1,2,3:2:0:0:
344,187,99195,1,2,0:2:0:0:
344,187,99306,6,0,P|391:148|478:141,1,139.999995727539,6|0,3:2|0:2,0:0:0:0:
467,138,99973,1,0,0:2:0:0:
512,266,100195,1,2,0:2:0:0:
435,235,100417,1,0,0:2:0:0:
371,352,100639,1,0,0:2:0:0:
448,321,100861,1,0,0:2:0:0:
330,186,101084,5,2,0:2:0:0:
261,241,101306,1,0,0:2:0:0:
261,241,101417,2,0,L|290:367,1,104.999996795654,0|0,0:2|0:2,0:0:0:0:
179,229,101973,1,2,0:2:0:0:
179,229,102084,2,0,L|197:170,1,34.9999989318848,2|0,0:2|0:2,0:0:0:0:
171,112,102306,2,0,B|152:114|137:89|137:89|121:84|107:98,1,69.9999978637696,0|0,0:2|0:2,0:0:0:0:
104,174,102639,5,6,3:2:0:0:
256,192,102750,12,0,109973,0:0:0:0:
