osu file format v14

[General]
AudioFilename: snow of love.mp3
AudioLeadIn: 0
PreviewTime: 74106
Countdown: 0
SampleSet: Normal
StackLeniency: 0.7
Mode: 1
LetterboxInBreaks: 0
WidescreenStoryboard: 0

[Editor]
Bookmarks: 58574,61508,64458,65442,68392,74293,90049,98267
DistanceSpacing: 0.9
BeatDivisor: 4
GridSize: 32
TimelineZoom: 1.1

[Metadata]
Title:snow of love
TitleUnicode:snow of love
Artist:ave;new feat. Sakura Saori
ArtistUnicode:ave;new feat. 佐倉紗織
Creator:chaica
Version:Oni
Source:
Tags:short ver BEST of ave;new the new way
BeatmapID:848104
BeatmapSetID:388858

[Difficulty]
HPDrainRate:6
CircleSize:6
OverallDifficulty:6
ApproachRate:9
SliderMultiplier:1.4
SliderTickRate:1

[Events]
//Background and Video events
0,0,"snow.jpg",0,90
//Break Periods
//Storyboard Layer 0 (Background)
//Storyboard Layer 1 (Fail)
//Storyboard Layer 2 (Pass)
//Storyboard Layer 3 (Foreground)
//Storyboard Sound Samples

[TimingPoints]
1525,491.803278688525,4,1,0,50,1,0
11360,-100,4,1,0,65,0,0
27096,-100,4,1,0,70,0,0
42833,-100,4,1,0,60,0,0
58569,-100,4,1,0,70,0,0
74311,-100,4,1,0,80,0,1
105787,-100,4,1,0,60,0,0

[HitObjects]
256,192,1525,5,0,0:0:0:0:
256,192,1893,1,8,0:0:0:0:
256,192,2262,1,0,0:0:0:0:
256,192,2508,1,0,0:0:0:0:
256,192,3000,1,8,0:0:0:0:
256,192,3492,1,0,0:0:0:0:
256,192,3861,1,8,0:0:0:0:
256,192,4229,1,8,0:0:0:0:
256,192,4475,1,0,0:0:0:0:
256,192,4967,1,8,0:0:0:0:
256,192,5459,1,0,0:0:0:0:
256,192,5828,1,8,0:0:0:0:
256,192,6197,1,0,0:0:0:0:
256,192,6443,1,8,0:0:0:0:
256,192,6934,1,8,0:0:0:0:
256,192,7426,1,0,0:0:0:0:
256,192,7795,1,8,0:0:0:0:
256,192,8164,1,8,0:0:0:0:
256,192,8410,1,0,0:0:0:0:
256,192,8902,1,8,0:0:0:0:
256,192,9393,1,0,0:0:0:0:
256,192,10377,1,0,0:0:0:0:
256,192,10869,1,0,0:0:0:0:
256,192,11115,1,8,0:0:0:0:
256,192,11361,5,4,0:0:0:0:
256,192,11606,1,0,0:0:0:0:
256,192,11852,1,8,0:0:0:0:
256,192,12098,1,8,0:0:0:0:
256,192,12344,1,0,0:0:0:0:
256,192,12467,1,2,0:0:0:0:
256,192,12713,1,2,0:0:0:0:
256,192,12836,1,0,0:0:0:0:
256,192,13082,1,8,0:0:0:0:
256,192,13328,1,0,0:0:0:0:
256,192,13820,1,0,0:0:0:0:
256,192,14065,1,8,0:0:0:0:
256,192,14311,1,8,0:0:0:0:
256,192,14434,1,0,0:0:0:0:
256,192,14680,1,0,0:0:0:0:
256,192,14803,1,8,0:0:0:0:
256,192,15049,1,8,0:0:0:0:
256,192,15295,1,4,0:0:0:0:
256,192,15787,1,0,0:0:0:0:
256,192,16033,1,8,0:0:0:0:
256,192,16279,1,0,0:0:0:0:
256,192,16402,1,0,0:0:0:0:
256,192,16647,1,0,0:0:0:0:
256,192,16770,1,2,0:0:0:0:
256,192,17016,1,8,0:0:0:0:
256,192,17262,1,2,0:0:0:0:
256,192,17385,1,8,0:0:0:0:
256,192,17631,1,0,0:0:0:0:
256,192,17754,1,2,0:0:0:0:
256,192,18000,1,0,0:0:0:0:
256,192,18246,1,8,0:0:0:0:
256,192,18492,1,0,0:0:0:0:
256,192,18615,1,0,0:0:0:0:
256,192,18738,1,8,0:0:0:0:
256,192,18861,1,8,0:0:0:0:
256,192,18984,1,0,0:0:0:0:
256,192,19229,1,4,0:0:0:0:
256,192,19721,1,0,0:0:0:0:
256,192,19967,1,8,0:0:0:0:
256,192,20213,1,0,0:0:0:0:
256,192,20582,1,0,0:0:0:0:
256,192,20705,1,8,0:0:0:0:
256,192,20951,1,8,0:0:0:0:
256,192,21197,1,4,0:0:0:0:
256,192,21688,1,0,0:0:0:0:
256,192,21934,1,0,0:0:0:0:
256,192,22180,1,8,0:0:0:0:
256,192,22549,1,0,0:0:0:0:
256,192,22672,1,0,0:0:0:0:
256,192,22918,1,8,0:0:0:0:
256,192,23164,1,4,0:0:0:0:
256,192,23656,1,0,0:0:0:0:
256,192,23902,1,8,0:0:0:0:
256,192,24147,1,0,0:0:0:0:
256,192,24516,1,8,0:0:0:0:
256,192,24639,1,0,0:0:0:0:
256,192,24885,1,8,0:0:0:0:
256,192,25131,1,4,0:0:0:0:
256,192,25500,1,8,0:0:0:0:
256,192,25869,1,0,0:0:0:0:
256,192,26115,1,0,0:0:0:0:
256,192,26361,1,8,0:0:0:0:
256,192,26606,1,8,0:0:0:0:
256,192,26729,1,0,0:0:0:0:
256,192,26852,1,8,0:0:0:0:
256,192,27098,1,4,0:0:0:0:
256,192,27590,1,0,0:0:0:0:
256,192,27836,1,8,0:0:0:0:
256,192,28082,1,0,0:0:0:0:
256,192,28205,1,8,0:0:0:0:
256,192,28451,1,8,0:0:0:0:
256,192,28574,1,0,0:0:0:0:
256,192,28820,1,8,0:0:0:0:
256,192,29065,1,0,0:0:0:0:
256,192,29557,1,0,0:0:0:0:
256,192,29803,1,8,0:0:0:0:
256,192,30049,1,8,0:0:0:0:
256,192,30172,1,0,0:0:0:0:
256,192,30418,1,0,0:0:0:0:
256,192,30541,1,8,0:0:0:0:
256,192,30787,1,8,0:0:0:0:
256,192,30910,1,8,0:0:0:0:
256,192,31033,1,0,0:0:0:0:
256,192,31525,1,0,0:0:0:0:
256,192,31770,1,8,0:0:0:0:
256,192,32016,1,0,0:0:0:0:
256,192,32139,1,8,0:0:0:0:
256,192,32385,1,0,0:0:0:0:
256,192,32508,1,8,0:0:0:0:
256,192,32754,1,8,0:0:0:0:
256,192,33000,1,8,0:0:0:0:
256,192,33123,1,0,0:0:0:0:
256,192,33369,1,0,0:0:0:0:
256,192,33492,1,8,0:0:0:0:
256,192,33738,1,0,0:0:0:0:
256,192,33984,1,8,0:0:0:0:
256,192,34107,1,8,0:0:0:0:
256,192,34230,1,0,0:0:0:0:
256,192,34352,1,8,0:0:0:0:
256,192,34475,1,0,0:0:0:0:
256,192,34721,1,8,0:0:0:0:
256,192,34967,1,4,0:0:0:0:
256,192,35459,1,0,0:0:0:0:
256,192,35705,1,8,0:0:0:0:
256,192,35951,1,0,0:0:0:0:
256,192,36074,1,8,0:0:0:0:
256,192,36320,1,8,0:0:0:0:
256,192,36443,1,0,0:0:0:0:
256,192,36688,1,8,0:0:0:0:
256,192,36934,1,0,0:0:0:0:
256,192,37180,1,0,0:0:0:0:
256,192,37303,1,0,0:0:0:0:
256,192,37426,1,8,0:0:0:0:
256,192,37672,1,0,0:0:0:0:
256,192,37918,1,8,0:0:0:0:
256,192,38041,1,0,0:0:0:0:
256,192,38287,1,0,0:0:0:0:
256,192,38410,1,8,0:0:0:0:
256,192,38656,1,8,0:0:0:0:
256,192,38779,1,8,0:0:0:0:
256,192,38902,1,0,0:0:0:0:
256,192,39393,1,0,0:0:0:0:
256,192,39639,1,8,0:0:0:0:
256,192,39885,1,8,0:0:0:0:
256,192,40008,1,0,0:0:0:0:
256,192,40254,1,0,0:0:0:0:
256,192,40377,1,8,0:0:0:0:
256,192,40500,1,0,0:0:0:0:
256,192,40623,1,8,0:0:0:0:
256,192,40869,1,4,0:0:0:0:
256,192,41238,1,0,0:0:0:0:
256,192,41361,1,8,0:0:0:0:
256,192,41606,1,0,0:0:0:0:
256,192,41852,1,0,0:0:0:0:
256,192,41975,1,0,0:0:0:0:
256,192,42098,1,8,0:0:0:0:
256,192,42221,1,0,0:0:0:0:
256,192,42344,1,8,0:0:0:0:
256,192,42590,1,8,0:0:0:0:
256,192,42836,1,4,0:0:0:0:
256,192,43328,5,8,0:0:0:0:
256,192,44311,1,8,0:0:0:0:
256,192,44803,5,0,0:0:0:0:
256,192,45295,1,8,0:0:0:0:
256,192,45541,1,8,0:0:0:0:
256,192,45787,1,0,0:0:0:0:
256,192,46279,1,8,0:0:0:0:
256,192,46770,1,4,0:0:0:0:
256,192,47262,1,8,0:0:0:0:
256,192,48246,1,8,0:0:0:0:
256,192,48738,1,0,0:0:0:0:
256,192,49229,1,8,0:0:0:0:
256,192,49475,1,0,0:0:0:0:
256,192,49721,1,8,0:0:0:0:
256,192,50213,1,8,0:0:0:0:
256,192,50705,1,4,0:0:0:0:
256,192,51074,1,0,0:0:0:0:
256,192,51197,1,8,0:0:0:0:
256,192,51443,5,0,0:0:0:0:
256,192,51688,1,8,0:0:0:0:
256,192,52180,1,8,0:0:0:0:
256,192,52426,1,8,0:0:0:0:
256,192,52672,1,0,0:0:0:0:
256,192,53164,1,0,0:0:0:0:
256,192,53410,1,8,0:0:0:0:
256,192,53656,1,8,0:0:0:0:
256,192,53902,1,0,0:0:0:0:
256,192,54147,1,8,0:0:0:0:
256,192,54393,1,0,0:0:0:0:
256,192,54639,1,12,0:0:0:0:
256,192,55008,1,0,0:0:0:0:
256,192,55131,1,8,0:0:0:0:
256,192,55377,1,0,0:0:0:0:
256,192,55623,1,8,0:0:0:0:
256,192,56115,1,8,0:0:0:0:
256,192,56361,1,8,0:0:0:0:
256,192,56606,1,4,0:0:0:0:
256,192,56852,1,0,0:0:0:0:
256,192,56975,1,0,0:0:0:0:
256,192,57098,1,8,0:0:0:0:
256,192,57344,1,0,0:0:0:0:
256,192,57590,1,8,0:0:0:0:
256,192,58082,1,8,0:0:0:0:
256,192,58205,1,8,0:0:0:0:
256,192,58328,1,0,0:0:0:0:
256,192,58574,1,4,0:0:0:0:
256,192,58943,1,0,0:0:0:0:
256,192,59065,1,8,0:0:0:0:
256,192,59311,1,0,0:0:0:0:
256,192,59557,1,8,0:0:0:0:
256,192,59803,1,0,0:0:0:0:
256,192,59926,1,0,0:0:0:0:
256,192,60049,1,8,0:0:0:0:
256,192,60295,1,8,0:0:0:0:
256,224,60541,1,0,0:0:0:0:
256,192,61033,1,0,0:0:0:0:
256,192,61279,1,8,0:0:0:0:
256,192,61525,1,0,0:0:0:0:
256,192,61770,1,8,0:0:0:0:
256,192,61893,1,8,0:0:0:0:
256,192,62016,1,0,0:0:0:0:
256,192,62262,1,8,0:0:0:0:
256,192,62508,1,0,0:0:0:0:
256,192,62877,1,0,0:0:0:0:
256,192,63000,1,8,0:0:0:0:
256,192,63246,1,0,0:0:0:0:
256,192,63492,1,8,0:0:0:0:
256,192,63738,1,0,0:0:0:0:
256,192,63861,1,0,0:0:0:0:
256,192,63984,1,8,0:0:0:0:
256,192,64229,1,8,0:0:0:0:
256,192,64475,1,0,0:0:0:0:
256,192,64967,1,8,0:0:0:0:
256,192,65459,1,8,0:0:0:0:
256,192,65705,1,8,0:0:0:0:
256,192,65828,1,8,0:0:0:0:
256,192,65951,1,0,0:0:0:0:
256,192,66197,1,0,0:0:0:0:
256,192,66443,1,8,0:0:0:0:
256,192,66811,1,0,0:0:0:0:
256,192,66934,1,8,0:0:0:0:
256,192,67180,1,0,0:0:0:0:
256,192,67426,1,8,0:0:0:0:
256,192,67672,1,0,0:0:0:0:
256,192,67795,1,0,0:0:0:0:
256,192,67918,1,8,0:0:0:0:
256,192,68164,1,8,0:0:0:0:
256,192,68410,1,0,0:0:0:0:
256,192,68656,1,8,0:0:0:0:
256,192,68779,1,8,0:0:0:0:
256,192,68902,1,0,0:0:0:0:
256,192,69147,1,8,0:0:0:0:
256,192,69393,1,0,0:0:0:0:
256,192,69516,1,0,0:0:0:0:
256,192,69639,1,8,0:0:0:0:
256,192,69762,1,0,0:0:0:0:
256,192,69885,1,8,0:0:0:0:
256,192,70131,1,8,0:0:0:0:
256,192,70254,1,8,0:0:0:0:
256,192,70377,1,0,0:0:0:0:
256,192,70746,1,8,0:0:0:0:
256,192,70869,1,0,0:0:0:0:
256,192,71115,1,8,0:0:0:0:
256,192,71361,12,8,72344,0:0:0:0:
256,192,72836,5,8,0:0:0:0:
256,192,73328,1,0,0:0:0:0:
256,192,73574,1,0,0:0:0:0:
256,192,73820,1,0,0:0:0:0:
256,192,74311,1,12,0:0:0:0:
256,192,74557,1,0,0:0:0:0:
256,192,74803,1,8,0:0:0:0:
256,192,75049,1,0,0:0:0:0:
256,192,75172,1,8,0:0:0:0:
256,192,75418,1,8,0:0:0:0:
256,192,75664,1,0,0:0:0:0:
256,192,75787,1,8,0:0:0:0:
256,192,76033,1,0,0:0:0:0:
256,192,76279,1,8,0:0:0:0:
256,192,76525,1,0,0:0:0:0:
256,192,76647,1,0,0:0:0:0:
256,192,76770,1,8,0:0:0:0:
256,192,77016,1,0,0:0:0:0:
256,192,77262,1,8,0:0:0:0:
256,192,77754,1,0,0:0:0:0:
256,192,78000,1,0,0:0:0:0:
256,192,78246,1,8,0:0:0:0:
256,192,78492,1,0,0:0:0:0:
256,192,78615,1,0,0:0:0:0:
256,192,78738,1,8,0:0:0:0:
256,192,78984,1,0,0:0:0:0:
256,192,79229,1,8,0:0:0:0:
256,192,79352,1,8,0:0:0:0:
256,192,79598,1,8,0:0:0:0:
256,192,79721,1,0,0:0:0:0:
256,192,79967,1,8,0:0:0:0:
256,192,80213,1,8,0:0:0:0:
256,192,80336,1,8,0:0:0:0:
256,192,80582,1,0,0:0:0:0:
256,192,80705,1,8,0:0:0:0:
256,192,80951,1,0,0:0:0:0:
256,192,81197,1,8,0:0:0:0:
256,192,81688,1,0,0:0:0:0:
256,192,82180,1,6,0:0:0:0:
256,192,82426,1,0,0:0:0:0:
256,192,82672,1,2,0:0:0:0:
256,192,82918,1,0,0:0:0:0:
256,192,83041,1,2,0:0:0:0:
256,192,83287,1,8,0:0:0:0:
256,192,83533,1,2,0:0:0:0:
256,192,83656,1,0,0:0:0:0:
256,192,83902,1,2,0:0:0:0:
256,192,84147,1,0,0:0:0:0:
256,192,84393,1,8,0:0:0:0:
256,192,84516,1,2,0:0:0:0:
256,192,84639,1,0,0:0:0:0:
256,192,84885,1,0,0:0:0:0:
256,192,85131,1,2,0:0:0:0:
256,192,85623,1,0,0:0:0:0:
256,192,85869,1,0,0:0:0:0:
256,192,86115,1,12,0:0:0:0:
256,192,86361,1,0,0:0:0:0:
256,192,86484,1,0,0:0:0:0:
256,192,86606,1,8,0:0:0:0:
256,192,86852,1,0,0:0:0:0:
256,192,87098,1,8,0:0:0:0:
256,192,87221,1,8,0:0:0:0:
256,192,87467,1,8,0:0:0:0:
256,192,87590,1,0,0:0:0:0:
256,192,87836,1,8,0:0:0:0:
256,192,88082,1,0,0:0:0:0:
256,192,88328,1,8,0:0:0:0:
256,192,88451,1,8,0:0:0:0:
256,192,88574,1,0,0:0:0:0:
256,192,88820,1,8,0:0:0:0:
256,192,89065,1,0,0:0:0:0:
256,192,89188,1,8,0:0:0:0:
256,192,89311,1,0,0:0:0:0:
256,192,89434,1,0,0:0:0:0:
256,192,89557,1,8,0:0:0:0:
256,192,90049,1,12,0:0:0:0:
256,192,90295,1,0,0:0:0:0:
256,192,90541,1,8,0:0:0:0:
256,192,90787,1,0,0:0:0:0:
256,192,90910,1,8,0:0:0:0:
256,192,91156,1,8,0:0:0:0:
256,192,91402,1,0,0:0:0:0:
256,192,91525,1,8,0:0:0:0:
256,192,91770,1,0,0:0:0:0:
256,192,92016,1,8,0:0:0:0:
256,192,92262,1,0,0:0:0:0:
256,192,92385,1,0,0:0:0:0:
256,192,92508,1,8,0:0:0:0:
256,192,92754,1,0,0:0:0:0:
256,192,93000,1,8,0:0:0:0:
256,192,93492,5,0,0:0:0:0:
256,192,93738,1,0,0:0:0:0:
256,192,93984,1,8,0:0:0:0:
256,192,94106,1,0,0:0:0:0:
256,192,94352,1,0,0:0:0:0:
256,192,94475,1,0,0:0:0:0:
256,192,94721,1,8,0:0:0:0:
256,192,94967,1,0,0:0:0:0:
256,192,95459,1,8,0:0:0:0:
256,192,95705,1,0,0:0:0:0:
256,192,95951,1,0,0:0:0:0:
256,192,96074,1,0,0:0:0:0:
256,192,96320,1,8,0:0:0:0:
256,192,96443,1,8,0:0:0:0:
256,192,96688,1,0,0:0:0:0:
256,192,96934,1,8,0:0:0:0:
256,192,97426,1,0,0:0:0:0:
256,192,97918,1,12,0:0:0:0:
256,192,98164,1,0,0:0:0:0:
256,192,98287,1,0,0:0:0:0:
256,192,98410,1,8,0:0:0:0:
256,192,98656,1,0,0:0:0:0:
256,192,98779,1,8,0:0:0:0:
256,192,99025,1,8,0:0:0:0:
256,192,99270,1,8,0:0:0:0:
256,192,99393,1,0,0:0:0:0:
256,192,99516,1,0,0:0:0:0:
256,192,99639,1,8,0:0:0:0:
256,192,99885,1,8,0:0:0:0:
256,192,100131,5,0,0:0:0:0:
256,192,100254,1,0,0:0:0:0:
256,192,100377,1,8,0:0:0:0:
256,192,100623,1,0,0:0:0:0:
256,192,100869,1,8,0:0:0:0:
256,192,101361,1,0,0:0:0:0:
256,192,101606,1,0,0:0:0:0:
256,192,101852,1,8,0:0:0:0:
256,192,102098,1,0,0:0:0:0:
64,288,102221,1,0,0:0:0:0:
256,192,102344,1,8,0:0:0:0:
256,192,102590,1,0,0:0:0:0:
256,192,102836,1,8,0:0:0:0:
256,192,102959,1,8,0:0:0:0:
256,192,103205,1,8,0:0:0:0:
256,192,103328,1,0,0:0:0:0:
256,192,103574,1,8,0:0:0:0:
256,192,103820,12,0,104803,0:0:0:0:
256,192,105295,5,8,0:0:0:0:
256,192,105541,1,8,0:0:0:0:
256,192,105787,5,4,0:0:0:0:
