osu file format v14

[General]
AudioFilename: snow of love.mp3
AudioLeadIn: 0
PreviewTime: 74106
Countdown: 0
SampleSet: Normal
StackLeniency: 0.7
Mode: 1
LetterboxInBreaks: 0
WidescreenStoryboard: 0

[Editor]
Bookmarks: 42836,50705,61016,64458,66425,68392,75113,82817,90048,90767,99127
DistanceSpacing: 0.9
BeatDivisor: 4
GridSize: 32
TimelineZoom: 1.1

[Metadata]
Title:snow of love
TitleUnicode:snow of love
Artist:ave;new feat. Sakura Saori
ArtistUnicode:ave;new feat. 佐倉紗織
Creator:chaica
Version:Muzukashii
Source:
Tags:short ver BEST of ave;new the new way
BeatmapID:850504
BeatmapSetID:388858

[Difficulty]
HPDrainRate:6
CircleSize:6
OverallDifficulty:5
ApproachRate:9
SliderMultiplier:1.4
SliderTickRate:1

[Events]
//Background and Video events
0,0,"snow.jpg",0,90
//Break Periods
//Storyboard Layer 0 (Background)
//Storyboard Layer 1 (Fail)
//Storyboard Layer 2 (Pass)
//Storyboard Layer 3 (Foreground)
//Storyboard Sound Samples

[TimingPoints]
1525,491.803278688525,4,1,0,50,1,0
11360,-100,4,1,0,65,0,0
27096,-100,4,1,0,70,0,0
42833,-100,4,1,0,60,0,0
58569,-100,4,1,0,70,0,0
74311,-100,4,1,0,80,0,1
105787,-100,4,1,0,60,0,0

[HitObjects]
256,192,1525,5,0,0:0:0:0:
256,192,2262,1,0,0:0:0:0:
256,192,2508,1,0,0:0:0:0:
256,192,3000,1,8,0:0:0:0:
256,192,3492,1,0,0:0:0:0:
256,192,4229,1,8,0:0:0:0:
256,192,4475,1,0,0:0:0:0:
256,192,4967,1,8,0:0:0:0:
256,192,5459,1,0,0:0:0:0:
256,192,6197,1,0,0:0:0:0:
256,192,6443,1,0,0:0:0:0:
256,192,6934,1,8,0:0:0:0:
256,192,7426,1,0,0:0:0:0:
256,192,8164,1,8,0:0:0:0:
256,192,8410,1,0,0:0:0:0:
256,192,8902,1,8,0:0:0:0:
256,192,9393,1,4,0:0:0:0:
256,192,10377,1,0,0:0:0:0:
256,192,10869,1,0,0:0:0:0:
256,192,11361,5,4,0:0:0:0:
256,192,11852,1,0,0:0:0:0:
256,192,12098,1,8,0:0:0:0:
256,192,12344,1,0,0:0:0:0:
256,192,12836,1,2,0:0:0:0:
256,192,13328,1,0,0:0:0:0:
256,192,14065,1,0,0:0:0:0:
256,192,14311,1,8,0:0:0:0:
256,192,14803,1,0,0:0:0:0:
256,192,15295,1,4,0:0:0:0:
256,192,16033,1,8,0:0:0:0:
256,192,16279,1,8,0:0:0:0:
256,192,16770,1,0,0:0:0:0:
256,192,17262,1,2,0:0:0:0:
256,192,17754,1,0,0:0:0:0:
256,192,18246,1,8,0:0:0:0:
256,192,18492,1,0,0:0:0:0:
256,192,18738,1,8,0:0:0:0:
256,192,18984,1,0,0:0:0:0:
256,192,19229,1,4,0:0:0:0:
256,192,19721,1,0,0:0:0:0:
256,192,19967,1,8,0:0:0:0:
256,192,20213,1,0,0:0:0:0:
256,192,20705,1,8,0:0:0:0:
256,192,21197,1,4,0:0:0:0:
256,192,21934,1,0,0:0:0:0:
256,192,22180,1,8,0:0:0:0:
256,192,22672,1,0,0:0:0:0:
256,192,23164,1,4,0:0:0:0:
256,192,23902,1,8,0:0:0:0:
256,192,24147,1,0,0:0:0:0:
256,192,24639,1,8,0:0:0:0:
256,192,25131,1,4,0:0:0:0:
256,192,26115,1,0,0:0:0:0:
256,192,26606,1,8,0:0:0:0:
256,192,27098,1,4,0:0:0:0:
256,192,27590,1,0,0:0:0:0:
256,192,27836,1,8,0:0:0:0:
256,192,28082,1,0,0:0:0:0:
256,192,28574,1,8,0:0:0:0:
256,192,29065,1,0,0:0:0:0:
256,192,29557,1,0,0:0:0:0:
256,192,29803,1,0,0:0:0:0:
256,192,30049,1,8,0:0:0:0:
256,192,30541,1,8,0:0:0:0:
256,192,31033,1,0,0:0:0:0:
256,192,31525,1,0,0:0:0:0:
256,192,31770,1,8,0:0:0:0:
256,192,32016,1,0,0:0:0:0:
256,192,32508,1,0,0:0:0:0:
256,192,33000,1,8,0:0:0:0:
256,192,33492,1,8,0:0:0:0:
256,192,33738,1,0,0:0:0:0:
256,192,33984,1,0,0:0:0:0:
256,192,34229,1,8,0:0:0:0:
256,192,34352,1,8,0:0:0:0:
256,192,34475,1,8,0:0:0:0:
256,192,34721,1,8,0:0:0:0:
256,192,34967,1,4,0:0:0:0:
256,192,35459,1,0,0:0:0:0:
256,192,35705,1,8,0:0:0:0:
256,192,35951,1,0,0:0:0:0:
256,192,36443,1,8,0:0:0:0:
256,192,36934,1,0,0:0:0:0:
256,192,37426,1,0,0:0:0:0:
256,192,37672,1,0,0:0:0:0:
256,192,37918,1,8,0:0:0:0:
256,192,38410,1,8,0:0:0:0:
256,192,38902,1,0,0:0:0:0:
256,192,39393,1,0,0:0:0:0:
256,192,39639,1,8,0:0:0:0:
256,192,39885,1,8,0:0:0:0:
256,192,40377,1,0,0:0:0:0:
256,192,40869,1,4,0:0:0:0:
256,192,41361,1,8,0:0:0:0:
256,192,41606,1,0,0:0:0:0:
256,192,41852,1,0,0:0:0:0:
256,192,41975,1,0,0:0:0:0:
256,192,42098,1,0,0:0:0:0:
256,192,42344,1,8,0:0:0:0:
256,192,42836,1,4,0:0:0:0:
256,192,43328,5,8,0:0:0:0:
256,192,44311,1,8,0:0:0:0:
256,192,44803,5,0,0:0:0:0:
256,192,45541,1,8,0:0:0:0:
256,192,45787,1,0,0:0:0:0:
256,192,46279,1,0,0:0:0:0:
256,192,46770,1,12,0:0:0:0:
256,192,47508,1,8,0:0:0:0:
256,192,47754,1,0,0:0:0:0:
256,192,48246,1,8,0:0:0:0:
256,192,48738,1,0,0:0:0:0:
256,192,49475,1,0,0:0:0:0:
256,192,49721,1,8,0:0:0:0:
256,192,50213,1,8,0:0:0:0:
256,192,50705,1,4,0:0:0:0:
256,192,51197,1,0,0:0:0:0:
256,192,51443,5,0,0:0:0:0:
256,192,51688,1,8,0:0:0:0:
256,192,52180,1,8,0:0:0:0:
256,192,52672,1,0,0:0:0:0:
256,192,53410,1,8,0:0:0:0:
256,192,53656,1,8,0:0:0:0:
256,192,54147,1,8,0:0:0:0:
256,192,54639,1,4,0:0:0:0:
256,192,55131,1,0,0:0:0:0:
256,192,55377,1,8,0:0:0:0:
256,192,55623,1,8,0:0:0:0:
256,192,56115,1,8,0:0:0:0:
256,192,56361,1,8,0:0:0:0:
256,192,56606,1,4,0:0:0:0:
256,192,57098,1,0,0:0:0:0:
256,192,57590,1,8,0:0:0:0:
256,192,58574,1,4,0:0:0:0:
256,192,59065,1,8,0:0:0:0:
256,192,59311,1,8,0:0:0:0:
256,192,59557,1,0,0:0:0:0:
256,192,60049,1,8,0:0:0:0:
256,224,60541,1,0,0:0:0:0:
256,192,61033,1,0,0:0:0:0:
256,192,61279,1,8,0:0:0:0:
256,192,61525,1,0,0:0:0:0:
256,192,61770,1,0,0:0:0:0:
256,192,61893,1,0,0:0:0:0:
256,192,62016,1,0,0:0:0:0:
256,192,62262,1,8,0:0:0:0:
256,192,62508,1,0,0:0:0:0:
256,192,63000,1,8,0:0:0:0:
256,192,63492,1,0,0:0:0:0:
256,192,63984,1,0,0:0:0:0:
256,192,64475,1,8,0:0:0:0:
256,192,65459,1,8,0:0:0:0:
256,192,65705,1,8,0:0:0:0:
256,192,65828,1,8,0:0:0:0:
256,192,65951,1,8,0:0:0:0:
256,192,66197,1,0,0:0:0:0:
256,192,66443,1,8,0:0:0:0:
256,192,66934,1,0,0:0:0:0:
256,192,67426,1,2,0:0:0:0:
256,192,67918,1,0,0:0:0:0:
256,192,68410,1,8,0:0:0:0:
256,192,68656,1,0,0:0:0:0:
256,192,68779,1,0,0:0:0:0:
256,192,68902,1,0,0:0:0:0:
256,192,69147,1,0,0:0:0:0:
256,192,69393,1,8,0:0:0:0:
256,192,69885,1,8,0:0:0:0:
256,192,70131,1,8,0:0:0:0:
256,192,70254,1,8,0:0:0:0:
256,192,70377,1,8,0:0:0:0:
256,192,70623,1,0,0:0:0:0:
256,192,70746,1,0,0:0:0:0:
256,192,70869,1,0,0:0:0:0:
256,192,71115,1,8,0:0:0:0:
256,192,71361,12,8,73820,0:0:0:0:
256,192,74311,5,12,0:0:0:0:
256,192,74803,1,8,0:0:0:0:
256,192,75295,1,0,0:0:0:0:
256,192,75541,1,8,0:0:0:0:
256,192,75787,1,8,0:0:0:0:
256,192,76033,1,0,0:0:0:0:
256,192,76279,1,8,0:0:0:0:
256,192,76525,1,0,0:0:0:0:
256,192,76647,1,0,0:0:0:0:
256,192,76770,1,0,0:0:0:0:
256,192,77016,1,0,0:0:0:0:
256,192,77262,1,8,0:0:0:0:
256,192,77754,1,8,0:0:0:0:
256,192,78000,1,0,0:0:0:0:
256,192,78246,1,8,0:0:0:0:
256,192,78738,1,0,0:0:0:0:
256,192,78984,1,0,0:0:0:0:
256,192,79229,1,8,0:0:0:0:
256,192,79475,1,8,0:0:0:0:
256,192,79721,1,0,0:0:0:0:
256,192,80213,1,8,0:0:0:0:
256,192,80459,1,0,0:0:0:0:
256,192,80705,1,8,0:0:0:0:
256,192,81197,1,8,0:0:0:0:
256,192,81688,1,0,0:0:0:0:
256,192,82180,1,6,0:0:0:0:
256,192,82672,1,2,0:0:0:0:
256,192,83164,1,0,0:0:0:0:
256,192,83410,1,2,0:0:0:0:
256,192,83656,1,8,0:0:0:0:
256,192,83902,1,0,0:0:0:0:
256,192,84147,1,0,0:0:0:0:
256,192,84393,1,0,0:0:0:0:
256,192,84516,1,0,0:0:0:0:
256,192,84639,1,0,0:0:0:0:
256,192,84885,1,0,0:0:0:0:
256,192,85131,1,8,0:0:0:0:
256,192,85623,1,0,0:0:0:0:
256,192,85869,1,0,0:0:0:0:
256,192,86115,1,12,0:0:0:0:
256,192,86606,1,8,0:0:0:0:
256,192,86852,1,0,0:0:0:0:
256,192,87098,1,8,0:0:0:0:
256,192,87344,1,0,0:0:0:0:
256,192,87590,1,8,0:0:0:0:
256,192,88082,1,0,0:0:0:0:
256,192,88328,1,0,0:0:0:0:
256,192,88574,1,8,0:0:0:0:
256,192,88820,1,8,0:0:0:0:
256,192,89065,1,0,0:0:0:0:
256,192,89188,1,0,0:0:0:0:
256,192,89311,1,0,0:0:0:0:
256,192,89557,1,8,0:0:0:0:
256,192,89803,1,0,0:0:0:0:
256,192,90049,1,12,0:0:0:0:
256,192,90541,1,8,0:0:0:0:
256,192,91033,1,8,0:0:0:0:
256,192,91279,1,0,0:0:0:0:
256,192,91525,1,0,0:0:0:0:
256,192,91770,1,8,0:0:0:0:
256,192,92016,1,0,0:0:0:0:
256,192,92262,1,0,0:0:0:0:
256,192,92385,1,0,0:0:0:0:
256,192,92508,1,0,0:0:0:0:
256,192,92754,1,0,0:0:0:0:
256,192,93000,1,8,0:0:0:0:
256,192,93492,5,0,0:0:0:0:
256,192,93738,1,0,0:0:0:0:
256,192,93984,1,8,0:0:0:0:
256,192,94229,1,8,0:0:0:0:
256,192,94475,1,0,0:0:0:0:
256,192,94967,1,0,0:0:0:0:
256,192,95213,1,0,0:0:0:0:
256,192,95459,1,8,0:0:0:0:
256,192,95951,1,0,0:0:0:0:
256,192,96443,1,8,0:0:0:0:
256,192,96688,1,0,0:0:0:0:
256,192,96934,1,8,0:0:0:0:
256,192,97426,1,0,0:0:0:0:
256,192,97918,1,12,0:0:0:0:
256,192,98410,1,8,0:0:0:0:
256,192,98902,1,0,0:0:0:0:
256,192,99147,1,8,0:0:0:0:
256,192,99393,1,0,0:0:0:0:
256,192,99639,1,8,0:0:0:0:
256,192,99885,5,8,0:0:0:0:
256,192,100131,1,0,0:0:0:0:
256,192,100254,1,0,0:0:0:0:
256,192,100377,1,0,0:0:0:0:
256,192,100623,1,0,0:0:0:0:
256,192,100869,1,8,0:0:0:0:
256,192,101361,1,0,0:0:0:0:
256,192,101852,5,8,0:0:0:0:
256,192,102098,1,0,0:0:0:0:
256,192,102221,1,0,0:0:0:0:
256,192,102344,1,0,0:0:0:0:
256,192,102590,1,0,0:0:0:0:
256,192,102836,1,8,0:0:0:0:
256,192,103082,1,0,0:0:0:0:
288,192,103328,1,8,0:0:0:0:
256,192,103574,1,8,0:0:0:0:
256,192,103820,12,0,105295,0:0:0:0:
256,192,105787,5,4,0:0:0:0:
