osu file format v14

[General]
AudioFilename: Voices.mp3
AudioLeadIn: 1500
PreviewTime: 74827
Countdown: 0
SampleSet: Soft
StackLeniency: 0.7
Mode: 0
LetterboxInBreaks: 0
WidescreenStoryboard: 1

[Editor]
DistanceSpacing: 0.9
BeatDivisor: 4
GridSize: 16
TimelineZoom: 0.7999996

[Metadata]
Title:Pure My Voices
TitleUnicode:Pure My Voices
Artist:ave;new feat. Sakura Saori
ArtistUnicode:ave;new feat. 佐倉紗織
Creator:-Nanaka-
Version:Normal
Source:PrismRhythm -プリズムリズム-
Tags:Lump of Sugar Opening Visual Novel Eroge alacat
BeatmapID:949897
BeatmapSetID:441185

[Difficulty]
HPDrainRate:4
CircleSize:3.3
OverallDifficulty:4
ApproachRate:5
SliderMultiplier:1.2
SliderTickRate:1

[Events]
//Background and Video events
Video,0,"Video.avi"
0,0,"BG4.jpg",0,0
//Break Periods
//Storyboard Layer 0 (Background)
//Storyboard Layer 1 (Fail)
//Storyboard Layer 2 (Pass)
//Storyboard Layer 3 (Foreground)
//Storyboard Sound Samples

[TimingPoints]
955,451.127819548872,4,1,5,100,1,0
2759,-100,4,2,1,70,0,0
9075,-100,4,2,4,70,0,0
9526,-100,4,2,1,70,0,0
13586,-100,4,2,4,70,0,0
14939,-100,4,2,4,50,0,0
15391,-100,4,1,3,50,0,0
16970,-100,4,1,3,30,0,0
17195,-100,4,2,1,70,0,1
20353,-100,4,2,2,70,0,1
21030,-100,4,2,1,70,0,1
21255,-100,4,2,2,70,0,1
21594,-100,4,2,1,70,0,1
23962,-100,4,2,1,50,0,1
24413,-100,4,2,1,70,0,1
26218,-100,4,2,2,70,0,1
26556,-100,4,2,1,70,0,1
27120,-100,4,2,2,70,0,1
27571,-100,4,2,2,50,0,1
27909,-100,4,2,1,70,0,1
28812,-100,4,2,2,70,0,1
29150,-100,4,2,1,70,0,1
31180,-100,4,2,1,50,0,1
31631,-100,4,2,1,70,0,0
45616,-100,4,2,1,60,0,0
52609,-100,4,2,1,70,0,0
52834,-100,4,2,1,60,0,0
53060,-100,4,2,1,70,0,0
53285,-100,4,2,1,60,0,0
56894,-100,4,2,3,50,0,0
57345,-100,4,2,1,60,0,0
58699,-100,4,2,1,70,0,0
60503,-100,4,2,1,60,0,0
60729,-100,4,2,1,40,0,0
60954,-100,4,2,1,50,0,0
61180,-100,4,2,1,40,0,0
61406,-100,4,2,1,50,0,0
61857,-100,4,2,1,40,0,0
62082,-100,4,2,1,50,0,0
62308,-100,4,2,1,65,0,0
63210,-100,4,2,1,60,0,0
63436,-100,4,2,1,70,0,0
63661,-100,4,2,1,60,0,0
63887,-100,4,2,1,70,0,0
64112,-100,4,2,1,60,0,0
65466,-100,4,2,1,50,0,0
65691,-100,4,2,1,60,0,0
65917,-100,4,2,1,65,0,0
66819,-100,4,2,1,60,0,0
68849,-100,4,2,1,50,0,0
69300,-100,4,2,1,60,0,0
70090,-100,4,2,1,70,0,0
70315,-100,4,2,2,60,0,0
70879,-100,4,2,1,70,0,0
74939,-100,4,2,1,70,0,1
78097,-100,4,2,2,70,0,1
78436,-100,4,2,1,70,0,1
79000,-100,4,2,2,70,0,1
79338,-100,4,2,1,70,0,1
84864,-100,4,2,2,70,0,1
85315,-100,4,2,2,50,0,1
85654,-100,4,2,1,70,0,1
86556,-100,4,2,2,70,0,1
86894,-100,4,2,1,70,0,1
88924,-100,4,2,1,70,0,0
89376,-100,4,2,1,70,0,1
92533,-100,4,2,2,70,0,1
92872,-100,4,2,1,70,0,1
93436,-100,4,2,2,70,0,1
94112,-100,4,2,1,70,0,1
102007,-100,4,2,1,80,0,0
116443,-100,4,2,1,100,0,0
116556,-100,4,2,1,60,0,0
118248,-100,4,2,1,50,0,0
118699,-100,4,2,1,40,0,0
119150,-100,4,2,1,30,0,0
119601,-100,4,2,1,20,0,0
120052,-100,4,1,4,80,0,0

[Colours]
Combo1 : 142,219,255
Combo2 : 255,188,121
Combo3 : 210,166,255
Combo4 : 113,255,113

[HitObjects]
256,192,954,5,0,0:0:0:0:
256,192,2759,6,0,B|268:67,1,120,2|0,0:0|0:0,0:0:0:0:
126,140,3661,2,0,L|143:276,1,120,2|0,0:0|0:0,0:0:0:0:
255,365,4564,2,0,P|329:306|412:307,2,180,2|0|0,0:0|0:0|0:0,0:0:0:0:
305,217,6368,6,0,L|316:98,1,120,2|0,0:0|0:0,0:0:0:0:
185,12,7270,2,0,P|144:46|79:51,1,120,2|0,0:0|0:0,0:0:0:0:
34,200,8173,2,0,L|60:330,1,120,2|0,0:0|0:0,0:0:0:0:
203,372,9075,2,0,P|255:343|329:342,1,120,2|2,0:1|0:0,0:0:0:0:
466,372,9977,6,0,L|488:231,1,120,4|0,0:0|0:0,0:0:0:0:
371,145,10879,2,0,L|382:278,1,120,2|0,0:0|0:0,0:0:0:0:
492,155,11782,2,0,P|444:79|251:180,1,360,2|0,0:0|0:0,0:0:0:0:
277,331,13586,6,0,P|236:291|149:283,1,120,2|0,0:1|0:0,0:0:0:0:
40,354,14488,2,0,L|24:226,1,120,2|2,0:0|0:0,0:0:0:0:
66,84,15391,5,0,0:0:0:0:
127,36,15616,1,0,0:0:0:0:
204,28,15842,2,0,P|244:38|279:58,1,60
325,89,16293,1,0,0:0:0:0:
325,89,16518,2,0,P|396:83|439:27,1,120,4|0,0:2|0:0,0:0:0:0:
489,100,17195,6,0,P|474:155|492:220,1,120,4|0,3:2|3:0,0:0:0:0:
414,351,18097,2,0,P|375:331|276:331,1,120,2|8,3:2|3:2,0:0:0:0:
227,352,18774,1,0,3:0:0:0:
165,304,19000,2,0,P|133:338|65:347,2,90,4|2|2,3:2|0:0|0:0,0:0:0:0:
191,230,19902,1,4,0:0:0:0:
69,132,20353,6,0,P|66:180|84:242,2,90,8|4|2,0:0|0:0|0:0,0:0:0:0:
126,78,21255,2,0,P|82:77|36:57,2,90,2|4|2,0:0|3:2|0:0,0:0:0:0:
193,37,22158,1,2,3:2:0:0:
193,37,22383,1,2,0:0:0:0:
261,74,22609,6,0,P|325:55|399:68,1,120,4|4,3:2|3:2,0:0:0:0:
463,190,23511,2,0,L|436:330,1,120,4|8,3:2|3:2,0:0:0:0:
307,225,24413,6,0,L|291:157,2,60,4|0|2,3:2|0:0|3:2,0:0:0:0:
198,337,25315,2,0,B|157:301|90:312,2,90,2|2|2,3:2|0:0|0:0,0:0:0:0:
271,365,26218,2,0,B|320:372|358:346,2,90,2|2|2,0:0|0:0|3:2,0:0:0:0:
256,288,27120,1,8,0:0:0:0:
380,193,27571,6,0,P|402:231|412:275,2,90,2|4|2,3:2|3:2|0:0,0:0:0:0:
314,150,28473,2,0,P|361:143|405:96,2,90,4|8|2,3:2|0:0|3:2,0:0:0:0:
243,115,29376,2,0,P|206:101|160:101,1,60,0|2,3:0|0:0,0:0:0:0:
131,42,29827,6,0,B|145:186,1,120,4|2,0:0|3:2,0:0:0:0:
95,223,30503,1,8,3:2:0:0:
95,223,30729,2,0,P|151:196|230:195,1,120,0|8,3:0|3:1,0:0:0:0:
351,253,31631,6,0,L|375:128,2,120,4|2|2,0:0|3:2|3:2,0:0:0:0:
493,189,32985,1,0,3:2:0:0:
398,312,33436,2,0,B|343:267|283:284,1,120,2|2,3:2|3:2,0:0:0:0:
148,355,34338,2,0,P|89:353|28:310,1,120,2|2,3:2|3:2,0:0:0:0:
18,167,35240,6,0,B|71:198|71:198|136:195,1,120,4|2,0:0|3:2,0:0:0:0:
251,98,36142,2,0,P|271:162|316:196,1,120,2|10,3:2|3:2,0:0:0:0:
442,277,37045,2,0,P|456:247|458:203,2,60,4|0|4,3:2|0:0|3:2,0:0:0:0:
302,346,37947,2,0,L|241:329,1,60,4|0,3:2|3:0,0:0:0:0:
171,300,38398,2,0,P|136:311|94:314,1,60,2|2,3:2|3:2,0:0:0:0:
65,376,38849,6,0,L|50:233,1,120,4|2,3:2|3:2,0:0:0:0:
11,106,39751,2,0,P|65:135|146:125,1,120,2|2,3:2|3:2,0:0:0:0:
189,93,40428,1,2,0:0:0:0:
189,93,40654,2,0,P|256:95|311:124,1,120,2|2,3:2|3:2,0:0:0:0:
426,212,41556,1,2,3:2:0:0:
498,74,42007,1,2,3:2:0:0:
426,212,42458,6,0,P|443:283|447:349,1,120,4|2,3:2|3:2,0:0:0:0:
296,371,43361,2,0,P|241:349|173:348,1,120,2|8,3:2|3:2,0:0:0:0:
26,365,44263,2,0,B|48:310|56:235,1,120,4|0,3:2|3:0,0:0:0:0:
11,183,44939,1,0,3:0:0:0:
11,183,45165,2,0,P|66:208|144:215,1,120,0|8,3:0|3:1,0:0:0:0:
273,168,46067,5,4,3:2:0:0:
392,267,46518,2,0,P|403:237|409:193,1,60,2|0,3:2|0:0,0:0:0:0:
475,170,46970,2,0,P|417:176|352:132,1,120,2|8,3:2|3:2,0:0:0:0:
307,94,47646,2,0,P|243:87|180:127,1,120,2|0,0:0|0:0,0:0:0:0:
130,156,48323,2,0,P|72:125|55:56,1,120,2|0,3:2|3:0,0:0:0:0:
24,229,49225,2,0,P|14:268|12:312,1,60,8|0,3:2|0:0,0:0:0:0:
60,349,49676,6,0,L|202:323,1,120,4|8,0:0|3:2,0:0:0:0:
234,272,50353,2,0,P|261:287|297:292,1,60,2|0,0:0|3:0,0:0:0:0:
361,262,50804,2,0,B|429:255|474:301,2,120,2|2|0,0:0|0:0|0:0,0:0:0:0:
297,216,51932,1,8,3:2:0:0:
362,174,52158,2,0,B|430:181|475:135,1,120,2|2,0:0|3:2,0:0:0:0:
467,60,52834,2,0,P|437:50|383:49,1,60,2|2,0:0|3:2,0:0:0:0:
330,52,53285,5,4,0:0:0:0:
271,196,53736,1,8,3:2:0:0:
140,109,54188,2,0,L|125:252,1,120,2|8,3:2|3:2,0:0:0:0:
91,297,54864,2,0,P|144:261|224:270,1,120,2|0,0:0|0:0,0:0:0:0:
241,325,55541,2,0,B|252:190,1,120,2|0,3:2|3:0,0:0:0:0:
259,127,56218,1,8,0:2:0:0:
259,127,56443,2,0,P|296:140|335:143,1,60,8|0,3:2|3:0,0:0:0:0:
369,85,56894,6,0,L|388:218,1,120,4|0,0:0|3:0,0:0:0:0:
435,264,57571,2,0,P|386:240|301:245,1,120,2|8,0:0|0:0,0:0:0:0:
252,276,58248,2,0,P|220:272|184:257,1,60,8|0,3:2|0:0,0:0:0:0:
151,327,58699,2,0,B|129:187,1,120,4|4,3:2|3:2,0:0:0:0:
125,130,59376,1,4,0:0:0:0:
55,267,59827,2,0,P|92:310|175:323,1,120,4|0,0:0|3:0,0:0:0:0:
218,287,60503,6,0,L|218:215,2,60,4|2|0,3:2|0:0|0:0,0:0:0:0:
218,365,61180,1,2,3:2:0:0:
288,331,61406,2,0,P|351:315|424:336,1,120,2|10,3:2|3:2,0:0:0:0:
471,364,62082,1,2,0:0:0:0:
497,290,62308,6,0,P|509:232|497:154,1,120,2|2,0:0|0:0,0:0:0:0:
477,97,62985,1,2,3:2:0:0:
477,97,63210,2,0,L|412:117,1,60,2|2,3:2|0:0,0:0:0:0:
353,73,63661,2,0,L|278:61,1,60,2|2,3:2|0:0,0:0:0:0:
224,100,64112,6,0,L|224:180,2,60,4|2|2,3:2|0:0|3:2,0:0:0:0:
224,21,64789,1,2,3:2:0:0:
155,59,65015,2,0,P|99:47|22:74,1,120,2|10,3:2|3:2,0:0:0:0:
0,130,65691,1,2,0:0:0:0:
40,197,65917,2,0,P|100:210|168:191,1,120,4|2,0:0|3:2,0:0:0:0:
289,115,66819,6,0,P|309:162|308:220,2,90,4|4|4,3:2|0:0|3:2,0:0:0:0:
244,50,67721,2,0,L|360:79,1,120,4|2,3:2|3:2,0:0:0:0:
418,131,68398,2,0,P|425:191|458:245,1,120,2|8,0:0|0:0,0:0:0:0:
500,305,69075,1,10,3:2:0:0:
500,305,69300,6,0,B|432:332,1,60,2|0,0:0|0:0,0:0:0:0:
373,294,69751,2,0,L|311:319,1,60,2|0,0:0|0:0,0:0:0:0:
244,346,70203,1,2,0:0:0:0:
244,346,70428,2,0,P|187:330|107:326,1,120,6|2,0:0|3:2,0:0:0:0:
51,347,71105,1,0,3:0:0:0:
51,347,71330,6,0,L|39:216,1,120,4|0,0:0|3:0,0:0:0:0:
66,154,72007,2,0,B|117:187|117:187|197:188,2,120,2|4|4,0:0|3:2|3:2,0:0:0:0:
164,32,73361,5,4,3:2:0:0:
164,32,73586,1,12,3:2:0:0:
269,146,74037,1,4,3:2:0:0:
269,146,74263,1,12,3:2:0:0:
70,269,74939,6,0,B|136:289,1,60,4|0,3:2|0:0,0:0:0:0:
189,334,75391,2,0,P|226:320|263:319,1,60,0|0,3:0|0:0,0:0:0:0:
318,348,75842,2,0,P|360:326|386:290,2,90,2|2|2,3:2|0:0|0:0,0:0:0:0:
309,270,76744,2,0,P|276:244|209:249,2,90,10|10|10,3:2|3:2|3:2,0:0:0:0:
246,317,77646,1,2,3:2:0:0:
110,239,78097,6,0,P|97:282|55:318,2,90,10|4|2,0:0|0:0|0:0,0:0:0:0:
89,163,79000,2,0,P|127:186|183:191,2,90,2|12|2,0:0|0:0|0:0,0:0:0:0:
30,111,79902,1,0,3:2:0:0:
30,111,80127,1,2,0:0:0:0:
99,74,80353,6,0,P|165:78|228:118,1,120,4|8,3:2|3:2,0:0:0:0:
335,8,81255,2,0,P|386:40|458:46,1,120,2|8,3:2|3:2,0:0:0:0:
351,173,82158,5,4,0:0:0:0:
386,242,82383,1,0,0:0:0:0:
331,297,82609,2,0,P|272:280|205:312,2,120,8|2|8,3:2|3:2|3:2,0:0:0:0:
390,347,83736,1,2,0:0:0:0:
449,296,83962,2,0,P|462:255|458:193,2,90,4|10|10,0:0|3:2|3:2,0:0:0:0:
390,347,84864,1,4,0:0:0:0:
288,228,85315,6,0,P|250:223|212:186,2,90,2|4|0,3:2|0:0|0:0,0:0:0:0:
356,189,86218,2,0,P|323:156|268:154,2,90,2|4|2,3:2|0:0|0:0,0:0:0:0:
359,267,87120,1,2,3:2:0:0:
359,267,87345,1,2,3:2:0:0:
292,308,87571,2,0,L|157:297,1,120,4|0,0:0|3:0,0:0:0:0:
103,334,88248,1,2,0:0:0:0:
106,256,88473,2,0,L|81:134,1,120,0|8,3:0|3:1,0:0:0:0:
168,8,89376,5,4,0:0:0:0:
156,84,89601,1,2,0:0:0:0:
229,58,89827,2,0,L|296:85,1,60,0|0,3:0|0:0,0:0:0:0:
350,122,90278,2,0,P|393:110|447:129,2,90,2|2|2,3:2|0:0|0:0,0:0:0:0:
302,183,91180,2,0,P|258:191|191:169,2,90,2|10|10,3:2|3:2|3:2,0:0:0:0:
367,226,92082,2,0,L|347:308,1,60,4|0,3:2|3:0,0:0:0:0:
287,327,92533,6,0,P|248:311|197:317,2,90,10|4|2,0:0|0:0|0:0,0:0:0:0:
359,357,93436,2,0,P|405:373|466:364,2,90,2|4|10,0:0|0:0|3:2,0:0:0:0:
348,279,94338,1,8,3:2:0:0:
348,279,94564,1,0,0:0:0:0:
287,229,94789,6,0,P|227:214|155:238,1,120,4|8,0:0|3:2,0:0:0:0:
46,320,95691,2,0,L|35:190,1,120,2|8,3:2|3:2,0:0:0:0:
91,54,96594,5,4,0:0:0:0:
158,16,96819,1,0,0:0:0:0:
237,16,97045,2,0,P|266:24|296:47,1,60,0|0,3:0|0:0,0:0:0:0:
351,88,97496,2,0,P|393:76|457:104,2,90,2|2|2,3:2|0:0|0:0,0:0:0:0:
296,143,98398,2,0,P|252:153|208:139,2,90,4|2|2,0:0|3:2|3:2,0:0:0:0:
365,179,99300,2,0,B|351:264,1,60,4|0,0:0|0:0,0:0:0:0:
369,315,99751,6,0,P|416:291|431:258,2,90,2|4|2,3:2|0:0|0:0,0:0:0:0:
294,290,100654,2,0,B|249:283|249:283|195:294,1,90,8|4,3:2|0:0,0:0:0:0:
93,327,101330,1,10,3:2:0:0:
79,249,101556,2,0,L|68:181,1,60,2|2,3:2|3:2,0:0:0:0:
26,124,102007,6,0,P|71:151|152:142,1,120,4|2,0:0|3:2,0:0:0:0:
263,58,102909,2,0,L|279:185,1,120,2|2,3:2|3:2,0:0:0:0:
427,132,103812,2,0,L|413:202,1,60,2|2,3:2|0:0,0:0:0:0:
347,230,104263,2,0,L|360:309,1,60,2|0,3:2|0:0,0:0:0:0:
410,346,104714,2,0,P|359:329|273:331,1,120,2|2,3:2|3:2,0:0:0:0:
142,366,105616,6,0,L|126:239,1,120,4|2,3:2|3:2,0:0:0:0:
92,94,106518,2,0,P|145:133|222:138,1,120,2|2,3:2|3:2,0:0:0:0:
343,85,107421,2,0,L|356:155,1,60,4|0,3:2|0:0,0:0:0:0:
411,197,107872,2,0,L|395:282,1,60,2|0,3:2|0:0,0:0:0:0:
447,317,108323,2,0,P|400:293|322:296,1,120,2|8,3:2|3:2,0:0:0:0:
266,331,109000,1,2,3:2:0:0:
266,331,109225,6,0,L|146:349,1,120,4|2,0:0|3:2,0:0:0:0:
32,243,110127,2,0,L|169:222,1,120,2|2,3:2|3:2,0:0:0:0:
224,250,110804,1,2,3:2:0:0:
224,250,111030,2,0,P|239:212|242:181,1,60,2|2,3:2|0:0,0:0:0:0:
211,121,111481,2,0,P|181:121|145:108,1,60,2|0,3:2|0:0,0:0:0:0:
107,47,111932,2,0,P|97:96|64:130,2,90,2|2|2,3:2|0:0|3:2,0:0:0:0:
177,13,112834,6,0,P|223:51|300:57,1,120,4|0,3:2|3:0,0:0:0:0:
431,18,113736,2,0,L|402:157,1,120,2|0,3:2|3:2,0:0:0:0:
348,280,114639,2,0,P|311:254|248:247,1,90,4|2,0:0|3:2,0:0:0:0:
167,304,115315,2,0,B|125:283|115:228,1,90,2|10,3:2|0:0,0:0:0:0:
173,131,115992,2,0,L|260:118,1,60,10|0,0:0|3:0,0:0:0:0:
309,113,116443,5,4,0:0:0:0:
256,192,116556,12,0,120052,0:0:0:0:
